osu file format v12

[General]
AudioFilename: Ore no Nounai Sentakushi ga, Gakuen Lovecome o Zenryoku de Jama Shiteiru.mp3
AudioLeadIn: 1500
PreviewTime: 38732
Countdown: 0
SampleSet: Soft
StackLeniency: 0.5
Mode: 0
LetterboxInBreaks: 0
WidescreenStoryboard: 0

[Editor]
DistanceSpacing: 1.3
BeatDivisor: 4
GridSize: 4

[Metadata]
Title:S.M.L (TV Size)
TitleUnicode:S・M・L☆ (TV Size)
Artist:Afilia Saga
ArtistUnicode:アフィリア・サーガ
Creator:Fycho
Version:Hard
Source:Ore no Nounai Sentakushi ga, Gakuen Lovecome o Zenryoku de Jama Shiteiru
Tags:Laurier Amamiya yuko [Minakami Yuki] opening 俺の脳内選択肢が、青春ラブコメを全力で邪魔している
BeatmapID:311659
BeatmapSetID:121662

[Difficulty]
HPDrainRate:6
CircleSize:4
OverallDifficulty:6
ApproachRate:8
SliderMultiplier:1.28
SliderTickRate:1

[Events]
//Background and Video events
0,0,"bg.jpg",0,0
Video,0,"OP.avi"
//Break Periods
//Storyboard Layer 0 (Background)
//Storyboard Layer 1 (Fail)
//Storyboard Layer 2 (Pass)
//Storyboard Layer 3 (Foreground)
//Storyboard Sound Samples
//Background Colour Transformations
3,100,163,162,255

[TimingPoints]
332,300,4,2,1,60,1,0
9632,-83.3333333333333,4,2,1,50,0,0
9857,-100,4,2,1,50,0,0
18332,-100,4,2,1,55,0,0
19532,-100,4,2,1,50,0,0
30332,-100,4,2,1,55,0,0
31532,-100,4,2,1,50,0,0
36332,-100,4,2,1,60,0,0
38732,-100,4,2,1,70,0,1
47132,-83.3333333333333,4,2,1,50,0,0
47432,-83.3333333333333,4,2,1,55,0,0
47732,-83.3333333333333,4,2,1,60,0,0
48032,-83.3333333333333,4,2,1,65,0,0
48332,-100,4,2,1,70,0,1
56732,-83.3333333333333,4,2,1,50,0,0
57032,-83.3333333333333,4,2,1,55,0,0
57332,-83.3333333333333,4,2,1,60,0,0
57632,-83.3333333333333,4,2,1,40,0,0
57932,-100,4,2,1,70,0,1
67232,-100,4,2,1,60,0,0
67532,-133.333333333333,4,2,1,70,0,1
72332,-100,4,2,1,70,0,1
77132,-100,4,2,1,60,0,0
87182,-100,4,2,1,40,0,0
87632,-100,4,2,1,30,0,0
88082,-100,4,2,1,20,0,0
88532,-100,4,2,1,10,0,0
88982,-100,4,2,1,5,0,0

[Colours]
Combo1 : 255,242,202
Combo2 : 210,255,210
Combo3 : 217,234,255
Combo4 : 253,210,217

[HitObjects]
203,184,332,2,0,P|137:173|87:215,2,128,4|8|2,0:0|0:0|0:0,0:0:0:0:
234,258,1082,2,0,P|228:300|229:334,1,64,2|8,0:0|0:0,0:0:0:0:
339,283,1382,6,0,P|339:221|286:191,1,128,2|0,0:0|0:0,0:0:0:0:
234,258,1832,1,8,0:0:0:0:
152,292,1982,1,0,0:0:0:0:
152,292,2132,2,0,L|170:157,1,128,2|8,0:0|0:0,0:0:0:0:
120,110,2582,1,0,0:0:0:0:
182,66,2732,6,0,P|219:55|256:58,1,64,2|0,0:0|0:0,0:0:0:0:
274,127,3032,2,0,P|312:126|344:133,1,64,8|0,0:0|0:0,0:0:0:0:
390,188,3332,2,0,P|443:183|474:118,1,128,2|8,0:0|0:0,0:0:0:0:
406,65,3782,1,0,0:0:0:0:
337,118,3932,6,0,L|274:127,1,64,2|8,0:0|0:0,0:0:0:0:
222,213,4232,2,0,L|307:201,1,64,8|8,0:0|0:0,0:0:0:0:
285,204,4682,1,8,0:0:0:0:
348,267,4832,2,0,P|386:277|428:277,1,64,12|0,0:0|0:0,0:0:0:0:
469,220,5132,6,0,P|440:287|450:348,2,128,4|8|2,0:0|0:0|0:0,0:0:0:0:
442,143,5882,2,0,P|437:104|442:67,1,64,2|8,0:0|0:0,0:0:0:0:
357,85,6182,6,0,P|310:47|248:71,1,128,2|0,0:0|0:0,0:0:0:0:
223,144,6632,2,0,P|231:178|234:210,1,64,12|0,0:0|0:0,0:0:0:0:
230,284,6932,2,0,P|181:324|117:310,1,128,2|8,0:0|0:0,0:0:0:0:
57,273,7382,1,0,0:0:0:0:
84,193,7532,6,0,P|83:165|71:125,1,64,4|2,0:0|0:0,0:0:0:0:
26,70,7832,1,8,0:0:0:0:
110,26,7982,1,4,0:0:0:0:
110,26,8282,2,0,P|143:37|192:39,1,64,2|8,0:0|0:0,0:0:0:0:
251,57,8582,6,0,P|307:31|367:65,1,128,4|12,0:0|0:0,0:0:0:0:
365,64,9032,1,8,0:0:0:0:
367,69,9182,1,8,0:0:0:0:
369,74,9332,1,12,0:0:0:0:
413,282,9632,6,0,P|378:262|296:282,1,115.199996484375,12|0,0:0|0:0,0:0:0:0:
282,289,9932,6,0,P|228:311|165:288,1,128,4|8,0:0|0:0,0:0:0:0:
146,125,10532,2,0,L|154:62,1,64,2|2,0:0|0:0,0:0:0:0:
232,35,10832,2,0,L|223:109,1,64,8|0,0:0|0:0,0:0:0:0:
208,175,11132,6,0,L|272:183,1,64,2|0,0:0|0:0,0:0:0:0:
320,263,11432,2,0,L|246:254,1,64,8|8,0:0|0:0,0:0:0:0:
320,263,11732,2,0,L|452:240,1,128,2|8,0:0|0:0,0:0:0:0:
469,164,12182,1,0,0:0:0:0:
438,92,12332,6,0,P|376:70|322:114,1,128,2|8,0:0|0:0,0:0:0:0:
314,181,12782,2,0,P|252:208|192:191,1,128,8|2,0:0|0:0,0:0:0:0:
140,138,13232,1,8,0:0:0:0:
69,176,13382,1,0,0:0:0:0:
80,260,13532,6,0,P|91:323|154:340,1,128,2|8,0:0|0:0,0:0:0:0:
222,318,13982,2,0,B|274:328|274:328|305:321|305:321|357:329,1,128,8|2,0:0|0:0,0:0:0:0:
406,260,14432,2,0,L|334:248,1,64,8|0,0:0|0:0,0:0:0:0:
266,166,14732,6,0,P|333:177|391:151,1,128,2|8,0:0|0:0,0:0:0:0:
459,190,15182,1,8,0:0:0:0:
446,103,15332,2,0,P|453:70|465:43,1,64,2|2,0:0|0:0,0:0:0:0:
377,49,15632,2,0,P|346:49|312:40,1,64,8|0,0:0|0:0,0:0:0:0:
241,78,15932,6,0,P|212:35|136:35,2,128,2|8|2,0:0|0:0|0:0,0:0:0:0:
194,145,16682,1,2,0:0:0:0:
141,205,16832,2,0,P|148:242|148:271,1,64,8|0,0:0|0:0,0:0:0:0:
232,340,17132,6,0,P|224:277|232:211,1,128,4|8,0:0|0:0,0:0:0:0:
315,171,17582,2,0,P|323:234|315:300,1,128,8|2,0:0|0:0,0:0:0:0:
393,310,18032,2,0,P|373:349|348:371,1,64,8|0,0:0|0:0,0:0:0:0:
232,340,18332,6,0,L|162:340,1,64,4|2,0:0|0:0,0:0:0:0:
150,262,18632,2,0,L|74:282,1,64,8|12,0:0|0:0,0:0:0:0:
88,278,19082,1,8,0:0:0:0:
38,219,19232,2,0,L|24:145,1,64,12|0,0:0|0:0,0:0:0:0:
46,69,19532,6,0,P|99:104|165:92,1,128,4|8,0:0|0:0,0:0:0:0:
235,56,19982,1,0,0:0:0:0:
318,70,20132,2,0,P|353:66|395:68,1,64,2|2,0:0|0:0,0:0:0:0:
334,153,20432,2,0,P|299:157|257:155,1,64,8|0,0:0|0:0,0:0:0:0:
226,228,20732,6,0,P|161:217|93:211,1,128,2|8,0:0|0:0,0:0:0:0:
57,278,21182,1,8,0:0:0:0:
113,330,21332,2,0,P|175:348|225:317,1,128,2|8,0:0|0:0,0:0:0:0:
297,273,21782,1,0,0:0:0:0:
297,273,21932,6,0,P|357:249|417:280,1,128,2|8,0:0|0:0,0:0:0:0:
471,221,22382,1,8,0:0:0:0:
430,154,22532,2,0,L|356:163,1,64,2|2,0:0|0:0,0:0:0:0:
284,157,22832,1,8,0:0:0:0:
284,157,23132,6,0,P|212:169|197:222,1,128,2|8,0:0|0:0,0:0:0:0:
217,294,23582,2,0,P|277:317|342:317,1,128,8|2,0:0|0:0,0:0:0:0:
384,224,24032,2,0,P|349:233|322:248,1,64,8|0,0:0|0:0,0:0:0:0:
424,288,24332,6,0,P|458:238|442:174,1,128,4|8,0:0|0:0,0:0:0:0:
373,140,24782,1,8,0:0:0:0:
308,189,24932,2,0,P|279:195|232:193,1,64,2|2,0:0|0:0,0:0:0:0:
204,121,25232,2,0,P|233:115|280:117,1,64,8|0,0:0|0:0,0:0:0:0:
284,31,25532,6,0,P|224:42|156:29,1,128,2|8,0:0|0:0,0:0:0:0:
82,45,25982,1,8,0:0:0:0:
32,107,26132,2,0,P|24:139|21:175,1,64,2|2,0:0|0:0,0:0:0:0:
63,235,26432,2,0,P|98:237|131:246,1,64,8|0,0:0|0:0,0:0:0:0:
173,319,26732,6,0,P|110:358|54:337,1,128,2|12,0:0|0:0,0:0:0:0:
212,246,27332,2,0,P|275:207|331:228,1,128,2|12,0:0|0:0,0:0:0:0:
181,83,27932,6,0,L|196:149,1,64,12|0,0:0|0:0,0:0:0:0:
262,20,28232,2,0,L|255:89,1,64,12|0,0:0|0:0,0:0:0:0:
235,277,28532,2,0,L|241:213,1,64,12|0,0:0|0:0,0:0:0:0:
315,215,28832,2,0,L|300:152,1,64,12|0,0:0|0:0,0:0:0:0:
255,84,29132,6,0,P|330:70|371:109,2,128,4|8|2,0:0|0:0|0:0,0:0:0:0:
201,151,29882,1,2,0:0:0:0:
256,210,30032,1,8,0:0:0:0:
304,143,30182,1,0,0:0:0:0:
201,151,30332,6,0,P|164:158|121:158,1,64,4|0,0:0|0:0,0:0:0:0:
72,253,30632,2,0,P|65:216|65:173,1,64,8|0,0:0|0:0,0:0:0:0:
0,115,30932,2,0,P|37:108|80:108,1,64,4|2,0:0|0:0,0:0:0:0:
129,13,31232,2,0,P|136:50|136:93,1,64,8|0,0:0|0:0,0:0:0:0:
135,188,31532,6,0,P|180:221|250:207,2,128,4|8|2,0:0|0:0|0:0,0:0:0:0:
141,106,32282,1,2,0:0:0:0:
224,84,32432,2,0,P|259:76|294:73,1,64,8|0,0:0|0:0,0:0:0:0:
345,151,32732,6,0,P|309:158|275:162,1,64,4|0,0:0|0:0,0:0:0:0:
405,212,33032,2,0,P|412:247|416:282,1,64,8|0,0:0|0:0,0:0:0:0:
449,144,33332,2,0,P|484:136|519:133,1,64,4|2,0:0|0:0,0:0:0:0:
389,83,33632,2,0,P|381:47|378:13,1,64,8|0,0:0|0:0,0:0:0:0:
449,144,33932,5,12,0:0:0:0:
449,144,34082,1,8,0:0:0:0:
225,243,34532,1,12,0:0:0:0:
225,243,34682,1,8,0:0:0:0:
410,324,35132,5,12,0:0:0:0:
410,324,35282,1,8,0:0:0:0:
148,295,35732,1,12,0:0:0:0:
148,295,35882,1,8,0:0:0:0:
52,133,36332,5,4,0:0:0:0:
52,133,36632,2,0,P|60:178|60:208,1,64,8|0,0:0|0:0,0:0:0:0:
141,227,36932,2,0,P|186:218|221:218,1,64,2|2,0:0|0:0,0:0:0:0:
267,168,37232,1,8,0:0:0:0:
348,181,37382,1,0,0:0:0:0:
400,113,37532,6,0,P|430:74|468:64,2,85.3333333333333,4|4|4,0:0|0:0|0:0,0:0:0:0:
430,188,38132,2,0,P|442:242|441:322,1,128,4|8,0:0|0:0,0:0:0:0:
177,279,38732,6,0,P|238:280|301:238,1,128,4|8,0:0|0:0,0:0:0:0:
329,151,39182,1,0,0:0:0:0:
329,151,39332,2,0,P|268:150|205:192,1,128,2|8,0:0|0:0,0:0:0:0:
176,253,39782,1,0,0:0:0:0:
97,238,39932,6,0,P|63:236|22:223,1,64,2|0,0:0|0:0,0:0:0:0:
149,175,40232,2,0,P|183:177|224:190,1,64,8|0,0:0|0:0,0:0:0:0:
72,161,40532,2,0,P|74:127|87:86,1,64,2|2,0:0|0:0,0:0:0:0:
97,239,40832,2,0,P|95:273|82:314,1,64,8|0,0:0|0:0,0:0:0:0:
166,327,41132,6,0,P|217:356|290:333,2,128,2|8|2,0:0|0:0|0:0,0:0:0:0:
179,246,41882,1,2,0:0:0:0:
237,190,42032,2,0,P|245:153|245:126,1,64,8|0,0:0|0:0,0:0:0:0:
180,42,42332,6,0,P|160:109|160:171,1,128,2|8,0:0|0:0,0:0:0:0:
340,308,42932,2,0,P|360:241|360:179,1,128,2|8,0:0|0:0,0:0:0:0:
307,117,43382,1,0,0:0:0:0:
213,186,43532,6,0,P|249:190|292:191,1,64,4|0,0:0|0:0,0:0:0:0:
167,258,43832,2,0,P|203:262|246:263,1,64,8|0,0:0|0:0,0:0:0:0:
136,182,44132,2,0,P|140:146|141:103,1,64,2|2,0:0|0:0,0:0:0:0:
54,223,44432,2,0,P|58:187|59:144,1,64,8|0,0:0|0:0,0:0:0:0:
50,67,44732,5,2,0:0:0:0:
128,37,44882,1,0,0:0:0:0:
207,61,45032,1,8,0:0:0:0:
282,31,45182,1,0,0:0:0:0:
359,70,45332,2,0,P|341:144|344:199,1,128,2|8,0:0|0:0,0:0:0:0:
323,274,45782,1,0,0:0:0:0:
263,219,45932,6,0,P|232:209|197:210,1,64,4|0,0:0|0:0,0:0:0:0:
247,300,46232,2,0,P|253:331|269:358,1,64,8|0,0:0|0:0,0:0:0:0:
323,273,46532,2,0,P|346:252|362:225,1,64,2|2,0:0|0:0,0:0:0:0:
323,153,46832,1,8,0:0:0:0:
239,133,46982,1,0,0:0:0:0:
175,193,47132,6,0,P|119:213|57:218,1,115.199996484375,4|0,0:0|0:0,0:0:0:0:
31,239,47432,2,0,P|45:280|45:325,1,76.7999976562501,8|0,0:0|0:0,0:0:0:0:
134,298,47732,2,0,P|185:304|245:346,1,115.199996484375,4|0,0:0|0:0,0:0:0:0:
275,335,48032,2,0,P|311:321|349:316,1,76.7999976562501,8|0,0:0|0:0,0:0:0:0:
418,228,48332,6,0,P|327:236|289:246,1,128,4|8,0:0|0:0,0:0:0:0:
208,267,48782,1,0,0:0:0:0:
151,211,48932,2,0,P|159:120|169:82,1,128,2|8,0:0|0:0,0:0:0:0:
247,55,49382,1,0,0:0:0:0:
310,112,49532,6,0,P|277:134|245:140,1,64,2|0,0:0|0:0,0:0:0:0:
191,184,49832,2,0,P|176:147|177:114,1,64,8|0,0:0|0:0,0:0:0:0:
253,140,50132,2,0,P|274:198|284:269,1,128,2|8,0:0|0:0,0:0:0:0:
341,325,50582,1,0,0:0:0:0:
367,243,50732,6,0,P|389:200|467:196,1,128,2|8,0:0|0:0,0:0:0:0:
443,103,51182,1,0,0:0:0:0:
359,123,51332,2,0,L|287:121,1,64,2|2,0:0|0:0,0:0:0:0:
234,189,51632,2,0,L|311:194,1,64,8|0,0:0|0:0,0:0:0:0:
327,52,51932,6,0,B|289:21|242:21|242:21|210:44,1,128,2|8,0:0|0:0,0:0:0:0:
173,243,52532,2,0,B|211:274|258:274|258:274|290:251,1,128,2|8,0:0|0:0,0:0:0:0:
324,187,52982,1,0,0:0:0:0:
392,235,53132,6,0,L|381:310,1,64,4|0,0:0|0:0,0:0:0:0:
324,187,53432,2,0,L|335:112,1,64,8|0,0:0|0:0,0:0:0:0:
248,204,53732,2,0,L|237:279,1,64,2|2,0:0|0:0,0:0:0:0:
180,156,54032,2,0,L|191:81,1,64,8|0,0:0|0:0,0:0:0:0:
101,187,54332,6,0,L|109:315,1,128,2|8,0:0|0:0,0:0:0:0:
169,362,54782,1,0,0:0:0:0:
229,307,54932,2,0,P|264:307|299:301,1,64,2|2,0:0|0:0,0:0:0:0:
342,237,55232,2,0,P|342:202|336:167,1,64,8|0,0:0|0:0,0:0:0:0:
290,102,55532,6,0,P|229:81|172:114,1,128,4|8,0:0|0:0,0:0:0:0:
155,196,55982,2,0,P|216:217|273:184,1,128,0|2,0:0|0:0,0:0:0:0:
290,102,56432,1,8,0:0:0:0:
373,75,56582,1,0,0:0:0:0:
290,102,56732,6,0,L|175:77,1,115.199996484375,4|0,0:0|0:0,0:0:0:0:
135,90,57032,2,0,P|92:108|56:110,1,76.7999976562501,8|0,0:0|0:0,0:0:0:0:
54,195,57332,2,0,P|76:246|80:283,1,76.7999976562501,4|0,0:0|0:0,0:0:0:0:
150,309,57632,2,0,L|190:300,3,38.399998828125,8|8|8|8,0:0|0:0|0:0|0:0,0:0:0:0:
230,288,57932,6,0,P|275:304|352:270,1,128,4|8,0:0|0:0,0:0:0:0:
358,199,58382,1,0,0:0:0:0:
304,144,58532,2,0,L|176:168,1,128,2|8,0:0|0:0,0:0:0:0:
128,100,58982,6,0,L|253:76,1,128,2|0,0:0|0:0,0:0:0:0:
324,40,59432,2,0,L|400:48,1,64,8|0,0:0|0:0,0:0:0:0:
423,126,59732,2,0,L|360:120,1,64,2|2,0:0|0:0,0:0:0:0:
392,196,60032,2,0,L|468:204,1,64,8|0,0:0|0:0,0:0:0:0:
392,280,60332,6,0,P|304:264|268:280,1,128,2|8,0:0|0:0,0:0:0:0:
60,192,60932,2,0,P|132:192|180:160,1,128,2|8,0:0|0:0,0:0:0:0:
148,88,61382,1,0,0:0:0:0:
148,88,61532,6,0,L|276:80,1,128,2|8,0:0|0:0,0:0:0:0:
336,132,61982,1,0,0:0:0:0:
288,192,62132,2,0,P|282:229|282:259,1,64,2|2,0:0|0:0,0:0:0:0:
351,295,62432,2,0,P|357:258|357:228,1,64,8|0,0:0|0:0,0:0:0:0:
288,193,62732,6,0,L|212:204,1,64,4|0,0:0|0:0,0:0:0:0:
144,192,63032,1,8,0:0:0:0:
144,192,63182,1,0,0:0:0:0:
164,109,63332,2,0,L|88:120,1,64,2|2,0:0|0:0,0:0:0:0:
35,173,63632,1,8,0:0:0:0:
35,173,63782,1,0,0:0:0:0:
84,241,63932,6,0,P|106:311|102:371,1,128,2|8,0:0|0:0,0:0:0:0:
180,340,64382,1,0,0:0:0:0:
226,277,64532,2,0,P|261:265|298:263,1,64,2|2,0:0|0:0,0:0:0:0:
357,328,64832,2,0,P|315:340|289:344,1,64,8|0,0:0|0:0,0:0:0:0:
365,248,65132,6,0,L|493:272,1,128,4|8,0:0|0:0,0:0:0:0:
323,150,65732,2,0,L|191:186,1,128,4|8,0:0|0:0,0:0:0:0:
215,260,66182,6,0,P|126:296|52:246,1,192,4|8,0:0|0:0,0:0:0:0:
25,164,66782,2,0,L|18:127,2,32,0|0|8,0:0|0:0|0:0,0:0:0:0:
85,95,67082,1,0,0:0:0:0:
146,141,67232,2,0,P|189:136|214:123,1,64,8|0,0:0|0:0,0:0:0:0:
254,62,67532,6,0,P|340:28|423:81,1,192.000007324219,4|12,0:0|0:0,0:0:0:0:
408,234,68432,1,0,0:0:0:0:
408,234,68582,2,0,P|363:222|306:220,1,96.0000036621095,2|2,0:0|0:0,0:0:0:0:
264,280,69032,2,0,P|211:292|163:280,1,96.0000036621095,0|8,0:0|0:0,0:0:0:0:
79,188,69632,1,2,0:0:0:0:
235,173,69932,6,0,P|237:123|233:73,1,96.0000036621095,4|2,0:0|0:0,0:0:0:0:
406,139,70532,2,0,P|404:189|408:239,1,96.0000036621095,12|0,0:0|0:0,0:0:0:0:
328,276,70982,2,0,P|324:208|256:188,1,144.000005493164,2|2,0:0|0:0,0:0:0:0:
164,265,71732,2,0,P|163:319|171:365,2,96.0000036621095,8|2|4,0:0|0:0|0:0,0:0:0:0:
111,203,72482,6,0,L|99:136,1,64,0|8,0:0|0:0,0:0:0:0:
136,70,72782,1,0,0:0:0:0:
211,82,72932,2,0,L|223:149,1,64,2|2,0:0|0:0,0:0:0:0:
280,201,73232,1,8,0:0:0:0:
280,201,73382,1,0,0:0:0:0:
345,142,73532,6,0,P|379:124|405:117,1,64,2|0,0:0|0:0,0:0:0:0:
362,225,73832,2,0,P|375:259|377:290,1,64,8|0,0:0|0:0,0:0:0:0:
299,280,74132,2,0,P|265:293|234:295,1,64,2|2,0:0|0:0,0:0:0:0:
279,201,74432,2,0,P|266:167|264:136,1,64,8|0,0:0|0:0,0:0:0:0:
265,52,74732,5,4,0:0:0:0:
333,17,74882,1,0,0:0:0:0:
396,60,75032,1,8,0:0:0:0:
396,136,75182,1,0,0:0:0:0:
331,177,75332,5,4,0:0:0:0:
264,139,75482,1,0,0:0:0:0:
197,177,75632,1,8,0:0:0:0:
197,253,75782,1,0,0:0:0:0:
257,298,75932,6,0,P|288:308|325:311,1,64,4|0,0:0|0:0,0:0:0:0:
196,253,76232,2,0,P|170:243|133:240,1,64,8|0,0:0|0:0,0:0:0:0:
269,228,76532,2,0,P|279:197|282:160,1,64,4|0,0:0|0:0,0:0:0:0:
181,323,76832,2,0,P|171:349|168:386,1,64,8|0,0:0|0:0,0:0:0:0:
268,228,77132,6,0,L|338:220,1,64,4|0,0:0|0:0,0:0:0:0:
287,151,77432,2,0,L|223:158,1,64,8|0,0:0|0:0,0:0:0:0:
270,80,77732,2,0,L|340:72,1,64,4|0,0:0|0:0,0:0:0:0:
269,9,78032,2,0,L|205:16,1,64,8|0,0:0|0:0,0:0:0:0:
269,9,78332,5,4,0:0:0:0:
345,32,78482,1,0,0:0:0:0:
359,111,78632,1,8,0:0:0:0:
320,181,78782,1,4,0:0:0:0:
320,181,79082,1,0,0:0:0:0:
243,163,79232,2,0,P|195:171|176:186,1,64,8|0,0:0|0:0,0:0:0:0:
156,268,79532,6,0,P|204:260|223:245,1,64,4|0,0:0|0:0,0:0:0:0:
77,290,79832,2,0,P|85:338|100:357,1,64,8|0,0:0|0:0,0:0:0:0:
61,207,80132,2,0,P|13:215|-6:230,1,64,4|0,0:0|0:0,0:0:0:0:
140,185,80432,2,0,P|132:137|117:118,1,64,8|0,0:0|0:0,0:0:0:0:
41,110,80732,5,4,0:0:0:0:
141,43,80882,1,0,0:0:0:0:
123,125,81032,1,8,0:0:0:0:
58,32,81182,1,4,0:0:0:0:
58,32,81482,1,0,0:0:0:0:
141,43,81632,2,0,L|211:35,1,64,8|0,0:0|0:0,0:0:0:0:
316,106,81932,6,0,P|253:97|191:122,1,128,4|8,0:0|0:0,0:0:0:0:
256,192,82382,1,0,0:0:0:0:
196,278,82532,2,0,P|259:287|321:262,1,128,4|8,0:0|0:0,0:0:0:0:
256,192,82982,1,0,0:0:0:0:
146,209,83132,6,0,L|93:247,1,64,4|0,0:0|0:0,0:0:0:0:
177,125,83432,2,0,L|114:137,1,64,8|4,0:0|0:0,0:0:0:0:
214,21,83882,1,0,0:0:0:0:
290,47,84032,2,0,L|360:57,1,64,8|0,0:0|0:0,0:0:0:0:
342,132,84332,6,0,P|351:195|326:257,1,128,4|8,0:0|0:0,0:0:0:0:
256,192,84782,1,0,0:0:0:0:
170,252,84932,2,0,P|161:189|186:127,1,128,4|8,0:0|0:0,0:0:0:0:
256,192,85382,1,0,0:0:0:0:
237,295,85532,6,0,L|225:367,1,64,4|0,0:0|0:0,0:0:0:0:
306,245,85832,2,0,L|314:324,1,64,8|4,0:0|0:0,0:0:0:0:
312,308,86282,1,0,0:0:0:0:
386,242,86432,2,0,L|398:172,1,64,8|0,0:0|0:0,0:0:0:0:
376,100,86732,5,4,0:1:0:0:
256,192,86882,12,0,88982,0:0:0:0:
