osu file format v14

[General]
AudioFilename: neptuneED.mp3
AudioLeadIn: 0
PreviewTime: 47588
Countdown: 0
SampleSet: Soft
StackLeniency: 0.7
Mode: 3
LetterboxInBreaks: 0
SpecialStyle: 0
WidescreenStoryboard: 0

[Editor]
DistanceSpacing: 0.8
BeatDivisor: 4
GridSize: 8
TimelineZoom: 2.4

[Metadata]
Title:Neptune*Sagashite
TitleUnicode:ネプテューヌ☆サガして
Artist:Afilia Saga
ArtistUnicode:アフィリア・サーガ
Creator:AchsanLovers
Version:Ly0's NM
Source:超次元ゲイム ネプテューヌ
Tags:THE ANIMATION Hyperdimension Neptunia ending ed tv size -_Ly0572_-
BeatmapID:1073634
BeatmapSetID:501481

[Difficulty]
HPDrainRate:7
CircleSize:4
OverallDifficulty:7
ApproachRate:5
SliderMultiplier:1.4
SliderTickRate:1

[Events]
//Background and Video events
0,0,"neptuneBG.jpg",0,0
Video,-27,"Videonya.avi"
//Break Periods
//Storyboard Layer 0 (Background)
//Storyboard Layer 1 (Fail)
//Storyboard Layer 2 (Pass)
//Storyboard Layer 3 (Foreground)
//Storyboard Sound Samples
Sample,50122,0,"LR_kick DS.wav",60
Sample,56743,0,"LR_kick DS.wav",60
Sample,63363,0,"LR_kick DS.wav",60

[TimingPoints]
1295,413.793103448276,4,2,1,30,1,0
47639,-100,4,2,1,30,0,1
60467,-100,4,2,1,30,0,0
60881,-100,4,2,1,30,0,1
74122,-100,4,2,1,30,0,0

[HitObjects]
64,192,1295,5,0,0:0:0:30:
192,192,1501,1,0,0:0:0:30:
320,192,1708,1,2,0:0:0:30:
192,192,2122,1,0,0:0:0:30:
320,192,2329,1,0,0:0:0:30:
448,192,2536,1,2,0:0:0:30:
320,192,2950,1,0,0:0:0:30:
192,192,3157,1,0,0:0:0:30:
64,192,3363,1,2,0:0:0:30:
64,192,3777,1,2,0:0:0:30:
320,192,4191,1,0,0:0:0:30:soft-hitwhistle2.wav
448,192,4191,128,0,4605:0:0:0:30:
64,192,4605,1,0,0:0:0:30:
192,192,4812,1,0,0:0:0:30:
320,192,5019,1,2,0:0:0:30:
192,192,5432,1,0,0:0:0:30:
320,192,5639,1,0,0:0:0:30:
448,192,5846,1,2,0:0:0:30:
320,192,6260,1,0,0:0:0:30:
192,192,6467,1,0,0:0:0:30:
64,192,6674,1,2,0:0:0:30:
64,192,7088,1,2,0:0:0:30:
320,192,7295,1,0,0:0:0:30:cymbal clap.wav
448,192,7295,128,0,7708:0:0:0:30:
64,192,7708,128,0,7915:0:0:0:30:LR_kick DS.wav
448,192,7915,1,0,0:0:0:60:cymbal clap.wav
192,192,7915,1,0,0:0:0:30:
320,192,8122,1,0,0:0:0:30:
448,192,8329,1,0,0:0:0:60:soft-hitclap.wav
64,192,8329,1,0,0:0:0:30:
192,192,8743,1,0,0:0:0:60:LR_kick DS.wav
320,192,8950,1,0,0:0:0:30:
64,192,9157,1,8,0:0:0:60:soft-hitclap.wav
448,192,9157,1,0,0:0:0:30:
320,192,9570,1,0,0:0:0:60:LR_kick DS.wav
192,192,9777,1,0,0:0:0:30:
448,192,9984,1,0,0:0:0:60:soft-hitclap.wav
64,192,9984,128,0,10398:0:0:0:30:
192,192,10398,1,0,0:0:0:60:LR_kick DS.wav
448,192,10398,128,0,10812:0:0:0:30:
320,192,10812,1,0,0:0:0:60:soft-hitclap.wav
64,192,10812,128,0,11226:0:0:0:30:
192,192,11226,1,0,0:0:0:60:LR_kick DS.wav
448,192,11432,1,0,0:0:0:30:
64,192,11639,1,8,0:0:0:60:soft-hitclap.wav
192,192,11639,1,0,0:0:0:30:
320,192,12053,1,0,0:0:0:60:LR_kick DS.wav
192,192,12260,1,0,0:0:0:30:
320,192,12467,1,8,0:0:0:60:soft-hitclap.wav
448,192,12467,1,0,0:0:0:30:
192,192,12881,1,0,0:0:0:60:LR_kick DS.wav
320,192,13088,1,0,0:0:0:30:
64,192,13295,1,8,0:0:0:60:soft-hitclap.wav
448,192,13295,128,0,13708:0:0:0:30:
192,192,13708,1,0,0:0:0:60:LR_kick DS.wav
320,192,13708,128,0,14122:0:0:0:30:
448,192,14122,1,8,0:0:0:60:soft-hitclap.wav
64,192,14122,128,0,14536:0:0:0:30:
448,192,14536,1,0,0:0:0:60:LR_kick DS.wav
320,192,14536,1,0,0:0:0:60:cymbal clap.wav
192,192,14743,1,0,0:0:0:30:
448,192,14950,1,8,0:0:0:60:soft-hitclap.wav
64,192,14950,1,0,0:0:0:30:
192,192,15363,1,0,0:0:0:60:LR_kick DS.wav
320,192,15570,1,0,0:0:0:30:
448,192,15777,1,8,0:0:0:60:soft-hitclap.wav
64,192,15777,1,0,0:0:0:30:
320,192,16191,1,0,0:0:0:60:LR_kick DS.wav
192,192,16398,1,0,0:0:0:30:
448,192,16605,1,0,0:0:0:60:soft-hitclap.wav
64,192,16605,128,0,17019:0:0:0:30:
192,192,17019,128,0,17432:0:0:0:60:LR_kick DS.wav
320,192,17019,1,0,0:0:0:30:
64,192,17432,1,8,0:0:0:60:soft-hitclap.wav
448,192,17432,128,0,17846:0:0:0:30:
320,192,17846,1,0,0:0:0:60:LR_kick DS.wav
192,192,18053,1,0,0:0:0:30:
448,192,18260,1,8,0:0:0:60:soft-hitclap.wav
64,192,18260,1,0,0:0:0:30:
192,192,18674,1,0,0:0:0:60:LR_kick DS.wav
320,192,18881,1,0,0:0:0:30:
448,192,19088,1,8,0:0:0:60:soft-hitclap.wav
64,192,19088,1,0,0:0:0:30:
320,192,19501,1,0,0:0:0:60:LR_kick DS.wav
192,192,19708,1,0,0:0:0:30:
64,192,19915,1,8,0:0:0:60:soft-hitclap.wav
448,192,19915,128,0,20329:0:0:0:30:
192,192,20329,1,0,0:0:0:60:LR_kick DS.wav
64,192,20329,128,0,20743:0:0:0:30:
320,192,20743,128,0,21157:0:0:0:60:LR_kick DS.wav
64,192,21157,128,2,21570:0:0:0:30:
448,192,21570,1,2,0:0:0:30:
192,192,21777,1,0,0:0:0:30:
448,192,21984,1,2,0:0:0:30:
192,192,22191,1,0,0:0:0:30:
448,192,22398,1,2,0:0:0:30:
192,192,22605,1,0,0:0:0:30:
448,192,22812,128,2,23226:0:0:0:30:
64,192,23226,1,2,0:0:0:30:
320,192,23432,1,0,0:0:0:30:
64,192,23639,1,2,0:0:0:30:
320,192,23846,1,0,0:0:0:30:
64,192,24053,1,2,0:0:0:30:
320,192,24260,1,0,0:0:0:30:
64,192,24467,128,2,24881:0:0:0:30:
448,192,24881,1,2,0:0:0:30:
64,192,25088,1,0,0:0:0:30:
448,192,25295,1,2,0:0:0:30:
64,192,25501,1,0,0:0:0:30:
448,192,25708,1,2,0:0:0:30:
64,192,25915,1,0,0:0:0:30:
448,192,26122,128,2,26536:0:0:0:30:
64,192,26536,1,2,0:0:0:30:
192,192,26743,1,0,0:0:0:30:
448,192,26950,1,2,0:0:0:30:
320,192,27157,1,0,0:0:0:30:
64,192,27363,128,2,27777:0:0:0:30:
192,192,27363,1,0,0:0:0:30:
320,192,27777,1,0,0:0:0:30:LR_kick DS.wav
448,192,27777,128,0,28191:0:0:0:30:
64,192,28191,1,2,0:0:0:30:
320,192,28398,1,0,0:0:0:30:
64,192,28605,1,2,0:0:0:30:
320,192,28812,1,0,0:0:0:30:
64,192,29019,1,2,0:0:0:30:
320,192,29226,1,0,0:0:0:30:
64,192,29432,128,2,29846:0:0:0:30:
448,192,29846,1,2,0:0:0:30:
192,192,30053,1,0,0:0:0:30:
448,192,30260,1,2,0:0:0:30:
192,192,30467,1,0,0:0:0:30:
448,192,30674,1,2,0:0:0:30:
192,192,30881,1,0,0:0:0:30:
448,192,31088,128,2,31501:0:0:0:30:
64,192,31501,1,2,0:0:0:30:
448,192,31708,1,0,0:0:0:30:
64,192,31915,1,2,0:0:0:30:
448,192,32122,1,0,0:0:0:30:
64,192,32329,1,2,0:0:0:30:
448,192,32536,1,0,0:0:0:30:
64,192,32743,128,2,33157:0:0:0:30:
192,192,32743,1,0,0:0:0:30:
320,192,33157,1,2,0:0:0:30:
448,192,33157,128,0,33570:0:0:0:0:
64,192,33570,1,2,0:0:0:30:
192,192,33570,128,0,33984:0:0:0:0:
448,192,33984,1,2,0:0:0:30:
320,192,34191,1,0,0:0:0:60:LR_Clap Fast Low.wav
64,192,34398,1,0,0:0:0:60:LR_Clap Fast Low.wav
448,192,34605,1,8,0:0:0:60:soft-hitclap.wav
320,192,34605,1,0,0:0:0:30:
64,192,34812,1,8,0:0:0:60:soft-hitclap.wav
192,192,34812,1,0,0:0:0:30:
448,192,35019,1,0,0:0:0:60:LR_Clap Fast Low.wav
64,192,35226,1,0,0:0:0:60:LR_Clap Fast Low.wav
320,192,35432,1,8,0:0:0:60:soft-hitclap.wav
448,192,35432,1,0,0:0:0:30:
192,192,35639,1,0,0:0:0:60:soft-hitclap.wav
64,192,35639,1,0,0:0:0:30:
320,192,35846,1,0,0:0:0:60:LR_Clap Fast Low.wav
192,192,36053,1,0,0:0:0:60:LR_Clap Fast Low.wav
448,192,36260,1,8,0:0:0:60:soft-hitclap.wav
320,192,36260,1,0,0:0:0:30:
64,192,36467,1,8,0:0:0:60:soft-hitclap.wav
192,192,36467,1,0,0:0:0:30:
448,192,36674,1,0,0:0:0:60:LR_Clap Fast Low.wav
64,192,36881,1,0,0:0:0:60:LR_Clap Fast Low.wav
320,192,37088,1,8,0:0:0:60:soft-hitclap.wav
448,192,37088,1,0,0:0:0:30:
192,192,37295,1,0,0:0:0:60:soft-hitclap.wav
64,192,37295,1,0,0:0:0:30:
320,192,37501,1,0,0:0:0:60:LR_Clap Fast Low.wav
448,192,37708,1,0,0:0:0:60:LR_kick DS.wav
64,192,37708,1,0,0:0:0:60:cymbal clap.wav
192,192,38122,1,8,0:0:0:60:soft-hitclap.wav
320,192,38122,1,0,0:0:0:30:
448,192,38536,1,0,0:0:0:60:LR_kick DS.wav
64,192,38950,1,8,0:0:0:60:soft-hitclap.wav
320,192,38950,1,0,0:0:0:30:
192,192,39363,1,0,0:0:0:60:LR_kick DS.wav
64,192,39777,1,8,0:0:0:60:soft-hitclap.wav
448,192,39777,1,0,0:0:0:30:
320,192,40191,1,0,0:0:0:60:LR_kick DS.wav
448,192,40605,1,8,0:0:0:60:soft-hitclap.wav
64,192,40605,1,0,0:0:0:30:
192,192,40812,1,0,0:0:0:60:LR_Clap Fast Low.wav
320,192,41019,1,0,0:0:0:60:LR_Clap Fast Low.wav
192,192,41226,1,8,0:0:0:60:soft-hitclap.wav
64,192,41226,1,0,0:0:0:30:
320,192,41432,1,8,0:0:0:60:soft-hitclap.wav
448,192,41432,1,0,0:0:0:30:
64,192,41639,1,0,0:0:0:60:LR_Clap Fast Low.wav
448,192,41846,1,0,0:0:0:60:LR_Clap Fast Low.wav
64,192,42053,1,8,0:0:0:60:soft-hitclap.wav
192,192,42053,1,0,0:0:0:30:
448,192,42260,1,8,0:0:0:60:soft-hitclap.wav
320,192,42260,1,0,0:0:0:30:
192,192,42467,1,0,0:0:0:60:LR_Clap Fast Low.wav
320,192,42674,1,0,0:0:0:60:LR_Clap Fast Low.wav
64,192,42881,1,8,0:0:0:60:soft-hitclap.wav
192,192,42881,1,0,0:0:0:30:
448,192,43088,1,8,0:0:0:60:soft-hitclap.wav
320,192,43088,1,0,0:0:0:30:
64,192,43295,1,0,0:0:0:60:LR_Clap Fast Low.wav
448,192,43501,1,0,0:0:0:60:LR_Clap Fast Low.wav
64,192,43708,1,8,0:0:0:60:soft-hitclap.wav
192,192,43708,1,0,0:0:0:30:
320,192,43915,1,8,0:0:0:60:soft-hitclap.wav
448,192,43915,1,0,0:0:0:30:
64,192,44122,1,0,0:0:0:60:LR_Clap Fast Low.wav
320,192,44329,1,0,0:0:0:60:LR_kick DS.wav
320,192,44536,1,0,0:0:0:60:LR_kick DS.wav
64,192,44743,1,0,0:0:0:60:soft-hitclap.wav
448,192,44743,1,0,0:0:0:30:
64,192,45157,1,0,0:0:0:60:soft-hitclap.wav
448,192,45157,1,0,0:0:0:30:
192,192,45363,1,0,0:0:0:60:LR_kick DS.wav
320,192,45467,1,0,0:0:0:60:LR_kick DS.wav
448,192,45570,1,0,0:0:0:60:LR_kick DS.wav
64,192,45777,1,8,0:0:0:60:LR_kick DS.wav
448,192,45984,1,0,0:0:0:60:soft-hitclap.wav
192,192,45984,1,0,0:0:0:30:
448,192,46398,1,0,0:0:0:60:soft-hitclap.wav
192,192,46398,1,0,0:0:0:30:
320,192,46812,1,0,0:0:0:30:
320,192,47019,1,0,0:0:0:30:
448,192,47226,128,2,47639:0:0:0:30:
64,192,47226,1,0,0:0:0:0:
64,192,47639,1,0,0:0:0:60:LR_kick DS.wav
192,192,47639,1,0,0:0:0:60:cymbal clap.wav
320,192,47846,1,0,0:0:0:30:
448,192,48053,1,2,0:0:0:60:soft-hitwhistle2.wav
64,192,48053,128,0,48467:0:0:0:60:soft-hitclap.wav
320,192,48467,1,0,0:0:0:60:LR_kick DS.wav
192,192,48674,1,0,0:0:0:30:
64,192,48881,1,2,0:0:0:60:soft-hitwhistle2.wav
448,192,48881,128,0,49295:0:0:0:60:soft-hitclap.wav
192,192,49295,1,0,0:0:0:60:LR_kick DS.wav
320,192,49501,1,0,0:0:0:30:
448,192,49708,1,2,0:0:0:60:soft-hitwhistle2.wav
64,192,49708,128,0,50122:0:0:0:60:soft-hitclap.wav
320,192,50122,1,2,0:0:0:60:soft-hitwhistle2.wav
192,192,50329,1,0,0:0:0:30:
448,192,50536,1,8,0:0:0:60:soft-hitclap.wav
64,192,50536,1,0,0:0:0:30:
320,192,50743,1,0,0:0:0:30:
192,192,50950,1,0,0:0:0:60:cymbal clap.wav
448,192,50950,128,0,51363:0:0:0:60:LR_kick DS.wav
64,192,51363,1,8,0:0:0:60:soft-hitclap.wav
320,192,51363,1,0,0:0:0:30:
192,192,51570,1,0,0:0:0:30:
320,192,51777,1,0,0:0:0:60:LR_kick DS.wav
192,192,51984,1,0,0:0:0:30:
64,192,52191,1,8,0:0:0:60:soft-hitclap.wav
448,192,52191,1,0,0:0:0:30:
192,192,52398,1,0,0:0:0:30:
448,192,52605,128,0,53019:0:0:0:60:LR_kick DS.wav
320,192,52605,1,0,0:0:0:30:
64,192,53019,1,8,0:0:0:60:soft-hitclap.wav
320,192,53019,1,0,0:0:0:30:
192,192,53226,1,0,0:0:0:30:
320,192,53432,1,0,0:0:0:60:LR_kick DS.wav
192,192,53639,1,8,0:0:0:60:soft-hitclap.wav
448,192,53639,1,0,0:0:0:30:
320,192,53846,1,8,0:0:0:60:soft-hitclap.wav
64,192,53846,128,0,54260:0:0:0:30:
320,192,54260,1,0,0:0:0:60:LR_kick DS.wav
448,192,54260,1,0,0:0:0:60:cymbal clap.wav
192,192,54467,1,0,0:0:0:30:
64,192,54674,1,2,0:0:0:60:soft-hitwhistle2.wav
448,192,54674,128,0,55088:0:0:0:60:soft-hitclap.wav
192,192,55088,1,0,0:0:0:60:LR_kick DS.wav
320,192,55295,1,0,0:0:0:30:
448,192,55501,1,2,0:0:0:60:soft-hitwhistle2.wav
64,192,55501,128,0,55915:0:0:0:60:soft-hitclap.wav
320,192,55915,1,0,0:0:0:60:LR_kick DS.wav
192,192,56122,1,0,0:0:0:30:
64,192,56329,1,2,0:0:0:60:soft-hitwhistle2.wav
448,192,56329,128,0,56743:0:0:0:60:soft-hitclap.wav
192,192,56743,1,2,0:0:0:60:soft-hitwhistle2.wav
64,192,56950,1,0,0:0:0:30:
192,192,57157,1,8,0:0:0:60:soft-hitclap.wav
448,192,57157,1,0,0:0:0:30:
320,192,57363,1,0,0:0:0:30:
448,192,57570,1,0,0:0:0:60:cymbal clap.wav
64,192,57570,128,0,57984:0:0:0:60:LR_kick DS.wav
448,192,57984,1,0,0:0:0:60:soft-hitclap.wav
192,192,57984,1,0,0:0:0:30:
320,192,58191,1,0,0:0:0:30:
64,192,58398,1,0,0:0:0:60:LR_kick DS.wav
448,192,58605,1,0,0:0:0:30:
192,192,58812,1,8,0:0:0:60:soft-hitclap.wav
64,192,58812,1,0,0:0:0:30:
320,192,59019,1,0,0:0:0:30:
448,192,59226,1,0,0:0:0:60:LR_kick DS.wav
64,192,59226,128,0,59639:0:0:0:30:
192,192,59639,1,8,0:0:0:60:soft-hitclap.wav
448,192,59639,1,0,0:0:0:30:
320,192,59846,1,0,0:0:0:30:
192,192,60053,1,0,0:0:0:60:LR_kick DS.wav
64,192,60260,1,8,0:0:0:60:soft-hitclap.wav
320,192,60260,1,0,0:0:0:30:
192,192,60467,1,0,0:0:0:60:soft-hitclap.wav
448,192,60467,128,0,60881:0:0:0:30:
64,192,60881,1,0,0:0:0:60:LR_kick DS.wav
320,192,60881,1,0,0:0:0:60:cymbal clap.wav
192,192,61088,1,0,0:0:0:30:
448,192,61295,1,2,0:0:0:60:soft-hitwhistle2.wav
64,192,61295,128,0,61708:0:0:0:60:soft-hitclap.wav
320,192,61708,1,0,0:0:0:60:LR_kick DS.wav
192,192,61915,1,0,0:0:0:30:
64,192,62122,1,2,0:0:0:60:soft-hitwhistle2.wav
448,192,62122,128,0,62536:0:0:0:60:soft-hitclap.wav
192,192,62536,1,0,0:0:0:60:LR_kick DS.wav
320,192,62743,1,0,0:0:0:30:
448,192,62950,1,2,0:0:0:60:soft-hitwhistle2.wav
64,192,62950,128,0,63363:0:0:0:60:soft-hitclap.wav
320,192,63363,1,2,0:0:0:60:soft-hitwhistle2.wav
192,192,63570,1,0,0:0:0:30:
64,192,63777,1,8,0:0:0:60:soft-hitclap.wav
448,192,63777,1,0,0:0:0:30:
320,192,63984,1,0,0:0:0:30:
64,192,64191,128,0,64605:0:0:0:60:cymbal clap.wav
192,192,64191,1,0,0:0:0:60:LR_kick DS.wav
192,192,64605,128,8,65019:0:0:0:60:soft-hitclap.wav
320,192,64605,1,0,0:0:0:30:
64,192,65019,1,0,0:0:0:60:LR_kick DS.wav
448,192,65019,128,0,65432:0:0:0:30:
320,192,65432,1,8,0:0:0:60:soft-hitclap.wav
64,192,65432,1,0,0:0:0:30:
192,192,65639,1,0,0:0:0:30:
320,192,65846,1,0,0:0:0:60:LR_kick DS.wav
64,192,66053,1,0,0:0:0:30:
192,192,66260,1,8,0:0:0:60:soft-hitclap.wav
448,192,66260,128,0,66674:0:0:0:30:
64,192,66674,1,0,0:0:0:60:LR_kick DS.wav
192,192,66881,1,8,0:0:0:60:soft-hitclap.wav
320,192,66881,1,0,0:0:0:30:
448,192,67088,1,8,0:0:0:60:soft-hitclap.wav
64,192,67088,1,0,0:0:0:30:
192,192,67295,1,0,0:0:0:30:
64,192,67501,128,0,67915:0:0:0:60:cymbal clap.wav
320,192,67501,1,0,0:0:0:60:LR_kick DS.wav
448,192,67915,1,8,0:0:0:60:soft-hitclap.wav
320,192,67915,1,0,0:0:0:30:
192,192,68122,1,0,0:0:0:30:
448,192,68329,128,0,68743:0:0:0:60:LR_kick DS.wav
64,192,68329,1,0,0:0:0:60:cymbal clap.wav
192,192,68743,1,8,0:0:0:60:soft-hitclap.wav
64,192,68743,1,0,0:0:0:30:
320,192,68950,1,0,0:0:0:30:
448,192,69157,1,8,0:0:0:60:soft-hitclap.wav
64,192,69157,1,0,0:0:0:30:
64,192,69363,1,8,0:0:0:60:soft-hitclap.wav
448,192,69363,1,0,0:0:0:30:
192,192,69984,1,8,0:0:0:60:soft-hitclap.wav
320,192,69984,1,0,0:0:0:30:
192,192,70191,1,8,0:0:0:60:soft-hitclap.wav
320,192,70191,1,0,0:0:0:30:
64,192,70812,1,0,0:0:0:60:LR_kick DS.wav
448,192,70812,1,0,0:0:0:60:cymbal clap.wav
320,192,71019,1,0,0:0:0:30:
192,192,71226,1,8,0:0:0:60:soft-hitclap.wav
64,192,71226,1,0,0:0:0:30:
320,192,71639,1,0,0:0:0:60:LR_kick DS.wav
192,192,71846,1,0,0:0:0:30:
448,192,72053,1,8,0:0:0:60:soft-hitclap.wav
320,192,72053,1,0,0:0:0:30:
64,192,72467,1,8,0:0:0:60:soft-hitclap.wav
192,192,72467,1,0,0:0:0:30:
320,192,72674,1,0,0:0:0:60:soft-hitclap.wav
448,192,72674,1,0,0:0:0:30:
448,192,73295,1,8,0:0:0:60:soft-hitclap.wav
320,192,73295,1,0,0:0:0:30:
192,192,73501,1,8,0:0:0:60:soft-hitclap.wav
64,192,73501,1,0,0:0:0:30:
448,192,74122,1,0,0:0:0:60:LR_kick DS.wav
64,192,74122,1,0,0:0:0:60:cymbal clap.wav
192,192,74329,1,0,0:0:0:15:
320,192,74536,1,8,0:0:0:60:soft-hitclap.wav
448,192,74536,1,0,0:0:0:15:
192,192,74950,1,0,0:0:0:60:LR_kick DS.wav
320,192,75157,1,0,0:0:0:15:
192,192,75363,1,8,0:0:0:60:soft-hitclap.wav
64,192,75363,1,0,0:0:0:15:
320,192,75777,1,0,0:0:0:60:LR_kick DS.wav
192,192,75984,1,0,0:0:0:15:
64,192,76191,1,8,0:0:0:60:soft-hitclap.wav
448,192,76191,128,0,76605:0:0:0:30:
320,192,76605,128,0,77019:0:0:0:60:LR_kick DS.wav
192,192,76605,1,0,0:0:0:30:
192,192,77019,1,8,0:0:0:60:soft-hitclap.wav
64,192,77019,128,0,77432:0:0:0:30:
448,192,77432,1,0,0:0:0:60:cymbal clap.wav
192,192,77432,1,0,0:0:0:60:LR_kick DS.wav
320,192,77639,1,0,0:0:0:15:
64,192,77846,1,8,0:0:0:60:soft-hitclap.wav
448,192,77846,1,0,0:0:0:15:
320,192,78260,1,0,0:0:0:60:LR_kick DS.wav
192,192,78467,1,0,0:0:0:15:
64,192,78674,1,8,0:0:0:60:soft-hitclap.wav
448,192,78674,1,0,0:0:0:15:
192,192,79088,1,0,0:0:0:60:LR_kick DS.wav
320,192,79295,1,0,0:0:0:30:
448,192,79501,1,8,0:0:0:60:soft-hitclap.wav
64,192,79501,128,0,79915:0:0:0:15:
320,192,79915,1,0,0:0:0:60:LR_kick DS.wav
192,192,79915,128,0,80329:0:0:0:30:
448,192,80329,128,8,80743:0:0:0:60:soft-hitclap.wav
64,192,80329,1,0,0:0:0:30:
320,192,80743,1,0,0:0:0:60:cymbal clap.wav
192,192,80743,1,0,0:0:0:60:LR_kick DS.wav
64,192,80950,1,0,0:0:0:30:
448,192,81157,1,8,0:0:0:60:soft-hitclap.wav
192,192,81157,1,0,0:0:0:30:
320,192,81570,1,0,0:0:0:60:LR_kick DS.wav
192,192,81777,1,0,0:0:0:15:
448,192,81984,1,0,0:0:0:60:soft-hitclap.wav
64,192,81984,1,0,0:0:0:30:
192,192,82398,1,0,0:0:0:60:LR_kick DS.wav
320,192,82605,1,0,0:0:0:30:
448,192,82812,128,0,83226:0:0:0:60:soft-hitclap.wav
64,192,82812,1,0,0:0:0:30:
192,192,83226,1,0,0:0:0:60:LR_kick DS.wav
320,192,83226,128,0,83639:0:0:0:30:
448,192,83639,1,0,0:0:0:60:soft-hitclap.wav
64,192,83639,128,0,84053:0:0:0:30:
320,192,84053,1,0,0:0:0:60:LR_kick DS.wav
448,192,84053,1,0,0:0:0:15:
192,192,84260,1,0,0:0:0:15:
64,192,84467,1,8,0:0:0:60:soft-hitclap.wav
448,192,84467,1,0,0:0:0:15:
192,192,84881,1,0,0:0:0:60:LR_kick DS.wav
320,192,85088,1,0,0:0:0:15:
448,192,85295,1,8,0:0:0:60:soft-hitclap.wav
64,192,85295,1,0,0:0:0:15:
320,192,85708,1,0,0:0:0:60:LR_kick DS.wav
448,192,85915,1,0,0:0:0:15:
192,192,86122,1,8,0:0:0:60:soft-hitclap.wav
64,192,86122,128,0,86536:0:0:0:15:
320,192,86536,1,0,0:0:0:60:LR_kick DS.wav
448,192,86743,128,0,87157:0:0:0:30:soft-hitnormal.wav
