osu file format v14

[General]
AudioFilename: Embrace BladeTV_01.mp3
AudioLeadIn: 0
PreviewTime: 45329
Countdown: 0
SampleSet: Soft
StackLeniency: 0.7
Mode: 0
LetterboxInBreaks: 0
WidescreenStoryboard: 0

[Editor]
DistanceSpacing: 1.1
BeatDivisor: 4
GridSize: 4
TimelineZoom: 1

[Metadata]
Title:Embrace Blade
TitleUnicode:Embrace Blade
Artist:Afilia Saga
ArtistUnicode:アフィリア・サーガ
Creator:Rizia
Version:Insane
Source:対魔導学園35試験小隊
Tags:Taimadou Gakuen 35 Shiken Shoutai opening tv size kawaiwkyik iamkwan Chaoslitz
BeatmapID:812041
BeatmapSetID:370552

[Difficulty]
HPDrainRate:7
CircleSize:4
OverallDifficulty:7
ApproachRate:8
SliderMultiplier:1.8
SliderTickRate:1

[Events]
//Background and Video events
0,0,"BG.png",0,0
Video,0,"Video.flv"
//Break Periods
//Storyboard Layer 0 (Background)
//Storyboard Layer 1 (Fail)
//Storyboard Layer 2 (Pass)
//Storyboard Layer 3 (Foreground)
//Storyboard Sound Samples

[TimingPoints]
552,444.444444444444,4,2,1,90,1,0
14774,-113.636363636364,4,2,0,40,0,0
28107,-113.636363636364,4,2,0,30,0,0
28996,-100,4,2,1,90,0,0
45440,-153.846153846154,4,2,1,90,0,0
46774,-100,4,2,1,90,0,1
75218,-100,4,2,1,90,0,0
82329,-100,4,2,1,40,0,0
88996,-100,4,2,1,5,0,0

[Colours]
Combo1 : 238,231,189
Combo2 : 159,124,84
Combo3 : 185,177,217
Combo4 : 244,174,120

[HitObjects]
104,172,329,5,0,0:0:0:0:
104,172,440,1,0,0:0:0:0:
104,172,552,2,0,P|152:188|228:100,1,180,4|8,0:0|0:0,0:0:0:0:
332,32,1218,1,0,0:0:0:0:
332,32,1329,1,0,0:0:0:0:
332,32,1440,2,0,P|344:100|348:140,1,90,2|0,0:0|0:0,0:0:0:0:
280,260,1885,1,8,0:0:0:0:
280,260,1996,2,0,P|328:240|408:224,1,90
388,232,2329,6,0,P|432:264|408:380,1,180,2|8,0:0|0:0,0:0:0:0:
200,304,2996,2,0,P|208:256|236:120,1,180
424,120,3663,2,0,P|419:148|402:230,1,90,8|0,0:0|0:0,0:0:0:0:
234,127,4107,6,0,P|194:103|70:175,1,180,2|8,0:0|0:0,0:0:0:0:
4,220,4774,1,0,0:0:0:0:
4,220,4885,1,0,0:0:0:0:
4,220,4996,2,0,P|20:276|28:324,1,90,2|0,0:0|0:0,0:0:0:0:
140,368,5440,2,0,P|148:323|161:280,1,90,8|0,0:0|0:0,0:0:0:0:
228,200,5885,6,0,P|272:216|372:144,2,180,2|8|2,0:0|0:0|0:0,0:0:0:0:
120,68,6996,1,0,0:0:0:0:
49,223,7218,1,8,0:0:0:0:
49,223,7329,1,0,0:0:0:0:
49,223,7440,1,0,0:0:0:0:
49,223,7551,1,0,0:0:0:0:
49,223,7663,6,0,P|105:211|233:199,1,180,4|8,0:0|0:0,0:0:0:0:
360,136,8329,1,0,0:0:0:0:
360,136,8440,1,0,0:0:0:0:
360,136,8551,2,0,P|376:188|372:228,1,90,2|0,0:0|0:0,0:0:0:0:
236,360,8996,1,8,0:0:0:0:
236,360,9107,2,0,P|248:316|260:268,1,90
252,248,9440,6,0,P|216:224|116:304,1,180,2|8,0:0|0:0,0:0:0:0:
356,348,10107,2,0,L|408:340,2,45,0|0|2,0:0|0:0|0:0,0:0:0:0:
268,272,10551,1,0,0:0:0:0:
340,180,10774,2,0,L|332:84,1,90,8|0,0:0|0:0,0:0:0:0:
184,4,11218,6,0,P|152:48|216:152,2,180,2|8|2,0:0|0:0|0:0,0:0:0:0:
360,4,12329,1,0,0:0:0:0:
232,72,12551,1,8,0:0:0:0:
376,144,12774,1,0,0:0:0:0:
208,192,12996,6,0,P|196:240|188:300,1,90,4|0,0:0|0:0,0:0:0:0:
189,280,13329,1,0,0:0:0:0:
189,280,13440,1,8,0:0:0:0:
328,352,13663,1,0,0:0:0:0:
328,352,13774,1,0,0:0:0:0:
328,352,13885,2,0,L|380:344,1,45,2|0,0:0|0:0,0:0:0:0:
484,288,14107,2,0,L|432:280,1,45
336,216,14329,2,0,L|344:160,1,45,8|0,0:0|0:0,0:0:0:0:
444,136,14551,2,0,L|436:80,1,45
344,32,14774,6,0,P|300:40|264:52,1,79.2000024169922,4|0,0:0|0:0,0:0:0:0:
144,68,15218,1,2,0:0:0:0:
228,124,15440,1,0,0:0:0:0:
228,124,15551,2,0,P|248:188|260:276,1,118.800003625488,2|0,0:0|0:0,0:0:0:0:
212,332,16107,2,0,P|175:317|136:308,1,79.2000024169922,2|0,0:0|0:0,0:0:0:0:
320,320,16551,6,0,P|356:334|395:343,1,79.2000024169922,2|0,0:0|0:0,0:0:0:0:
484,304,16996,1,0,0:0:0:0:
408,244,17218,1,2,0:0:0:0:
476,176,17440,1,0,0:0:0:0:
476,176,17663,1,0,0:0:0:0:
393,69,17885,2,0,L|384:148,1,79.2000024169922,2|0,0:0|0:0,0:0:0:0:
272,208,18329,6,0,P|260:164|260:124,2,79.2000024169922,2|0|0,0:0|0:0|0:0,0:0:0:0:
336,304,18996,1,0,0:0:0:0:
336,304,19107,2,0,P|281:314|189:351,1,118.800003625488,2|0,0:0|0:0,0:0:0:0:
132,372,19663,2,0,L|140:284,1,79.2000024169922,2|0,0:0|0:0,0:0:0:0:
48,196,20107,6,0,P|76:164|196:176,1,158.400004833984,2|0,0:0|0:0,0:0:0:0:
348,212,20774,2,0,L|184:188,1,158.400004833984,2|2,0:0|0:0,0:0:0:0:
148,320,21440,2,0,P|140:276|128:232,1,79.2000024169922
208,40,21885,5,2,0:0:0:0:
176,120,22107,1,0,0:0:0:0:
228,192,22329,1,0,0:0:0:0:
316,184,22551,1,0,0:0:0:0:
316,184,22663,2,0,P|364:168|440:196,1,118.800003625488,2|0,0:0|0:0,0:0:0:0:
484,252,23218,2,0,P|472:304|468:344,1,79.2000024169922,2|0,0:0|0:0,0:0:0:0:
392,368,23663,5,2,0:0:0:0:
320,316,23885,1,0,0:0:0:0:
236,344,24107,1,0,0:0:0:0:
168,292,24329,2,0,P|144:244|208:152,1,158.400004833984,2|0,0:0|0:0,0:0:0:0:
352,92,24996,2,0,P|368:152|372:200,1,79.2000024169922,2|0,0:0|0:0,0:0:0:0:
296,236,25440,6,0,P|280:176|276:128,2,79.2000024169922,2|0|0,0:0|0:0|0:0,0:0:0:0:
448,260,26107,2,0,P|472:220|464:104,1,158.400004833984,2|0,0:0|0:0,0:0:0:0:
316,56,26774,1,2,0:0:0:0:
388,124,26996,1,0,0:0:0:0:
224,200,27218,5,2,0:0:0:0:
240,44,27663,1,2,0:0:0:0:
224,200,28107,6,0,L|228:156,1,39.6000012084961,0|0,1:0|1:0,0:0:0:0:
308,152,28329,2,0,L|304:108,1,39.6000012084961,0|0,1:0|1:0,0:0:0:0:
104,104,28663,2,0,L|100:60,2,39.6000012084961,0|0|0,1:0|1:0|1:0,0:0:0:0:
108,136,28996,6,0,P|88:208|88:284,1,135,4|0,0:0|0:0,0:0:0:0:
100,296,29440,2,0,P|148:288|196:284,1,90,8|0,0:0|0:0,0:0:0:0:
256,344,29885,1,2,0:0:0:0:
322,284,30107,2,0,P|367:288|412:296,1,90,0|8,0:0|0:0,0:0:0:0:
480,224,30551,1,0,0:0:0:0:
352,56,30774,5,2,0:0:0:0:
476,84,30996,1,0,0:0:0:0:
392,176,31218,1,8,0:0:0:0:
352,56,31440,1,0,0:0:0:0:
352,56,31551,1,0,0:0:0:0:
352,56,31663,2,0,P|316:44|256:48,1,90,2|0,0:0|0:0,0:0:0:0:
200,188,32107,2,0,P|236:200|296:196,1,90,8|0,0:0|0:0,0:0:0:0:
96,48,32551,5,2,0:0:0:0:
108,148,32774,1,0,0:0:0:0:
120,248,32996,1,8,0:0:0:0:
24,212,33218,1,0,0:0:0:0:
24,212,33329,1,0,0:0:0:0:
24,212,33440,1,2,0:0:0:0:
192,88,33663,1,0,0:0:0:0:
216,284,33885,1,8,0:0:0:0:
108,148,34107,1,0,0:0:0:0:
56,356,34329,6,0,P|112:344|176:344,1,90,2|0,0:0|0:0,0:0:0:0:
304,276,34774,1,8,0:0:0:0:
408,336,34996,1,0,0:0:0:0:
408,336,35107,1,0,0:0:0:0:
408,336,35218,2,0,P|420:296|416:232,1,90,2|0,0:0|0:0,0:0:0:0:
312,72,35663,1,8,0:0:0:0:
348,208,35885,1,0,0:0:0:0:
200,248,36107,6,0,P|148:240|4:228,1,180,4|8,0:0|0:0,0:0:0:0:
200,136,36774,1,0,0:0:0:0:
272,344,36996,2,0,P|304:308|292:172,1,180,2|8,0:0|0:0,0:0:0:0:
200,248,37663,1,0,0:0:0:0:
68,56,37885,6,0,P|84:121|98:187,1,135,2|0,0:0|0:0,0:0:0:0:
100,224,38329,1,8,0:0:0:0:
224,144,38551,1,0,0:0:0:0:
224,144,38663,1,0,0:0:0:0:
224,144,38774,2,0,L|320:152,1,90,2|0,0:0|0:0,0:0:0:0:
388,232,39218,1,8,0:0:0:0:
432,44,39440,5,0,0:0:0:0:
432,44,39551,1,0,0:0:0:0:
432,44,39663,1,4,0:0:0:0:
324,120,39885,1,0,0:0:0:0:
468,180,40107,1,8,0:0:0:0:
304,288,40329,2,0,P|296:236|284:108,1,180,4|0,0:0|0:0,0:0:0:0:
448,160,40996,1,8,0:0:0:0:
392,328,41218,6,0,P|344:316|240:388,1,180,4|0,0:0|0:0,0:0:0:0:
52,248,41885,1,8,0:0:0:0:
176,332,42107,1,0,0:0:0:0:
176,332,42218,1,0,0:0:0:0:
176,332,42329,2,0,P|193:286|203:236,1,90,2|0,0:0|0:0,0:0:0:0:
304,56,42774,1,8,0:0:0:0:
76,128,42996,2,0,L|120:156,1,45
192,196,43218,6,0,P|236:184|384:160,1,180,4|8,0:0|0:0,0:0:0:0:
484,188,43885,1,0,0:0:0:0:
348,64,44107,2,0,L|352:108,3,30,2|0|0|0,0:0|0:0|0:0|0:0,0:0:0:0:
320,264,44551,1,8,0:0:0:0:
132,128,44774,5,4,0:0:0:0:
376,200,45218,1,4,0:0:0:0:
144,300,45440,2,0,B|56:272|68:180|140:148|140:148|156:204|108:240,1,292.499986610413,4|0,0:0|0:0,0:0:0:0:
224,192,46774,6,0,P|222:148|212:88,1,90,4|0,0:0|0:0,0:0:0:0:
152,24,47218,1,8,0:0:0:0:
96,128,47440,1,0,0:0:0:0:
96,128,47551,1,0,0:0:0:0:
96,128,47663,1,2,0:0:0:0:
268,48,47885,1,0,0:0:0:0:
308,260,48107,1,8,0:0:0:0:
200,184,48329,6,0,P|208:136|244:0,1,180
352,176,48996,1,8,0:0:0:0:
228,292,49218,2,0,P|180:304|136:320,1,90,0|2,0:0|0:0,0:0:0:0:
316,208,49663,1,0,0:0:0:0:
360,360,49885,1,8,0:0:0:0:
316,208,50107,1,0,0:0:0:0:
228,292,50329,5,2,0:0:0:0:
384,352,50551,1,0,0:0:0:0:
224,208,50774,1,8,0:0:0:0:
420,144,50996,1,0,0:0:0:0:
420,144,51107,1,0,0:0:0:0:
420,144,51218,1,2,0:0:0:0:
328,240,51440,1,0,0:0:0:0:
324,56,51663,1,8,0:0:0:0:
504,248,51885,6,0,P|456:236|388:224,1,90,0|6,0:0|0:0,0:0:0:0:
188,240,52329,1,0,0:0:0:0:
304,143,52551,2,0,P|316:95|328:27,2,90,8|0|2,0:0|0:0|0:0,0:0:0:0:
204,128,53218,1,0,0:0:0:0:
272,312,53440,1,8,0:0:0:0:
440,184,53663,1,0,0:0:0:0:
440,184,53774,1,0,0:0:0:0:
440,184,53885,6,0,P|380:200|312:208,1,90,6|0,0:0|0:0,0:0:0:0:
160,216,54329,1,8,0:0:0:0:
272,312,54551,1,0,0:0:0:0:
272,312,54663,1,0,0:0:0:0:
272,312,54774,1,2,0:0:0:0:
116,344,54996,1,0,0:0:0:0:
168,188,55218,1,8,0:0:0:0:
348,364,55440,5,0,0:0:0:0:
348,364,55551,1,0,0:0:0:0:
348,364,55663,2,0,P|364:320|356:268,1,90,2|0,0:0|0:0,0:0:0:0:
168,268,56107,1,8,0:0:0:0:
288,216,56329,1,0,0:0:0:0:
288,216,56440,1,0,0:0:0:0:
288,216,56551,1,2,0:0:0:0:
180,160,56774,5,0,0:0:0:0:
272,312,56996,1,8,0:0:0:0:
376,112,57218,1,0,0:0:0:0:
168,180,57440,6,0,P|120:196|8:112,1,180,6|8,0:0|0:0,0:0:0:0:
128,12,58107,2,0,P|116:60|108:108,1,90,0|2,0:0|0:0,0:0:0:0:
288,216,58551,2,0,P|280:171|269:128,1,90,0|8,0:0|0:0,0:0:0:0:
432,280,58996,5,0,0:0:0:0:
432,280,59107,1,0,0:0:0:0:
432,280,59218,2,0,P|376:288|248:324,1,180,4|8,0:0|0:0,0:0:0:0:
128,252,59885,1,0,0:0:0:0:
128,252,59996,1,0,0:0:0:0:
128,252,60107,2,0,L|136:200,1,45,2|0,0:0|0:0,0:0:0:0:
220,148,60329,2,0,L|226:192,1,45,2|0,0:0|0:0,0:0:0:0:
156,336,60551,5,8,0:0:0:0:
112,343,60662,1,0,0:0:0:0:
70,328,60773,1,0,0:0:0:0:
42,293,60884,1,0,0:0:0:0:
35,250,60996,6,0,P|44:196|48:140,1,90,4|0,0:0|0:0,0:0:0:0:
116,44,61440,1,8,0:0:0:0:
136,152,61663,1,0,0:0:0:0:
232,76,61885,1,2,0:0:0:0:
160,256,62107,1,0,0:0:0:0:
24,152,62329,1,8,0:0:0:0:
152,348,62551,6,0,P|212:336|260:332,1,90,0|2,0:0|0:0,0:0:0:0:
448,276,62996,2,0,P|388:264|340:260,1,90,0|8,0:0|0:0,0:0:0:0:
244,188,63440,2,0,P|249:143|258:99,1,90,0|2,0:0|0:0,0:0:0:0:
348,56,63885,1,0,0:0:0:0:
168,132,64107,1,8,0:0:0:0:
352,216,64329,1,0,0:0:0:0:
228,284,64551,5,2,0:0:0:0:
264,156,64774,1,0,0:0:0:0:
296,352,64996,1,8,0:0:0:0:
128,264,65218,1,0,0:0:0:0:
128,264,65329,1,0,0:0:0:0:
128,264,65440,1,2,0:0:0:0:
332,208,65663,1,0,0:0:0:0:
128,264,65885,1,8,0:0:0:0:
204,64,66107,6,0,P|218:106|222:151,1,90,0|2,0:0|0:0,0:0:0:0:
56,324,66551,2,0,P|41:281|37:236,1,90,0|8,0:0|0:0,0:0:0:0:
208,329,66996,1,0,0:0:0:0:
208,329,67107,1,0,0:0:0:0:
208,329,67218,2,0,P|264:341|320:361,1,90,2|0,0:0|0:0,0:0:0:0:
419,230,67663,2,0,P|363:218|307:198,1,90,8|0,0:0|0:0,0:0:0:0:
136,136,68107,6,0,P|164:96|288:116,1,180,4|8,0:0|0:0,0:0:0:0:
472,160,68774,2,0,L|280:136,1,180
220,196,69440,1,8,0:0:0:0:
304,44,69663,1,0,0:0:0:0:
360,256,69885,6,0,P|368:312|368:356,1,90,4|0,0:0|0:0,0:0:0:0:
240,240,70329,1,8,0:0:0:0:
156,344,70551,2,0,P|128:308|132:164,1,180
348,112,71218,1,8,0:0:0:0:
240,240,71440,1,0,0:0:0:0:
432,336,71663,6,0,P|440:288|448:236,1,90,4|0,0:0|0:0,0:0:0:0:
348,112,72107,1,8,0:0:0:0:
240,240,72329,2,0,P|184:232|56:224,1,180,4|4,0:0|0:0,0:0:0:0:
224,136,72996,1,8,0:0:0:0:
376,216,73218,1,0,0:0:0:0:
372,32,73440,1,4,0:0:0:0:
292,200,73663,6,0,L|296:260,1,45
448,304,73885,2,0,L|444:244,1,45,8|0,0:0|0:0,0:0:0:0:
380,128,74107,5,0,0:0:0:0:
380,128,74218,1,0,0:0:0:0:
380,128,74329,2,0,L|388:76,3,45,8|0|0|0,0:0|0:0|0:0|0:0,0:0:0:0:
284,88,74774,2,0,L|276:36,3,45,8|0|0|0,0:0|0:0|0:0|0:0,0:0:0:0:
200,4,75218,6,0,P|248:76|224:172,1,180,4|8,0:0|0:0,0:0:0:0:
136,256,75885,1,0,0:0:0:0:
316,200,76107,2,0,P|360:192|408:188,1,90,2|0,0:0|0:0,0:0:0:0:
472,336,76551,1,8,0:0:0:0:
472,336,76663,2,0,P|428:320|376:328,1,90
368,344,76996,6,0,P|336:308|356:184,1,180,2|8,0:0|0:0,0:0:0:0:
244,64,77663,1,0,0:0:0:0:
244,64,77774,1,0,0:0:0:0:
244,64,77885,2,0,L|256:168,1,90,2|0,0:0|0:0,0:0:0:0:
136,252,78329,2,0,L|124:148,1,90,8|0,0:0|0:0,0:0:0:0:
56,68,78774,6,0,P|16:96|20:220,1,180,2|8,0:0|0:0,0:0:0:0:
136,252,79440,1,0,0:0:0:0:
136,252,79551,1,0,0:0:0:0:
136,252,79663,1,2,0:0:0:0:
264,232,79885,1,0,0:0:0:0:
176,72,80107,1,8,0:0:0:0:
368,180,80329,1,0,0:0:0:0:
212,336,80551,5,2,0:0:0:0:
304,264,80774,1,0,0:0:0:0:
304,264,80885,1,0,0:0:0:0:
304,264,80996,2,0,L|372:276,1,45,8|0,0:0|0:0,0:0:0:0:
472,196,81218,2,0,L|404:208,1,45
362,109,81440,2,0,L|372:56,3,45,2|0|0|0,0:0|0:0|0:0|0:0,0:0:0:0:
216,68,81885,5,8,0:0:0:0:
216,75,81996,1,0,0:0:0:0:
217,83,82107,1,0,0:0:0:0:
218,91,82218,1,0,0:0:0:0:
218,99,82329,1,4,0:0:0:0:
256,192,82440,12,0,88996,0:0:0:0:
