osu file format v14

[General]
AudioFilename: Embrace BladeTV_01.mp3
AudioLeadIn: 0
PreviewTime: 45329
Countdown: 0
SampleSet: Soft
StackLeniency: 0.7
Mode: 0
LetterboxInBreaks: 0
WidescreenStoryboard: 0

[Editor]
DistanceSpacing: 1.3
BeatDivisor: 4
GridSize: 4
TimelineZoom: 1

[Metadata]
Title:Embrace Blade
TitleUnicode:Embrace Blade
Artist:Afilia Saga
ArtistUnicode:アフィリア・サーガ
Creator:Rizia
Version:Hard
Source:対魔導学園35試験小隊
Tags:Taimadou Gakuen 35 Shiken Shoutai opening tv size kawaiwkyik iamkwan Chaoslitz
BeatmapID:812040
BeatmapSetID:370552

[Difficulty]
HPDrainRate:6
CircleSize:4
OverallDifficulty:6
ApproachRate:7
SliderMultiplier:1.6
SliderTickRate:1

[Events]
//Background and Video events
0,0,"BG.png",0,0
Video,0,"Video.flv"
//Break Periods
//Storyboard Layer 0 (Background)
//Storyboard Layer 1 (Fail)
//Storyboard Layer 2 (Pass)
//Storyboard Layer 3 (Foreground)
//Storyboard Sound Samples

[TimingPoints]
552,444.444444444444,4,2,1,90,1,0
14774,-113.636363636364,4,2,0,40,0,0
28107,-113.636363636364,4,2,0,30,0,0
28996,-100,4,2,1,90,0,0
45440,-153.846153846154,4,2,1,90,0,0
46774,-100,4,2,1,90,0,1
75218,-100,4,2,1,90,0,0
82329,-100,4,2,1,40,0,0
82440,-100,4,2,1,40,0,0
88996,-100,4,2,1,5,0,0

[Colours]
Combo1 : 238,231,189
Combo2 : 159,124,84
Combo3 : 185,177,217
Combo4 : 244,174,120

[HitObjects]
76,96,329,5,0,0:0:0:0:
76,96,440,1,0,0:0:0:0:
76,96,552,2,0,L|240:84,1,160,4|8,0:0|0:0,0:0:0:0:
388,40,1440,2,0,P|408:92|400:136,1,80,2|0,0:0|0:0,0:0:0:0:
368,188,1885,1,8,0:0:0:0:
368,188,2107,1,0,0:0:0:0:
424,248,2329,6,0,P|384:268|288:196,1,160,2|8,0:0|0:0,0:0:0:0:
312,128,2996,2,0,P|352:108|448:180,1,160,0|0,0:0|0:0,0:0:0:0:
424,248,3663,2,0,P|432:296|436:352,1,80,8|0,0:0|0:0,0:0:0:0:
368,368,4107,6,0,P|308:360|176:352,1,160,2|8,0:0|0:0,0:0:0:0:
136,316,4774,1,0,0:0:0:0:
136,316,4996,2,0,L|88:324|40:332,1,80,2|0,0:0|0:0,0:0:0:0:
16,260,5440,2,0,L|64:252|112:244,1,80,8|0,0:0|0:0,0:0:0:0:
168,212,5885,6,0,P|184:168|116:68,2,160,2|8|2,0:0|0:0|0:0,0:0:0:0:
296,308,7218,2,0,L|356:304,3,40,8|0|0|0,0:0|0:0|0:0|0:0,0:0:0:0:
372,320,7663,6,0,P|360:272|340:144,1,160,4|8,0:0|0:0,0:0:0:0:
444,40,8551,2,0,P|408:60|344:52,1,80,2|0,0:0|0:0,0:0:0:0:
296,32,8996,2,0,P|256:33|221:53,1,80,8|0,0:0|0:0,0:0:0:0:
188,128,9440,6,0,P|200:176|144:272,1,160,2|8,0:0|0:0,0:0:0:0:
104,336,10107,2,0,P|139:301|250:302,1,160,0|0,0:0|0:0,0:0:0:0:
312,344,10774,2,0,L|404:352,1,80,8|0,0:0|0:0,0:0:0:0:
464,380,11218,6,0,P|472:328|492:216,1,160,2|8,0:0|0:0,0:0:0:0:
408,84,12107,1,2,0:0:0:0:
348,136,12329,2,0,L|264:128,2,80,0|8|0,0:0|0:0|0:0,0:0:0:0:
424,164,12996,6,0,L|503:156,1,80,4|0,0:0|0:0,0:0:0:0:
364,216,13440,2,0,L|371:295,1,80,8|0,0:0|0:0,0:0:0:0:
308,348,13885,1,0,0:0:0:0:
308,348,14107,1,0,0:0:0:0:
236,316,14329,1,8,0:0:0:0:
236,316,14551,1,0,0:0:0:0:
172,364,14774,6,0,P|156:332|200:240,2,140.800004296875,4|2|0,0:0|0:0|0:0,0:0:0:0:
328,356,16107,1,2,0:0:0:0:
276,212,16551,6,0,P|224:208|112:188,1,140.800004296875,2|0,0:0|0:0,0:0:0:0:
172,124,17218,1,2,0:0:0:0:
212,56,17440,2,0,P|281:43|351:37,2,140.800004296875,0|2|2,0:0|0:0|0:0,0:0:0:0:
60,96,18774,5,0,0:0:0:0:
100,244,19218,1,2,0:0:0:0:
60,96,19663,1,2,0:0:0:0:
204,148,20107,6,0,P|244:164|332:116,1,140.800004296875,2|0,0:0|0:0,0:0:0:0:
400,100,20774,2,0,P|366:126|363:226,1,140.800004296875,2|2,0:0|0:0,0:0:0:0:
368,296,21440,2,0,P|320:288|268:284,1,70.4000021484376,0|0,0:0|0:0,0:0:0:0:
232,328,21885,6,0,P|180:336|80:360,1,140.800004296875,2|0,0:0|0:0,0:0:0:0:
20,220,22774,2,0,P|72:212|172:188,1,140.800004296875,0|2,0:0|0:0,0:0:0:0:
308,232,23663,2,0,L|320:160,2,70.4000021484376,2|0|0,0:0|0:0|0:0,0:0:0:0:
372,276,24329,2,0,L|399:109,1,140.800004296875,2|0,0:0|0:0,0:0:0:0:
352,72,24996,1,2,0:0:0:0:
352,72,25218,1,0,0:0:0:0:
288,32,25440,6,0,P|240:24|136:60,1,140.800004296875,2|0,0:0|0:0,0:0:0:0:
76,68,26107,2,0,P|116:72|224:144,1,140.800004296875,2|0,0:0|0:0,0:0:0:0:
244,188,26774,2,0,P|252:256|252:292,1,70.4000021484376,2|0,0:0|0:0,0:0:0:0:
248,336,27218,5,2,0:0:0:0:
116,304,27663,1,2,0:0:0:0:
20,204,28107,2,0,L|12:152,3,35.2000010742188,0|0|0|0,1:0|1:0|1:0|1:0,0:0:0:0:
84,288,28663,2,0,L|92:236,2,35.2000010742188,0|0|0,1:0|1:0|1:0,0:0:0:0:
76,324,28996,6,0,P|120:304|232:312,1,160,4|8,0:0|0:0,0:0:0:0:
300,348,29663,2,0,L|472:336,1,160,0|0,0:0|0:0,0:0:0:0:
436,260,30329,2,0,L|356:265,1,80,8|0,0:0|0:0,0:0:0:0:
284,228,30774,5,2,0:0:0:0:
248,156,30996,1,0,0:0:0:0:
268,80,31218,1,8,0:0:0:0:
332,32,31440,2,0,P|400:24|476:104,1,160,0|0,0:0|0:0,0:0:0:0:
452,156,32107,2,0,P|444:196|440:256,1,80,8|0,0:0|0:0,0:0:0:0:
460,312,32551,6,0,P|420:315|380:323,1,80,2|0,0:0|0:0,0:0:0:0:
304,308,32996,1,8,0:0:0:0:
240,356,33218,2,0,P|176:336|64:344,1,160,0|0,0:0|0:0,0:0:0:0:
20,292,33885,2,0,P|24:252|36:212,1,80,8|0,0:0|0:0,0:0:0:0:
76,144,34329,5,2,0:0:0:0:
148,180,34551,1,0,0:0:0:0:
204,124,34774,1,8,0:0:0:0:
276,160,34996,2,0,P|284:116|208:40,1,160
136,76,35663,2,0,L|52:68,1,80,8|0,0:0|0:0,0:0:0:0:
204,124,36107,6,0,P|256:80|344:116,2,160,4|8|2,0:0|0:0|0:0,0:0:0:0:
140,172,37218,1,0,0:0:0:0:
140,172,37440,2,0,P|152:240|152:280,1,80,8|0,0:0|0:0,0:0:0:0:
88,300,37885,6,0,P|128:328|232:284,1,160,2|8,0:0|0:0,0:0:0:0:
268,228,38551,2,0,P|335:190|405:223,1,160
452,288,39218,1,8,0:0:0:0:
396,344,39440,1,0,0:0:0:0:
396,344,39551,1,0,0:0:0:0:
396,344,39663,6,0,P|348:340|304:340,1,80,4|0,0:0|0:0,0:0:0:0:
256,288,40107,1,8,0:0:0:0:
192,332,40329,2,0,P|180:296|260:208,1,160,4|0,0:0|0:0,0:0:0:0:
320,240,40996,1,8,0:0:0:0:
388,200,41218,6,0,P|380:152|364:32,1,160,4|0,0:0|0:0,0:0:0:0:
288,20,41885,1,8,0:0:0:0:
232,76,42107,1,0,0:0:0:0:
232,76,42218,1,0,0:0:0:0:
232,76,42329,2,0,L|132:64,1,80,2|0,0:0|0:0,0:0:0:0:
108,132,42774,2,0,L|208:144,1,80,8|0,0:0|0:0,0:0:0:0:
264,168,43218,6,0,P|248:216|224:324,1,160,4|8,0:0|0:0,0:0:0:0:
380,356,44107,1,2,0:0:0:0:
380,356,44329,1,0,0:0:0:0:
436,288,44551,1,8,0:0:0:0:
400,208,44774,1,4,0:0:0:0:
496,60,45218,5,4,0:0:0:0:
496,60,45440,1,4,0:0:0:0:
124,120,46551,5,0,0:0:0:0:
124,120,46774,2,0,L|236:104,2,80,4|0|8,0:0|0:0|0:0,0:0:0:0:
68,188,47440,1,0,0:0:0:0:
156,204,47663,1,2,0:0:0:0:
100,272,47885,1,0,0:0:0:0:
184,296,48107,1,8,0:0:0:0:
184,296,48329,6,0,P|236:284|336:332,1,160,0|0,0:0|0:0,0:0:0:0:
412,364,48996,1,8,0:0:0:0:
476,300,49218,2,0,P|488:256|448:132,1,160,0|0,0:0|0:0,0:0:0:0:
400,84,49885,2,0,L|312:104,1,80,8|0,0:0|0:0,0:0:0:0:
248,52,50329,5,2,0:0:0:0:
212,132,50551,1,0,0:0:0:0:
136,92,50774,1,8,0:0:0:0:
92,168,50996,1,0,0:0:0:0:
168,212,51218,2,0,P|180:256|188:304,2,80,2|0|8,0:0|0:0|0:0,0:0:0:0:
212,132,51885,6,0,P|264:144|388:156,1,160,0|0,0:0|0:0,0:0:0:0:
452,124,52551,2,0,P|480:176|472:292,1,160,8|2,0:0|0:0,0:0:0:0:
420,340,53218,1,0,0:0:0:0:
336,312,53440,1,8,0:0:0:0:
260,360,53663,1,0,0:0:0:0:
260,360,53774,1,0,0:0:0:0:
260,360,53885,6,0,L|152:348,1,80,6|0,0:0|0:0,0:0:0:0:
92,336,54329,1,8,0:0:0:0:
148,268,54551,1,0,0:0:0:0:
204,200,54774,2,0,P|220:152|176:32,1,160,2|8,0:0|0:0,0:0:0:0:
108,24,55440,1,0,0:0:0:0:
60,96,55663,6,0,P|100:108|156:96,1,80,2|0,0:0|0:0,0:0:0:0:
216,60,56107,2,0,P|253:48|293:52,1,80,8|0,0:0|0:0,0:0:0:0:
376,88,56551,2,0,P|356:140|344:264,2,160,2|8|6,0:0|0:0|0:0,0:0:0:0:
480,320,57885,5,8,0:0:0:0:
480,320,58107,2,0,P|436:308|340:368,1,160,0|0,0:0|0:0,0:0:0:0:
260,328,58774,1,8,0:0:0:0:
180,360,58996,5,0,0:0:0:0:
180,360,59107,1,0,0:0:0:0:
180,360,59218,2,0,L|88:352,1,80,4|0,0:0|0:0,0:0:0:0:
52,280,59663,2,0,P|100:272|196:180,1,160,8|2,0:0|0:0,0:0:0:0:
220,120,60329,1,2,0:0:0:0:
232,32,60551,1,8,0:0:0:0:
272,192,60774,1,0,0:0:0:0:
272,192,60885,1,0,0:0:0:0:
272,192,60996,6,0,P|324:176|424:228,1,160,4|8,0:0|0:0,0:0:0:0:
480,280,61663,1,0,0:0:0:0:
395,308,61885,2,0,P|385:346|383:386,2,80,2|0|8,0:0|0:0|0:0,0:0:0:0:
320,268,62551,6,0,P|260:272|224:280,1,80,0|2,0:0|0:0,0:0:0:0:
160,344,62996,2,0,P|100:340|64:332,1,80,0|8,0:0|0:0,0:0:0:0:
24,248,63440,2,0,P|12:200|80:108,1,160,0|0,0:0|0:0,0:0:0:0:
156,72,64107,2,0,P|200:80|252:84,1,80,8|0,0:0|0:0,0:0:0:0:
320,60,64551,5,2,0:0:0:0:
404,40,64774,1,0,0:0:0:0:
380,124,64996,1,8,0:0:0:0:
464,104,65218,1,0,0:0:0:0:
440,188,65440,1,2,0:0:0:0:
440,188,65663,1,0,0:0:0:0:
356,212,65885,2,0,P|348:256|348:296,2,80,8|0|2,0:0|0:0|0:0,0:0:0:0:
404,352,66551,6,0,P|364:368|320:368,1,80,0|8,0:0|0:0,0:0:0:0:
188,292,66996,2,0,P|227:293|264:309,1,80,0|2,0:0|0:0,0:0:0:0:
112,352,67440,2,0,P|96:315|94:275,1,80,0|8,0:0|0:0,0:0:0:0:
152,208,67885,1,0,0:0:0:0:
152,208,68107,6,0,P|164:160|132:44,1,160,4|8,0:0|0:0,0:0:0:0:
4,124,68774,2,0,P|-8:172|24:288,1,160,0|0,0:0|0:0,0:0:0:0:
100,304,69440,2,0,P|152:296|208:296,1,80,8|0,0:0|0:0,0:0:0:0:
256,336,69885,6,0,P|292:360|424:344,1,160,4|8,0:0|0:0,0:0:0:0:
420,204,70551,2,0,P|384:180|252:196,1,160,0|0,0:0|0:0,0:0:0:0:
200,236,71218,2,0,P|188:188|188:144,1,80,8|0,0:0|0:0,0:0:0:0:
276,72,71663,6,0,L|368:76,2,80,4|0|8,0:0|0:0|0:0,0:0:0:0:
160,36,72329,2,0,P|104:24|8:80,1,160,4|4,0:0|0:0,0:0:0:0:
0,156,72996,1,8,0:0:0:0:
76,204,73218,1,0,0:0:0:0:
52,288,73440,5,4,0:0:0:0:
52,288,73663,1,0,0:0:0:0:
128,332,73885,2,0,L|212:324,1,80,8|0,0:0|0:0,0:0:0:0:
292,296,74329,2,0,P|328:280|444:336,1,160,8|8,0:0|0:0,0:0:0:0:
492,252,74996,1,0,0:0:0:0:
492,252,75107,1,0,0:0:0:0:
492,252,75218,6,0,P|476:208|464:96,1,160,4|8,0:0|0:0,0:0:0:0:
292,56,76107,2,0,P|256:72|184:64,1,80,2|0,0:0|0:0,0:0:0:0:
140,28,76551,1,8,0:0:0:0:
140,28,76774,1,0,0:0:0:0:
80,96,76996,6,0,P|56:136|112:256,1,160,2|8,0:0|0:0,0:0:0:0:
168,268,77663,2,0,L|348:252,1,160,0|0,0:0|0:0,0:0:0:0:
392,316,78329,2,0,P|444:324|484:336,1,80,8|0,0:0|0:0,0:0:0:0:
504,248,78774,6,0,P|492:188|484:64,1,160,2|8,0:0|0:0,0:0:0:0:
316,36,79663,1,2,0:0:0:0:
248,92,79885,2,0,L|160:84,2,80,0|8|0,0:0|0:0|0:0,0:0:0:0:
328,124,80551,6,0,P|336:168|312:232,1,80,2|0,0:0|0:0,0:0:0:0:
252,240,80996,1,8,0:0:0:0:
252,240,81218,1,0,0:0:0:0:
136,208,81440,5,2,0:0:0:0:
104,324,81663,1,0,0:0:0:0:
220,356,81885,1,8,0:0:0:0:
252,240,82107,1,0,0:0:0:0:
136,208,82329,5,4,0:0:0:0:
256,192,82440,12,0,88996,0:0:0:0:
