osu file format v14

[General]
AudioFilename: jodoh ga ketemu ketemu.mp3
AudioLeadIn: 0
PreviewTime: 62515
Countdown: 0
SampleSet: Soft
StackLeniency: 0.7
Mode: 2
LetterboxInBreaks: 0
WidescreenStoryboard: 1

[Editor]
DistanceSpacing: 1.2
BeatDivisor: 4
GridSize: 4
TimelineZoom: 1

[Metadata]
Title:Jodoh Pasti Bertemu
TitleUnicode:Jodoh Pasti Bertemu
Artist:Afgan
ArtistUnicode:Afgan
Creator:Xinely
Version:Salad
Source:
Tags:live L1ve To Love Afgansyah Reza Cut Version Trinity Optima Production Bahasa Indonesia Indonesian
BeatmapID:1060799
BeatmapSetID:498299

[Difficulty]
HPDrainRate:4
CircleSize:3.5
OverallDifficulty:6.5
ApproachRate:6.5
SliderMultiplier:2.2
SliderTickRate:1

[Events]
//Background and Video events
0,0,"jodoh dimana.jpg",0,0
//Break Periods
//Storyboard Layer 0 (Background)
//Storyboard Layer 1 (Fail)
//Storyboard Layer 2 (Pass)
//Storyboard Layer 3 (Foreground)
//Storyboard Sound Samples

[TimingPoints]
530,882.352941176471,4,2,1,40,1,0
7147,-100,4,2,1,10,0,0
7588,-100,4,2,1,40,0,0
46412,-100,4,2,1,30,0,0
48177,-100,4,2,1,40,0,0
49059,-100,4,2,1,50,0,0
49280,-100,4,2,1,30,0,0
49941,-100,4,2,1,50,0,0
50162,-100,4,2,1,40,0,0
64059,-100,4,2,1,55,0,1
95824,-100,4,2,1,55,0,0

[Colours]
Combo1 : 255,143,32
Combo2 : 255,128,192
Combo3 : 255,81,81
Combo4 : 170,85,85

[HitObjects]
208,300,530,6,0,L|317:296,1,110,6|0,0:0|0:0,0:0:0:0:
464,292,1412,1,2,0:0:0:0:
248,176,1853,2,0,P|80:176|256:312,1,550,2|0,0:0|0:0,0:0:0:0:
368,260,4500,1,0,0:0:0:0:
220,248,4941,1,2,0:0:0:0:
400,264,5382,6,0,B|488:236|488:236|396:104|296:168|296:168|412:232|412:232|272:272,1,550,2|6,0:0|0:0,0:0:0:0:
184,300,8030,5,0,0:0:0:0:
120,292,8250,1,2,0:0:0:0:
56,288,8471,2,0,L|152:208,1,110,8|0,0:0|0:0,0:0:0:0:
328,152,9353,2,0,P|424:136|408:240,1,220,2|8,0:0|0:0,0:0:0:0:
300,284,10677,1,0,0:0:0:0:
452,296,11118,5,2,0:0:0:0:
332,340,11559,1,0,0:0:0:0:
172,304,12000,2,0,L|104:264,1,55,10|0,0:0|0:0,0:0:0:0:
44,240,12441,1,2,0:0:0:0:
168,192,12882,5,2,0:0:0:0:
48,140,13324,1,0,0:0:0:0:
280,64,13765,2,0,L|360:68,1,55,10|0,0:0|0:0,0:0:0:0:
272,144,14206,2,0,L|217:141,1,55,2|0,0:0|0:0,0:0:0:0:
28,148,14647,6,0,L|20:288,1,110,2|0,0:0|0:0,0:0:0:0:
196,268,15530,1,10,0:0:0:0:
24,336,15971,1,0,0:0:0:0:
204,356,16412,1,2,0:0:0:0:
320,328,16853,1,0,0:0:0:0:
440,352,17294,1,8,0:0:0:0:
288,328,17735,1,0,0:0:0:0:
88,256,18177,6,0,B|136:220|136:220|300:256,1,220,2|10,0:0|0:0,0:0:0:0:
420,288,19500,1,0,0:0:0:0:
288,292,19941,1,2,0:0:0:0:
440,280,20382,1,0,0:0:0:0:
136,216,20824,2,0,L|72:188,1,55,10|0,0:0|0:0,0:0:0:0:
156,196,21265,2,0,L|224:176,1,55,2|0,0:0|0:0,0:0:0:0:
404,160,21706,6,0,L|480:264,1,110,2|0,0:0|0:0,0:0:0:0:
340,272,22588,1,10,0:0:0:0:
212,240,23030,1,0,0:0:0:0:
344,232,23471,2,0,L|484:228,1,110,2|0,0:0|0:0,0:0:0:0:
332,176,24353,2,0,L|184:176,1,110,8|0,0:0|0:0,0:0:0:0:
48,160,25235,6,0,P|132:144|252:208,1,220,2|10,0:0|0:0,0:0:0:0:
416,248,26559,1,0,0:0:0:0:
268,288,27000,2,0,L|176:212,1,110,2|0,0:0|0:0,0:0:0:0:
340,240,27882,2,0,L|449:236,1,110,10|0,0:0|0:0,0:0:0:0:
160,156,28765,6,0,B|109:141|109:141|56:168,1,110,2|0,0:0|0:0,0:0:0:0:
196,240,29647,1,10,0:0:0:0:
296,168,30088,1,0,0:0:0:0:
120,112,30530,2,0,P|28:112|-16:124,1,110,2|0,0:0|0:0,0:0:0:0:
144,188,31412,2,0,L|276:192,1,110,8|0,0:0|0:0,0:0:0:0:
320,200,32074,1,0,0:0:0:0:
488,224,32294,6,0,P|392:276|324:184,1,220,2|10,0:0|0:0,0:0:0:0:
216,196,33618,1,0,0:0:0:0:
340,176,34059,2,0,L|476:180,1,110,2|0,0:0|0:0,0:0:0:0:
496,188,34721,1,0,0:0:0:0:
396,192,34941,1,10,0:0:0:0:
208,104,35382,1,0,0:0:0:0:
488,72,35824,5,6,0:0:0:0:
316,28,36265,1,0,0:0:0:0:
252,32,36485,1,2,0:0:0:0:
184,36,36706,2,0,L|72:32,1,110,8|0,0:0|0:0,0:0:0:0:
196,84,37588,2,0,L|272:200,1,110,2|0,0:0|0:0,0:0:0:0:
432,268,38471,2,0,P|378:257|326:273,1,110,8|0,0:0|0:0,0:0:0:0:
264,296,39132,1,0,0:0:0:0:
168,292,39353,6,0,L|120:172,1,110,2|0,0:0|0:0,0:0:0:0:
260,188,40235,1,10,0:0:0:0:
128,184,40677,1,0,0:0:0:0:
64,172,40897,1,2,0:0:0:0:
0,152,41118,2,0,L|156:164,1,110,0|0,0:0|0:0,0:0:0:0:
324,152,42000,2,0,P|334:190|348:224,1,55,10|0,0:0|0:0,0:0:0:0:
424,236,42441,2,0,L|524:240,1,55,2|0,0:0|0:0,0:0:0:0:
268,180,42882,6,0,L|132:184,1,110,2|0,0:0|0:0,0:0:0:0:
44,176,43765,1,10,0:0:0:0:
180,204,44206,1,0,0:0:0:0:
52,236,44647,2,0,L|116:140,1,110,2|0,0:0|0:0,0:0:0:0:
296,72,45530,2,0,L|440:76,1,110,10|0,0:0|0:0,0:0:0:0:
132,152,46412,6,0,P|52:176|52:88,1,165,2|0,0:0|0:0,0:0:0:0:
136,104,47294,2,0,P|212:152|236:272,1,165,10|0,0:0|0:0,0:0:0:0:
352,228,48177,2,0,L|244:72,1,165,2|0,0:0|0:0,0:0:0:0:
172,88,49059,2,0,L|40:216,1,165,10|0,0:0|0:0,0:0:0:0:
244,240,49941,6,0,P|336:296|408:212,1,220,6|10,0:0|0:0,0:0:0:0:
276,136,51265,1,0,0:0:0:0:
440,112,51706,1,2,0:0:0:0:
244,116,52147,2,0,L|189:118,2,55,0|0|8,0:0|0:0|0:0,0:0:0:0:
372,156,53030,1,0,0:0:0:0:
104,68,53471,6,0,P|28:179|108:243,1,220,2|10,0:0|0:0,0:0:0:0:
196,256,54794,1,0,0:0:0:0:
324,284,55235,1,2,0:0:0:0:
444,224,55677,1,0,0:0:0:0:
316,188,56118,1,8,0:0:0:0:
436,132,56559,1,0,0:0:0:0:
160,84,57000,6,0,L|32:84,1,110,2|0,0:0|0:0,0:0:0:0:
180,108,57882,2,0,L|320:96,1,110,10|0,0:0|0:0,0:0:0:0:
420,104,58765,2,0,P|300:60|204:96,1,220,2|8,0:0|0:0,0:0:0:0:
96,144,60088,1,0,0:0:0:0:
276,204,60530,6,0,L|424:200,1,110,2|0,0:0|0:0,0:0:0:0:
272,264,61412,1,10,0:0:0:0:
148,224,61853,1,0,0:0:0:0:
88,196,62074,1,0,0:0:0:0:
28,168,62294,2,0,L|137:164,1,110,2|0,0:0|0:0,0:0:0:0:
272,160,63177,1,10,0:0:0:0:
404,172,63618,1,0,0:0:0:0:
76,200,64059,6,0,P|44:168|88:120,1,110,6|0,0:0|0:0,0:0:0:0:
208,112,64941,2,0,L|317:101,1,110,8|0,0:0|0:0,0:0:0:0:
444,144,65824,1,2,0:0:0:0:
256,192,66265,2,0,L|146:198,1,110,0|8,0:0|0:0,0:0:0:0:
272,272,67147,1,0,0:0:0:0:
324,296,67368,1,0,0:0:0:0:
452,232,67588,6,0,L|352:172,1,110,2|0,0:0|0:0,0:0:0:0:
212,180,68471,2,0,P|140:172|84:188,1,110,10|0,0:0|0:0,0:0:0:0:
204,264,69353,2,0,L|264:304,2,55,0|2|0,0:0|0:0|0:0,0:0:0:0:
76,232,70235,2,0,L|220:228,1,110,10|2,0:0|0:0,0:0:0:0:
448,232,71118,5,2,0:0:0:0:
316,232,71559,1,0,0:0:0:0:
184,220,72000,1,8,0:0:0:0:
448,108,72441,2,0,L|196:112,1,220,2|0,0:0|0:0,0:0:0:0:
24,144,73765,1,8,0:0:0:0:
160,232,74206,1,0,0:0:0:0:
208,248,74427,1,0,0:0:0:0:
268,272,74647,5,0,0:0:0:0:
448,208,75088,1,2,0:0:0:0:
256,184,75530,1,10,0:0:0:0:
436,132,75971,1,2,0:0:0:0:
172,96,76412,1,2,0:0:0:0:
360,92,76853,1,2,0:0:0:0:
220,172,77294,1,10,0:0:0:0:
436,156,77735,1,2,0:0:0:0:
136,124,78177,6,0,L|16:312,1,220,6|8,0:0|0:0,0:0:0:0:
152,300,79500,1,0,0:0:0:0:
284,312,79941,2,0,L|424:308,1,110,2|0,0:0|0:0,0:0:0:0:
272,256,80824,2,0,L|132:264,1,110,8|0,0:0|0:0,0:0:0:0:
436,176,81706,6,0,P|460:224|444:292,1,110,6|0,0:0|0:0,0:0:0:0:
208,280,82588,2,0,L|356:264,1,110,10|0,0:0|0:0,0:0:0:0:
472,204,83471,2,0,L|328:176,1,110,6|0,0:0|0:0,0:0:0:0:
232,176,84353,2,0,L|100:204,1,110,8|0,0:0|0:0,0:0:0:0:
400,284,85235,6,0,P|452:280|492:224,1,110,6|0,0:0|0:0,0:0:0:0:
360,212,86118,1,8,0:0:0:0:
228,228,86559,1,0,0:0:0:0:
96,248,87000,2,0,L|20:144,1,110,2|0,0:0|0:0,0:0:0:0:
152,136,87882,2,0,L|280:124,1,110,8|0,0:0|0:0,0:0:0:0:
328,132,88544,1,0,0:0:0:0:
496,168,88765,5,6,0:0:0:0:
308,216,89206,1,2,0:0:0:0:
120,200,89647,1,10,0:0:0:0:
308,272,90088,1,2,0:0:0:0:
108,288,90530,1,2,0:0:0:0:
288,340,90971,1,2,0:0:0:0:
464,300,91412,1,10,0:0:0:0:
224,256,91853,1,2,0:0:0:0:
376,184,92294,6,0,P|430:174|486:184,1,110,6|0,0:0|0:0,0:0:0:0:
340,208,93177,2,0,L|288:72,1,110,8|2,0:0|0:0,0:0:0:0:
32,144,94059,2,0,L|160:144,1,110,2|0,0:0|0:0,0:0:0:0:
228,168,94721,2,0,L|272:224,1,55,0|10,0:0|0:0,0:0:0:0:
68,300,95382,2,0,L|123:309,1,55,0|0,0:0|0:0,0:0:0:0:
328,344,95824,5,6,0:0:0:0:
