osu file format v14

[General]
AudioFilename: jodoh ga ketemu ketemu.mp3
AudioLeadIn: 0
PreviewTime: 62515
Countdown: 0
SampleSet: Soft
StackLeniency: 0.7
Mode: 2
LetterboxInBreaks: 0
WidescreenStoryboard: 1

[Editor]
DistanceSpacing: 1.2
BeatDivisor: 4
GridSize: 4
TimelineZoom: 1

[Metadata]
Title:Jodoh Pasti Bertemu
TitleUnicode:Jodoh Pasti Bertemu
Artist:Afgan
ArtistUnicode:Afgan
Creator:Xinely
Version:Cup
Source:
Tags:live L1ve To Love Afgansyah Reza Cut Version Trinity Optima Production Bahasa Indonesia Indonesian
BeatmapID:1060797
BeatmapSetID:498299

[Difficulty]
HPDrainRate:3
CircleSize:3
OverallDifficulty:5.5
ApproachRate:5.5
SliderMultiplier:1.8
SliderTickRate:1

[Events]
//Background and Video events
0,0,"jodoh dimana.jpg",0,0
//Break Periods
//Storyboard Layer 0 (Background)
//Storyboard Layer 1 (Fail)
//Storyboard Layer 2 (Pass)
//Storyboard Layer 3 (Foreground)
//Storyboard Sound Samples

[TimingPoints]
530,882.352941176471,4,2,1,40,1,0
6265,-100,4,2,1,20,0,0
7588,-100,4,2,1,40,0,0
46412,-100,4,2,1,30,0,0
48177,-100,4,2,1,40,0,0
49059,-100,4,2,1,50,0,0
50162,-100,4,2,1,40,0,0
64059,-100,4,2,1,55,0,1
95824,-100,4,2,1,55,0,0

[Colours]
Combo1 : 255,143,32
Combo2 : 255,128,192
Combo3 : 255,81,81
Combo4 : 170,85,85

[HitObjects]
212,244,530,6,0,L|324:244,1,90,6|0,0:0|0:0,0:0:0:0:
408,248,1412,1,2,0:0:0:0:
260,212,1853,2,0,P|92:256|264:292,1,450,2|6,0:0|0:0,0:0:0:0:
368,312,4500,5,0,0:0:0:0:
472,296,4941,1,2,0:0:0:0:
312,216,5382,2,0,P|264:204|300:332,1,270,2|0,0:0|0:0,0:0:0:0:
460,320,7588,5,6,0:0:0:0:
348,340,8030,1,0,0:0:0:0:
240,316,8471,2,0,L|140:308,1,90,8|0,0:0|0:0,0:0:0:0:
44,300,9353,2,0,P|92:227|178:211,1,180,2|8,0:0|0:0,0:0:0:0:
280,252,10677,1,0,0:0:0:0:
388,264,11118,6,0,P|428:244|452:172,1,90,2|0,0:0|0:0,0:0:0:0:
304,164,12000,2,0,P|252:164|204:204,1,90,8|0,0:0|0:0,0:0:0:0:
372,224,12882,1,2,0:0:0:0:
256,220,13324,1,0,0:0:0:0:
148,228,13765,2,0,L|44:240,1,90,10|2,0:0|0:0,0:0:0:0:
224,268,14647,6,0,P|295:255|316:156,1,180,2|10,0:0|0:0,0:0:0:0:
200,120,15971,1,0,0:0:0:0:
36,144,16412,1,2,0:0:0:0:
160,168,16853,2,0,L|288:156,2,90,0|8|0,0:0|0:0|0:0,0:0:0:0:
12,177,18177,6,0,P|80:140|164:188,2,180,2|10|2,0:0|0:0|0:0,0:0:0:0:
140,224,20382,1,0,0:0:0:0:
272,228,20824,2,0,L|380:288,1,90,10|2,0:0|0:0,0:0:0:0:
184,308,21706,6,0,P|120:284|20:332,1,180,2|10,0:0|0:0,0:0:0:0:
132,344,23030,1,0,0:0:0:0:
240,304,23471,2,0,L|308:220,1,90,2|0,0:0|0:0,0:0:0:0:
396,268,24353,2,0,L|306:268,1,90,8|0,0:0|0:0,0:0:0:0:
144,204,25235,6,0,L|323:200,1,180,2|10,0:0|0:0,0:0:0:0:
480,72,27000,2,0,L|300:72,1,180,2|10,0:0|0:0,0:0:0:0:
88,116,28765,6,0,L|52:204,1,90,2|0,0:0|0:0,0:0:0:0:
162,211,29647,2,0,L|252:211,1,90,10|0,0:0|0:0,0:0:0:0:
396,200,30530,2,0,P|332:160|252:212,1,180,2|8,0:0|0:0,0:0:0:0:
352,284,31853,1,0,0:0:0:0:
492,200,32294,6,0,P|444:140|352:172,1,180,2|10,0:0|0:0,0:0:0:0:
236,188,33618,1,0,0:0:0:0:
324,252,34059,1,2,0:0:0:0:
108,252,34941,2,0,L|16:240,1,90,10|0,0:0|0:0,0:0:0:0:
208,164,35824,6,0,P|300:188|388:144,1,180,6|8,0:0|0:0,0:0:0:0:
480,176,37147,1,0,0:0:0:0:
376,208,37588,2,0,L|272:208,1,90,2|0,0:0|0:0,0:0:0:0:
404,184,38471,2,0,L|316:205,1,90,8|0,0:0|0:0,0:0:0:0:
192,124,39353,6,0,P|276:104|380:136,1,180,2|10,0:0|0:0,0:0:0:0:
464,188,40677,1,0,0:0:0:0:
364,228,41118,2,0,P|319:222|256:236,1,90,2|0,0:0|0:0,0:0:0:0:
160,252,42000,2,0,L|100:236,2,45,10|0|2,0:0|0:0|0:0,0:0:0:0:
324,284,42882,6,0,L|448:276,1,90,2|0,0:0|0:0,0:0:0:0:
512,196,43765,2,0,L|404:200,1,90,10|0,0:0|0:0,0:0:0:0:
256,220,44647,2,0,P|188:216|132:236,2,90,2|0|10,0:0|0:0|0:0,0:0:0:0:
360,272,45971,1,0,0:0:0:0:
184,268,46412,6,0,P|132:192|200:132,1,180,2|10,0:0|0:0,0:0:0:0:
432,128,48177,2,0,P|482:195|429:261,1,180,2|10,0:0|0:0,0:0:0:0:
152,296,49941,6,0,L|332:307,1,180,6|10,0:0|0:0,0:0:0:0:
464,248,51265,1,0,0:0:0:0:
308,220,51706,2,0,P|263:218|218:221,1,90,2|0,0:0|0:0,0:0:0:0:
80,224,52588,2,0,P|124:216|204:216,1,90,8|0,0:0|0:0,0:0:0:0:
344,128,53471,6,0,P|280:116|160:168,1,180,2|10,0:0|0:0,0:0:0:0:
40,192,54794,1,0,0:0:0:0:
140,232,55235,2,0,L|256:240,1,90,2|0,0:0|0:0,0:0:0:0:
332,208,56118,2,0,P|340:260|324:316,1,90,8|0,0:0|0:0,0:0:0:0:
196,336,57000,6,0,L|16:232,1,180,2|10,0:0|0:0,0:0:0:0:
144,216,58324,1,0,0:0:0:0:
252,228,58765,2,0,L|344:208,1,90,2|0,0:0|0:0,0:0:0:0:
448,224,59647,2,0,L|344:208,1,90,8|0,0:0|0:0,0:0:0:0:
208,176,60530,6,0,P|128:140|68:208,1,180,2|10,0:0|0:0,0:0:0:0:
176,224,61853,1,0,0:0:0:0:
280,228,62294,1,2,0:0:0:0:
152,164,62735,2,0,L|36:168,2,90,0|10|0,0:0|0:0|0:0,0:0:0:0:
332,224,64059,6,0,P|392:224|488:128,1,180,6|8,0:0|0:0,0:0:0:0:
360,116,65382,1,0,0:0:0:0:
240,112,65824,1,2,0:0:0:0:
132,120,66265,2,0,L|52:184,2,90,0|8|0,0:0|0:0|0:0,0:0:0:0:
288,140,67588,6,0,P|404:148|456:212,1,180,2|10,0:0|0:0,0:0:0:0:
364,260,68912,1,0,0:0:0:0:
260,284,69353,2,0,L|204:288,2,45,0|2|0,0:0|0:0|0:0,0:0:0:0:
364,260,70235,2,0,L|472:260,1,90,10|2,0:0|0:0,0:0:0:0:
304,180,71118,6,0,L|236:240,2,90,2|0|8,0:0|0:0|0:0,0:0:0:0:
152,92,72441,2,0,B|68:136|68:136|156:160,1,180,2|0,0:0|0:0,0:0:0:0:
60,180,73765,2,0,P|40:224|60:276,1,90,8|0,0:0|0:0,0:0:0:0:
180,308,74647,6,0,L|296:308,1,90,0|2,0:0|0:0,0:0:0:0:
380,255,75530,1,10,0:0:0:0:
271,278,75971,1,2,0:0:0:0:
394,265,76412,5,2,0:0:0:0:
266,299,76853,1,2,0:0:0:0:
120,272,77294,1,10,0:0:0:0:
256,320,77735,1,2,0:0:0:0:
458,282,78177,6,0,P|492:219|403:153,1,180,6|8,0:0|0:0,0:0:0:0:
300,240,79500,1,0,0:0:0:0:
140,212,79941,2,0,L|112:124,1,90,2|0,0:0|0:0,0:0:0:0:
220,104,80824,2,0,L|320:108,1,90,8|0,0:0|0:0,0:0:0:0:
476,204,81706,6,0,L|412:300,1,90,6|0,0:0|0:0,0:0:0:0:
316,320,82588,2,0,L|226:326,1,90,10|0,0:0|0:0,0:0:0:0:
52,276,83471,2,0,L|88:176,1,90,6|0,0:0|0:0,0:0:0:0:
188,180,84353,2,0,L|278:180,1,90,8|0,0:0|0:0,0:0:0:0:
460,164,85235,6,0,P|420:137|388:168,1,90,6|0,0:0|0:0,0:0:0:0:
284,172,86118,2,0,L|168:180,1,90,8|0,0:0|0:0,0:0:0:0:
36,204,87000,2,0,P|78:279|164:293,1,180,2|8,0:0|0:0,0:0:0:0:
272,284,88324,1,0,0:0:0:0:
436,236,88765,5,6,0:0:0:0:
352,176,89206,1,2,0:0:0:0:
244,176,89647,2,0,L|344:184,1,90,10|0,0:0|0:0,0:0:0:0:
432,224,90530,1,0,0:0:0:0:
336,272,90971,2,0,L|212:284,2,90,2|10|2,0:0|0:0|0:0,0:0:0:0:
496,232,92294,6,0,P|488:188|452:136,1,90,6|0,0:0|0:0,0:0:0:0:
356,144,93177,2,0,L|266:140,1,90,8|2,0:0|0:0,0:0:0:0:
148,116,94059,2,0,L|327:100,2,180,2|10|6,0:0|0:0|0:0,0:0:0:0:
