osu file format v14

[General]
AudioFilename: jodoh ga ketemu ketemu.mp3
AudioLeadIn: 0
PreviewTime: 62515
Countdown: 0
SampleSet: Soft
StackLeniency: 0.7
Mode: 2
LetterboxInBreaks: 0
WidescreenStoryboard: 1

[Editor]
DistanceSpacing: 1.2
BeatDivisor: 4
GridSize: 4
TimelineZoom: 1

[Metadata]
Title:Jodoh Pasti Bertemu
TitleUnicode:Jodoh Pasti Bertemu
Artist:Afgan
ArtistUnicode:Afgan
Creator:Xinely
Version:Platter
Source:
Tags:live L1ve To Love Afgansyah Reza Cut Version Trinity Optima Production Bahasa Indonesia Indonesian
BeatmapID:1060798
BeatmapSetID:498299

[Difficulty]
HPDrainRate:5
CircleSize:4
OverallDifficulty:7.5
ApproachRate:7.5
SliderMultiplier:2.5
SliderTickRate:1

[Events]
//Background and Video events
0,0,"jodoh dimana.jpg",0,0
//Break Periods
//Storyboard Layer 0 (Background)
//Storyboard Layer 1 (Fail)
//Storyboard Layer 2 (Pass)
//Storyboard Layer 3 (Foreground)
//Storyboard Sound Samples

[TimingPoints]
530,882.352941176471,4,2,1,40,1,0
7147,-100,4,2,1,10,0,0
7588,-100,4,2,1,40,0,0
46412,-100,4,2,1,30,0,0
48177,-100,4,2,1,40,0,0
49059,-100,4,2,1,50,0,0
49280,-100,4,2,1,30,0,0
49941,-100,4,2,1,50,0,0
50162,-100,4,2,1,40,0,0
64059,-100,4,2,1,55,0,1
95824,-100,4,2,1,55,0,0

[Colours]
Combo1 : 255,143,32
Combo2 : 255,128,192
Combo3 : 255,81,81
Combo4 : 170,85,85

[HitObjects]
172,272,530,5,6,0:0:0:0:
296,296,971,1,0,0:0:0:0:
480,204,1412,1,2,0:0:0:0:
260,168,1853,2,0,B|28:224|28:224|301:292|301:292|200:344,1,625,2|6,0:0|0:0,0:0:0:0:
32,316,4500,5,0,0:0:0:0:
196,296,4941,1,2,0:0:0:0:
396,168,5382,2,0,P|176:92|8:296,1,500,2|0,0:0|0:0,0:0:0:0:
400,324,7588,6,0,L|488:236,1,125,6|0,0:0|0:0,0:0:0:0:
420,184,8250,1,2,0:0:0:0:
336,180,8471,1,8,0:0:0:0:
188,204,8912,1,0,0:0:0:0:
112,204,9132,1,0,0:0:0:0:
36,208,9353,2,0,L|180:196,1,125,2|0,0:0|0:0,0:0:0:0:
384,192,10235,1,8,0:0:0:0:
236,180,10677,1,0,0:0:0:0:
29,286,11118,6,0,L|172:284,1,125,2|0,0:0|0:0,0:0:0:0:
344,300,12000,1,10,0:0:0:0:
420,308,12221,1,0,0:0:0:0:
480,264,12441,1,2,0:0:0:0:
224,188,12882,1,2,0:0:0:0:
376,128,13324,1,0,0:0:0:0:
176,84,13765,1,10,0:0:0:0:
100,104,13985,1,0,0:0:0:0:
228,200,14206,1,2,0:0:0:0:
304,168,14427,1,0,0:0:0:0:
96,188,14647,6,0,P|72:268|108:300,1,125,2|0,0:0|0:0,0:0:0:0:
264,312,15530,1,10,0:0:0:0:
132,336,15971,1,0,0:0:0:0:
364,272,16412,2,0,L|504:280,1,125,2|0,0:0|0:0,0:0:0:0:
176,268,17294,2,0,L|36:276,1,125,8|0,0:0|0:0,0:0:0:0:
360,128,18177,6,0,P|440:168|520:160,1,125,2|0,0:0|0:0,0:0:0:0:
208,200,19059,2,0,L|64:180,1,125,10|0,0:0|0:0,0:0:0:0:
384,104,19941,1,2,0:0:0:0:
232,96,20382,1,0,0:0:0:0:
440,256,20824,1,10,0:0:0:0:
484,192,21044,1,0,0:0:0:0:
336,264,21265,1,2,0:0:0:0:
292,188,21485,1,0,0:0:0:0:
108,260,21706,6,0,L|232:228,1,125,2|0,0:0|0:0,0:0:0:0:
448,196,22588,1,10,0:0:0:0:
296,200,23030,2,0,P|200:204|152:216,2,125,0|2|0,0:0|0:0|0:0,0:0:0:0:
484,272,24353,2,0,L|368:320,1,125,8|0,0:0|0:0,0:0:0:0:
88,292,25235,6,0,P|150:295|208:317,1,125,2|0,0:0|0:0,0:0:0:0:
476,180,26118,2,0,L|361:230,1,125,10|0,0:0|0:0,0:0:0:0:
288,240,26780,1,0,0:0:0:0:
208,252,27000,2,0,L|332:248,1,125,2|0,0:0|0:0,0:0:0:0:
56,160,27882,2,0,L|216:124,1,125,10|0,0:0|0:0,0:0:0:0:
472,104,28765,6,0,L|344:124,1,125,2|0,0:0|0:0,0:0:0:0:
136,152,29647,1,10,0:0:0:0:
292,180,30088,1,0,0:0:0:0:
32,192,30530,2,0,P|76:280|224:288,1,250,2|8,0:0|0:0,0:0:0:0:
364,296,31853,1,0,0:0:0:0:
420,248,32074,1,0,0:0:0:0:
208,224,32294,5,2,0:0:0:0:
376,156,32735,1,0,0:0:0:0:
280,136,32956,1,0,0:0:0:0:
84,168,33177,1,10,0:0:0:0:
232,232,33618,1,0,0:0:0:0:
432,236,34059,2,0,L|396:112,1,125,2|0,0:0|0:0,0:0:0:0:
320,92,34721,1,0,0:0:0:0:
184,112,34941,1,10,0:0:0:0:
344,220,35382,1,0,0:0:0:0:
440,228,35603,1,0,0:0:0:0:
140,272,35824,6,0,L|116:128,1,125,6|0,0:0|0:0,0:0:0:0:
292,116,36485,1,2,0:0:0:0:
204,188,36706,2,0,L|352:172,1,125,8|0,0:0|0:0,0:0:0:0:
83,200,37588,2,0,L|208:200,1,125,2|0,0:0|0:0,0:0:0:0:
276,228,38250,1,0,0:0:0:0:
416,220,38471,2,0,P|436:164|400:96,1,125,8|0,0:0|0:0,0:0:0:0:
340,84,39132,1,0,0:0:0:0:
184,128,39353,6,0,L|184:272,1,125,2|0,0:0|0:0,0:0:0:0:
404,300,40235,2,0,L|468:292,1,62.5,10|0,0:0|0:0,0:0:0:0:
320,228,40677,1,0,0:0:0:0:
408,172,40897,1,0,0:0:0:0:
224,188,41118,2,0,L|88:188,1,125,2|0,0:0|0:0,0:0:0:0:
252,104,42000,2,0,L|348:104,1,62.5,10|0,0:0|0:0,0:0:0:0:
188,48,42441,2,0,L|125:51,1,62.5,2|0,0:0|0:0,0:0:0:0:
312,148,42882,6,0,L|436:100,1,125,2|0,0:0|0:0,0:0:0:0:
264,160,43765,1,10,0:0:0:0:
152,160,44206,1,0,0:0:0:0:
412,156,44647,1,2,0:0:0:0:
228,172,45088,1,0,0:0:0:0:
356,192,45530,1,10,0:0:0:0:
480,216,45971,1,0,0:0:0:0:
128,88,46412,6,0,P|60:88|104:188,1,187.5,2|0,0:0|0:0,0:0:0:0:
184,200,47294,2,0,L|308:190,1,125,10|0,0:0|0:0,0:0:0:0:
420,208,47956,1,8,0:0:0:0:
236,288,48177,2,0,L|111:275,1,125,2|0,0:0|0:0,0:0:0:0:
24,256,48838,1,0,0:0:0:0:
224,288,49059,2,0,P|256:236|216:184,1,125,10|0,0:0|0:0,0:0:0:0:
104,144,49721,1,0,0:0:0:0:
384,212,49941,6,0,P|452:192|380:144,1,187.5,6|0,0:0|0:0,0:0:0:0:
272,120,50824,2,0,L|132:116,1,125,10|0,0:0|0:0,0:0:0:0:
348,192,51706,2,0,L|480:164,1,125,2|0,0:0|0:0,0:0:0:0:
160,272,52588,2,0,L|28:244,1,125,10|0,0:0|0:0,0:0:0:0:
256,200,53471,5,2,0:0:0:0:
404,200,53912,1,0,0:0:0:0:
76,204,54353,2,0,L|208:280,1,125,10|0,0:0|0:0,0:0:0:0:
420,236,55235,2,0,L|296:128,1,125,2|0,0:0|0:0,0:0:0:0:
136,120,56118,1,8,0:0:0:0:
296,136,56559,1,0,0:0:0:0:
27,92,57000,6,0,L|152:104,1,125,2|0,0:0|0:0,0:0:0:0:
348,160,57882,2,0,L|216:148,1,125,10|0,0:0|0:0,0:0:0:0:
32,224,58765,2,0,L|36:92,1,125,2|0,0:0|0:0,0:0:0:0:
320,88,59647,2,0,L|323:212,1,125,8|0,0:0|0:0,0:0:0:0:
284,276,60309,1,0,0:0:0:0:
136,220,60530,5,2,0:0:0:0:
408,188,60971,1,0,0:0:0:0:
256,144,61412,2,0,L|193:146,1,62.5,10|0,0:0|0:0,0:0:0:0:
72,172,61853,2,0,L|131:189,1,62.5,2|0,0:0|0:0,0:0:0:0:
300,168,62294,1,10,0:0:0:0:
452,168,62735,1,0,0:0:0:0:
144,208,63177,1,4,3:0:0:0:
0,208,63618,1,0,0:0:0:0:
500,252,64059,6,0,P|442:275|380:282,1,125,6|0,0:0|0:0,0:0:0:0:
100,176,64941,2,0,L|224:179,1,125,8|0,0:0|0:0,0:0:0:0:
436,96,65824,2,0,L|311:85,1,125,2|0,0:0|0:0,0:0:0:0:
52,168,66706,1,8,0:0:0:0:
196,204,67147,1,0,0:0:0:0:
268,188,67368,1,0,0:0:0:0:
416,168,67588,6,0,L|432:308,1,125,2|0,0:0|0:0,0:0:0:0:
224,320,68471,2,0,L|96:316,1,125,10|0,0:0|0:0,0:0:0:0:
8,288,69132,1,2,0:0:0:0:
100,272,69353,1,0,0:0:0:0:
304,324,69574,1,2,0:0:0:0:
368,280,69794,1,0,0:0:0:0:
304,236,70015,1,0,0:0:0:0:
84,192,70235,1,10,0:0:0:0:
284,228,70677,1,2,0:0:0:0:
32,120,71118,6,0,L|180:112,1,125,2|0,0:0|0:0,0:0:0:0:
348,104,72000,1,8,0:0:0:0:
72,244,72441,2,0,L|248:244,1,125,2|2,0:0|0:0,0:0:0:0:
360,240,73324,1,0,0:0:0:0:
72,320,73765,2,0,L|36:176,1,125,8|0,0:0|0:0,0:0:0:0:
136,172,74427,1,0,0:0:0:0:
332,204,74647,5,0,0:0:0:0:
140,212,75088,1,2,0:0:0:0:
404,240,75530,1,10,0:0:0:0:
76,244,75971,1,2,0:0:0:0:
400,160,76412,1,2,0:0:0:0:
248,144,76853,1,2,0:0:0:0:
412,60,77294,1,10,0:0:0:0:
120,48,77735,1,2,0:0:0:0:
40,72,77956,1,0,0:0:0:0:
352,112,78177,6,0,P|384:168|328:196,1,125,6|0,0:0|0:0,0:0:0:0:
56,200,79059,1,8,0:0:0:0:
192,204,79500,1,0,0:0:0:0:
456,156,79941,2,0,L|464:308,1,125,2|0,0:0|0:0,0:0:0:0:
368,304,80603,1,0,0:0:0:0:
200,288,80824,1,8,0:0:0:0:
344,264,81265,1,0,0:0:0:0:
424,256,81485,1,0,0:0:0:0:
216,252,81706,6,0,L|76:248,1,125,6|0,0:0|0:0,0:0:0:0:
16,240,82368,1,0,0:0:0:0:
148,196,82588,2,0,P|212:232|232:300,1,125,10|0,0:0|0:0,0:0:0:0:
132,316,83250,1,0,0:0:0:0:
420,344,83471,2,0,L|516:248,1,125,6|0,0:0|0:0,0:0:0:0:
428,296,84132,1,0,0:0:0:0:
288,296,84353,2,0,L|196:196,1,125,8|0,0:0|0:0,0:0:0:0:
116,168,85015,1,0,0:0:0:0:
400,124,85235,6,0,P|432:176|396:224,1,125,6|0,0:0|0:0,0:0:0:0:
112,222,86118,2,0,P|79:173|112:124,1,125,10|0,0:0|0:0,0:0:0:0:
396,144,87000,2,0,L|364:284,1,125,2|0,0:0|0:0,0:0:0:0:
300,296,87662,1,0,0:0:0:0:
172,248,87882,1,8,0:0:0:0:
444,196,88324,2,0,L|381:192,1,62.5,0|0,0:0|0:0,0:0:0:0:
80,168,88765,5,6,0:0:0:0:
280,176,89206,1,2,0:0:0:0:
80,240,89647,1,10,0:0:0:0:
288,272,90088,1,2,0:0:0:0:
360,276,90309,1,0,0:0:0:0:
360,200,90530,1,2,0:0:0:0:
284,192,90750,1,0,0:0:0:0:
116,216,90971,1,2,0:0:0:0:
60,148,91191,1,0,0:0:0:0:
112,88,91412,1,10,0:0:0:0:
316,84,91853,1,2,0:0:0:0:
400,96,92074,1,0,0:0:0:0:
112,124,92294,6,0,L|96:276,1,125,6|0,0:0|0:0,0:0:0:0:
248,268,93177,2,0,L|412:248,1,125,8|2,0:0|0:0,0:0:0:0:
164,132,94059,2,0,L|16:128,1,125,2|0,0:0|0:0,0:0:0:0:
116,132,94721,1,0,0:0:0:0:
192,136,94941,1,10,0:0:0:0:
424,216,95382,1,0,0:0:0:0:
328,228,95603,1,0,0:0:0:0:
48,236,95824,5,6,0:0:0:0:
