osu file format v14

[General]
AudioFilename: Love.mp3
AudioLeadIn: 2000
PreviewTime: 62735
Countdown: 0
SampleSet: Soft
StackLeniency: 0.9
Mode: 0
LetterboxInBreaks: 0
WidescreenStoryboard: 1

[Editor]
DistanceSpacing: 1
BeatDivisor: 8
GridSize: 4
TimelineZoom: 1

[Metadata]
Title:Jodoh Pasti Bertemu
TitleUnicode:Jodoh Pasti Bertemu
Artist:Afgan
ArtistUnicode:Afgan
Creator:Mako Sakata
Version:Normal
Source:
Tags:L1ve To Love Afgansyah Reza Cut Version Trinity Optima Production Bahasa Indonesia Indonesian Susilo Sakata kapursirih
BeatmapID:368181
BeatmapSetID:148987

[Difficulty]
HPDrainRate:4.5
CircleSize:3.4
OverallDifficulty:4.5
ApproachRate:5
SliderMultiplier:2
SliderTickRate:1

[Events]
//Background and Video events
0,0,"Love BG.jpg",0,0
//Break Periods
//Storyboard Layer 0 (Background)
//Storyboard Layer 1 (Fail)
//Storyboard Layer 2 (Pass)
//Storyboard Layer 3 (Foreground)
//Storyboard Sound Samples

[TimingPoints]
530,882.352941176471,4,2,1,40,1,0
47294,-100,4,2,1,45,0,0
48177,-100,4,2,1,50,0,0
49059,-100,4,2,1,55,0,0
49941,-100,4,2,1,60,0,0
50824,-100,4,2,1,40,0,0
64059,-100,4,2,1,50,0,1
95824,-100,4,2,1,50,0,0
97368,-100,4,2,1,10,0,0

[Colours]
Combo1 : 252,206,255
Combo2 : 176,251,186
Combo3 : 149,179,255
Combo4 : 255,213,128
SliderBorder : 255,255,255

[HitObjects]
112,96,530,54,0,B|135:190|135:190|99:230|111:286,1,200,6|2,0:0|0:0,0:0:0:0:
208,260,1853,1,2,0:0:0:0:
400,288,4059,6,0,B|376:193|376:193|412:153|400:97,1,200,6|2,0:0|0:0,0:0:0:0:
304,124,5382,1,2,0:0:0:0:
256,192,5824,12,6,7588,0:0:0:0:
304,124,9353,6,0,P|212:156|116:124,2,200,2|8|2,0:0|0:0|0:0,0:0:0:0:
396,300,12000,1,10,0:0:0:0:
396,300,12441,1,2,0:0:0:0:
396,300,12882,2,0,P|304:268|208:300,1,200,0|10,0:0|0:0,0:0:0:0:
160,308,13985,1,0,0:0:0:0:
112,296,14206,1,2,0:0:0:0:
88,252,14427,1,0,0:0:0:0:
112,208,14647,6,0,P|144:116|112:20,1,200,2|10,0:0|0:0,0:0:0:0:
188,88,15971,2,0,P|236:100|284:88,1,100,0|2,0:0|0:0,0:0:0:0:
364,148,16853,2,0,P|376:196|364:244,1,100,0|8,0:0|0:0,0:0:0:0:
304,324,17735,1,0,0:0:0:0:
304,324,18177,6,0,B|252:308|204:324|204:324|156:340|104:324,1,200,2|10,0:0|0:0,0:0:0:0:
35,254,19500,1,0,0:0:0:0:
104,180,19941,2,0,B|152:164|200:180|200:180|248:196|300:180,1,200,2|10,0:0|0:0,0:0:0:0:
344,156,21044,1,0,0:0:0:0:
392,144,21265,1,2,0:0:0:0:
440,156,21485,1,0,0:0:0:0:
484,180,21706,6,0,P|484:280|400:312,1,200,2|8,0:0|0:0,0:0:0:0:
304,292,23030,1,0,0:0:0:0:
304,292,23471,2,0,P|212:260|116:292,1,200,2|8,0:0|0:0,0:0:0:0:
36,348,24794,1,0,0:0:0:0:
44,248,25235,6,0,P|76:156|44:60,1,200,2|10,0:0|0:0,0:0:0:0:
140,28,26559,1,0,0:0:0:0:
220,88,27000,2,0,P|312:120|408:88,1,200,2|10,0:0|0:0,0:0:0:0:
406,89,28765,6,0,P|418:137|406:185,1,100,2|0,0:0|0:0,0:0:0:0:
404,284,29647,2,0,P|356:270|320:236,1,100,10|0,0:0|0:0,0:0:0:0:
320,136,30530,2,0,P|228:100|136:136,1,200,2|8,0:0|0:0,0:0:0:0:
80,216,31853,1,0,0:0:0:0:
31,303,32294,6,0,P|79:316|128:304,1,100,2|0,0:0|0:0,0:0:0:0:
80,216,33177,2,0,P|68:168|80:120,1,100,10|0,0:0|0:0,0:0:0:0:
168,168,34059,2,0,B|216:180|260:148|260:148|300:180|356:168,1,200,2|10,0:0|0:0,0:0:0:0:
356,167,35824,6,0,P|324:259|356:355,1,200,6|8,0:0|0:0,0:0:0:0:
456,355,37147,1,0,0:0:0:0:
456,355,37588,2,0,P|488:263|456:167,1,200,2|8,0:0|0:0,0:0:0:0:
396,88,38912,1,0,0:0:0:0:
396,88,39353,6,0,P|348:100|300:88,1,100,2|0,0:0|0:0,0:0:0:0:
212,40,40235,2,0,P|200:88|212:136,1,100,10|0,0:0|0:0,0:0:0:0:
236,180,40897,1,2,0:0:0:0:
260,224,41118,2,0,P|260:324|176:356,1,200,0|10,0:0|0:0,0:0:0:0:
128,360,42221,1,0,0:0:0:0:
80,348,42442,1,2,0:0:0:0:
56,304,42663,1,0,0:0:0:0:
68,256,42883,6,0,P|100:164|68:68,1,200,2|10,0:0|0:0,0:0:0:0:
164,36,44206,2,0,P|212:48|260:36,1,100,0|2,0:0|0:0,0:0:0:0:
340,96,45088,2,0,P|328:144|340:192,1,100,0|8,0:0|0:0,0:0:0:0:
397,274,45971,1,0,0:0:0:0:
308,320,46412,6,0,P|256:312|208:320,1,100,2|0,0:0|0:0,0:0:0:0:
136,244,47294,2,0,P|144:192|136:144,1,100,10|0,0:0|0:0,0:0:0:0:
204,72,48177,2,0,P|256:80|304:72,1,100,2|0,0:0|0:0,0:0:0:0:
372,144,49059,2,0,P|364:192|372:244,1,100,10|0,0:0|0:0,0:0:0:0:
308,320,49941,6,0,P|256:312|208:320,1,100,6|0,0:0|0:0,0:0:0:0:
120,364,50824,1,10,0:0:0:0:
40,304,51265,1,0,0:0:0:0:
88,216,51706,2,0,P|100:168|88:120,1,100,2|0,0:0|0:0,0:0:0:0:
40,32,52588,2,0,P|88:20|136:32,1,100,8|0,0:0|0:0,0:0:0:0:
216,92,53471,6,0,P|308:124|404:92,1,200,2|10,0:0|0:0,0:0:0:0:
468,168,54794,1,0,0:0:0:0:
468,168,55235,2,0,P|480:216|468:264,1,100,2|0,0:0|0:0,0:0:0:0:
380,215,56118,1,8,0:0:0:0:
380,215,57000,6,0,P|332:227|284:215,1,100,2|0,0:0|0:0,0:0:0:0:
185,213,57882,2,0,P|199:165|233:129,1,100,10|0,0:0|0:0,0:0:0:0:
284,45,58765,2,0,P|319:81|332:129,1,100,2|0,0:0|0:0,0:0:0:0:
380,215,59647,2,0,P|332:227|284:215,1,100,8|0,0:0|0:0,0:0:0:0:
185,213,60530,5,2,0:0:0:0:
185,213,60971,2,0,P|197:261|185:309,1,100,0|10,0:0|0:0,0:0:0:0:
97,357,61854,2,0,P|85:309|97:261,1,100,0|2,0:0|0:0,0:0:0:0:
184,309,62735,1,0,0:0:0:0:
280,340,63177,1,10,0:0:0:0:
375,309,63618,1,0,0:0:0:0:
472,340,64059,6,0,B|484:292|452:248|452:248|484:208|472:152,1,200,6|8,0:0|0:0,0:0:0:0:
440,56,65382,1,0,0:0:0:0:
440,56,65824,2,0,P|392:68|344:56,1,100,2|0,0:0|0:0,0:0:0:0:
264,116,66706,2,0,P|276:164|264:212,1,100,8|0,0:0|0:0,0:0:0:0:
316,300,67588,6,0,B|264:316|216:300|216:300|168:284|116:300,1,200,2|10,0:0|0:0,0:0:0:0:
28,340,68912,1,2,0:0:0:0:
56,244,69353,2,0,P|71:147|23:58,1,200,0|10,0:0|0:0,0:0:0:0:
112,12,70677,1,2,0:0:0:0:
208,44,71118,6,0,P|256:56|304:44,1,100,2|0,0:0|0:0,0:0:0:0:
384,104,72000,1,8,0:0:0:0:
384,104,72441,2,0,P|352:196|384:292,1,200,2|0,0:0|0:0,0:0:0:0:
304,352,73765,2,0,P|256:364|208:352,1,100,8|0,0:0|0:0,0:0:0:0:
256,264,74647,5,0,0:0:0:0:
256,264,75088,2,0,P|213:238|188:196,1,100,2|10,0:0|0:0,0:0:0:0:
119,124,75970,2,0,P|162:99|212:98,1,100,2|2,0:0|0:0,0:0:0:0:
308,75,76853,2,0,P|307:125|282:168,1,100,2|10,0:0|0:0,0:0:0:0:
256,264,77735,1,2,0:0:0:0:
256,264,78177,6,0,B|208:276|164:244|164:244|124:276|68:264,1,200,6|8,0:0|0:0,0:0:0:0:
100,168,79500,1,0,0:0:0:0:
100,168,79941,2,0,P|75:123|75:75,1,100,2|0,0:0|0:0,0:0:0:0:
172,96,80824,2,0,P|205:58|250:40,1,100,8|0,0:0|0:0,0:0:0:0:
264,140,81706,6,0,P|355:175|408:261,1,200,6|8,0:0|0:0,0:0:0:0:
432,356,83030,1,0,0:0:0:0:
332,356,83471,2,0,P|240:320|187:234,1,200,6|8,0:0|0:0,0:0:0:0:
187,237,85235,6,0,P|139:249|91:237,1,100,4|0,0:0|0:0,0:0:0:0:
140,152,86118,2,0,P|188:140|236:152,1,100,8|0,0:0|0:0,0:0:0:0:
316,212,87000,2,0,P|408:244|504:212,2,200,2|8|6,0:0|0:0|0:0,0:0:0:0:
228,164,89206,6,0,P|216:212|228:260,1,100,2|10,0:0|0:0,0:0:0:0:
230,359,90088,2,0,P|278:345|314:311,1,100,2|2,0:0|0:0,0:0:0:0:
398,260,90971,2,0,P|362:225|314:212,1,100,2|10,0:0|0:0,0:0:0:0:
228,164,91853,2,0,P|216:212|228:260,1,100,2|6,0:0|0:0,0:0:0:0:
316,308,92735,5,0,0:0:0:0:
316,308,93177,2,0,P|328:259|316:211,1,100,8|2,0:0|0:0,0:0:0:0:
288,116,94059,2,0,B|336:104|380:136|380:136|420:104|476:116,1,200,2|10,0:0|0:0,0:0:0:0:
256,192,95824,12,0,97368,0:0:0:0:
