osu file format v14

[General]
AudioFilename: Love.mp3
AudioLeadIn: 2000
PreviewTime: 62735
Countdown: 0
SampleSet: Soft
StackLeniency: 0.9
Mode: 0
LetterboxInBreaks: 0
WidescreenStoryboard: 1

[Editor]
DistanceSpacing: 1.2
BeatDivisor: 8
GridSize: 4
TimelineZoom: 1

[Metadata]
Title:Jodoh Pasti Bertemu
TitleUnicode:Jodoh Pasti Bertemu
Artist:Afgan
ArtistUnicode:Afgan
Creator:Mako Sakata
Version:Hard
Source:
Tags:L1ve To Love Afgansyah Reza Cut Version Trinity Optima Production Bahasa Indonesia Indonesian Susilo Sakata kapursirih
BeatmapID:368180
BeatmapSetID:148987

[Difficulty]
HPDrainRate:6.5
CircleSize:4.4
OverallDifficulty:6.5
ApproachRate:7.5
SliderMultiplier:2.5
SliderTickRate:1

[Events]
//Background and Video events
0,0,"Love BG.jpg",0,0
//Break Periods
//Storyboard Layer 0 (Background)
//Storyboard Layer 1 (Fail)
//Storyboard Layer 2 (Pass)
//Storyboard Layer 3 (Foreground)
//Storyboard Sound Samples

[TimingPoints]
530,882.352941176471,4,2,1,40,1,0
530,-133.333333333333,4,2,1,40,0,0
7147,-133.333333333333,4,2,1,10,0,0
7588,-133.333333333333,4,2,1,40,0,0
46412,-100,4,2,1,40,0,0
47074,-100,4,2,1,10,0,0
47294,-90.9090909090909,4,2,1,45,0,0
47956,-90.9090909090909,4,2,1,10,0,0
48177,-83.3333333333333,4,2,1,50,0,0
48838,-83.3333333333333,4,2,1,10,0,0
49059,-76.9230769230769,4,2,1,55,0,0
49721,-76.9230769230769,4,2,1,10,0,0
49941,-71.4285714285714,4,2,1,60,0,0
50603,-71.4285714285714,4,2,1,10,0,0
50824,-133.333333333333,4,2,1,40,0,0
64059,-100,4,2,1,50,0,1
95824,-100,4,2,1,50,0,0
96596,-100,4,2,1,10,0,0
96816,-100,4,2,1,50,0,0
97368,-100,4,2,1,10,0,0

[Colours]
Combo1 : 252,206,255
Combo2 : 176,251,186
Combo3 : 149,179,255
Combo4 : 255,213,128
SliderBorder : 255,255,255

[HitObjects]
72,68,530,54,0,P|60:116|72:160,1,93.7500035762789,6|0,0:0|0:0,0:0:0:0:
148,208,1412,2,0,P|160:160|148:116,1,93.7500035762789,2|2,0:0|0:0,0:0:0:0:
440,316,4059,6,0,P|452:268|440:224,1,93.7500035762789,6|0,0:0|0:0,0:0:0:0:
364,176,4941,2,0,P|352:224|364:268,1,93.7500035762789,2|2,0:0|0:0,0:0:0:0:
256,192,5824,12,0,7147,0:0:0:0:
480,232,7588,6,0,P|492:184|480:140,1,93.7500035762789,6|0,0:0|0:0,0:0:0:0:
460,100,8250,1,2,0:0:0:0:
416,116,8471,2,0,P|348:132|280:116,1,140.625005364418,8|0,0:0|0:0,0:0:0:0:
240,92,9353,2,0,P|192:168|240:244,1,187.500007152558,2|8,0:0|0:0,0:0:0:0:
301,312,10677,1,0,0:0:0:0:
216,352,11118,6,0,P|168:364|124:352,1,93.7500035762789,2|0,0:0|0:0,0:0:0:0:
52,296,12000,1,10,0:0:0:0:
64,252,12221,1,0,0:0:0:0:
52,208,12442,1,2,0:0:0:0:
112,136,12883,2,0,P|157:149|202:138,1,93.7500035762789,2|0,0:0|0:0,0:0:0:0:
268,204,13765,2,0,L|271:250,1,46.8750017881394,10|0,0:0|0:0,0:0:0:0:
348,363,14206,2,0,L|352:316,1,46.8750017881394,2|0,0:0|0:0,0:0:0:0:
356,268,14647,6,0,P|401:281|446:270,1,93.7500035762789,2|0,0:0|0:0,0:0:0:0:
508,200,15530,1,10,0:0:0:0:
460,120,15971,1,0,0:0:0:0:
460,120,16412,1,2,0:0:0:0:
460,120,16853,2,0,P|447:75|458:30,1,93.7500035762789,0|8,0:0|0:0,0:0:0:0:
364,16,17735,1,0,0:0:0:0:
276,48,18177,6,0,P|208:60|144:32,1,140.625005364418,2|0,0:0|0:0,0:0:0:0:
160,76,19059,2,0,P|173:121|162:166,1,93.7500035762789,10|0,0:0|0:0,0:0:0:0:
79,120,19941,1,2,0:0:0:0:
79,120,20382,1,0,0:0:0:0:
36,204,20824,2,0,L|40:252,1,46.8750017881394,10|0,0:0|0:0,0:0:0:0:
140,340,21265,2,0,L|144:293,1,46.8750017881394,2|0,0:0|0:0,0:0:0:0:
148,245,21706,6,0,P|193:258|238:247,1,93.7500035762789,2|0,0:0|0:0,0:0:0:0:
312,188,22588,1,10,0:0:0:0:
312,188,23030,1,0,0:0:0:0:
312,188,23471,2,0,P|357:175|402:186,1,93.7500035762789,2|0,0:0|0:0,0:0:0:0:
447,268,24353,2,0,P|402:281|357:270,1,93.7500035762789,8|0,0:0|0:0,0:0:0:0:
312,188,25235,6,0,L|316:92,1,93.7500035762788,2|0,0:0|0:0,0:0:0:0:
196,94,26118,2,0,L|200:188,1,93.7500035762788,10|0,0:0|0:0,0:0:0:0:
212,280,27000,2,0,P|256:268|304:280,2,93.7500035762788,2|0|10,0:0|0:0|0:0,0:0:0:0:
256,364,28324,1,0,0:0:0:0:
160,356,28765,6,0,P|127:323|114:276,1,93.7500035762788,2|0,0:0|0:0,0:0:0:0:
20,272,29647,2,0,P|31:227|66:192,1,93.7500035762788,10|0,0:0|0:0,0:0:0:0:
68,100,30530,2,0,P|112:111|147:146,1,93.7500035762788,2|0,0:0|0:0,0:0:0:0:
212,212,31412,2,0,P|256:224|304:212,1,93.7500035762788,8|0,0:0|0:0,0:0:0:0:
365,143,32294,6,0,P|399:112|444:100,1,93.7500035762788,2|0,0:0|0:0,0:0:0:0:
448,193,33177,2,0,P|479:227|492:272,1,93.7500035762788,10|0,0:0|0:0,0:0:0:0:
397,278,34059,2,0,P|384:323|352:356,1,93.7500035762788,2|0,0:0|0:0,0:0:0:0:
264,324,34941,2,0,P|196:308|128:324,1,140.625005364418,10|0,0:0|0:0,0:0:0:0:
84,308,35824,6,0,P|60:272|56:220,1,93.7500035762788,6|0,0:0|0:0,0:0:0:0:
64,176,36485,1,2,0:0:0:0:
88,136,36706,2,0,P|156:152|224:136,1,140.625005364418,8|0,0:0|0:0,0:0:0:0:
264,112,37588,2,0,P|309:99|354:110,1,93.7500035762789,2|0,0:0|0:0,0:0:0:0:
399,192,38471,2,0,P|354:205|309:194,1,93.7500035762789,8|0,0:0|0:0,0:0:0:0:
224,236,39353,6,0,P|212:280|224:328,1,93.7500035762788,2|0,0:0|0:0,0:0:0:0:
304,372,40235,1,10,0:0:0:0:
392,340,40677,1,0,0:0:0:0:
436,328,40897,1,2,0:0:0:0:
480,340,41118,1,0,0:0:0:0:
436,256,41559,2,0,P|424:212|436:164,1,93.7500035762788,0|10,0:0|0:0,0:0:0:0:
456,124,42221,1,0,0:0:0:0:
456,76,42441,1,2,0:0:0:0:
432,36,42662,1,0,0:0:0:0:
388,20,42882,6,0,P|344:32|296:20,1,93.7500035762788,2|0,0:0|0:0,0:0:0:0:
125,62,43765,2,0,P|170:50|215:63,1,93.7500035762788,10|0,0:0|0:0,0:0:0:0:
170,145,44647,2,0,P|158:189|171:234,1,93.7500035762788,2|0,0:0|0:0,0:0:0:0:
84,272,45530,2,0,P|64:229|27:203,1,93.7500035762788,10|0,0:0|0:0,0:0:0:0:
96,100,46412,6,0,P|184:127|268:87,1,187.500007152558,2|0,0:0|0:0,0:0:0:0:
312,19,47294,6,0,B|292:71|312:119|312:119|332:175|312:223,1,206.250006294251,10|0,0:0|0:0,0:0:0:0:
268,299,48177,6,0,B|312:319|360:299|360:299|404:311|404:311|444:291|488:311,1,224.999993133545,2|0,0:0|0:0,0:0:0:0:
428,252,49059,6,0,B|408:192|428:132|428:132|448:68|428:12,1,243.749988842011,10|0,0:0|0:0,0:0:0:0:
340,68,49941,6,0,P|256:152|172:68,1,262.499991989136,6|0,0:0|0:0,0:0:0:0:
256,68,50824,5,10,0:0:0:0:
256,228,51265,1,0,0:0:0:0:
256,228,51706,2,0,P|248:273|256:321,1,93.7500035762788,2|0,0:0|0:0,0:0:0:0:
136,272,52588,2,0,P|144:227|136:179,1,93.7500035762788,8|0,0:0|0:0,0:0:0:0:
88,60,53471,5,2,0:0:0:0:
88,60,54353,2,0,P|80:105|88:153,1,93.7500035762788,10|0,0:0|0:0,0:0:0:0:
44,234,55235,2,0,P|88:246|136:234,1,93.7500035762788,2|0,0:0|0:0,0:0:0:0:
224,208,56118,1,8,0:0:0:0:
224,208,57000,6,0,P|257:241|304:254,1,93.7500035762788,2|0,0:0|0:0,0:0:0:0:
308,348,57882,2,0,P|353:337|388:302,1,93.7500035762788,10|0,0:0|0:0,0:0:0:0:
480,300,58765,2,0,P|469:256|434:221,1,93.7500035762788,2|0,0:0|0:0,0:0:0:0:
427,58,59647,2,0,P|439:103|472:136,1,93.7500035762788,8|0,0:0|0:0,0:0:0:0:
435,222,60530,5,2,0:0:0:0:
435,222,60971,2,0,P|468:255|480:300,1,93.7500035762788,0|10,0:0|0:0,0:0:0:0:
386,304,61854,2,0,P|353:336|308:348,1,93.7500035762788,0|2,0:0|0:0,0:0:0:0:
301,253,62735,1,0,0:0:0:0:
223,207,63177,1,10,0:0:0:0:
306,162,63618,1,0,0:0:0:0:
306,162,64059,6,0,B|276:204|224:208|224:208|160:164|72:180,1,250,6|8,0:0|0:0,0:0:0:0:
260,288,65382,2,0,P|320:264|364:224,1,125,0|2,0:0|0:0,0:0:0:0:
240,140,66265,2,0,P|180:164|136:204,1,125,0|8,0:0|0:0,0:0:0:0:
260,288,67147,1,0,0:0:0:0:
260,80,67588,5,2,0:0:0:0:
116,48,68030,1,0,0:0:0:0:
116,48,68471,2,0,P|104:108|116:172,1,125,10|0,0:0|0:0,0:0:0:0:
152,236,69132,5,2,0:0:0:0:
244,292,69353,1,0,0:0:0:0:
244,180,69574,1,2,0:0:0:0:
140,236,69794,1,0,0:0:0:0:
372,235,70235,2,0,P|395:179|372:124,1,125,10|2,0:0|0:0,0:0:0:0:
140,124,71118,6,0,P|116:180|140:236,1,125,2|0,0:0|0:0,0:0:0:0:
224,360,72000,2,0,B|192:352|164:360|164:360|140:368|100:360,1,125,8|2,0:0|0:0,0:0:0:0:
28,340,72662,1,0,0:0:0:0:
48,268,72882,2,0,P|60:208|48:144,1,125,2|0,0:0|0:0,0:0:0:0:
28,72,73544,1,0,0:0:0:0:
96,40,73765,2,0,B|136:36|136:36|172:60|220:48,1,125,8|0,0:0|0:0,0:0:0:0:
340,140,74647,5,0,0:0:0:0:
340,140,75088,1,2,0:0:0:0:
328,289,75530,1,10,0:0:0:0:
473,205,75971,1,2,0:0:0:0:
327,118,76412,1,2,0:0:0:0:
307,301,76853,1,2,0:0:0:0:
494,193,77294,1,10,0:0:0:0:
315,98,77735,1,2,0:0:0:0:
315,98,78177,6,0,B|285:140|233:144|233:144|169:100|81:116,1,250,6|8,0:0|0:0,0:0:0:0:
136,256,79500,1,0,0:0:0:0:
284,256,79941,2,0,P|344:232|388:192,1,125,2|0,0:0|0:0,0:0:0:0:
264,108,80824,2,0,P|204:132|160:172,1,125,8|0,0:0|0:0,0:0:0:0:
104,312,81706,6,0,P|160:332|220:312,1,125,6|0,0:0|0:0,0:0:0:0:
296,368,82368,1,0,0:0:0:0:
296,368,82588,2,0,P|316:312|296:252,1,125,10|0,0:0|0:0,0:0:0:0:
352,176,83250,1,0,0:0:0:0:
352,176,83471,2,0,P|296:156|236:176,1,125,6|0,0:0|0:0,0:0:0:0:
296,312,84353,1,8,0:0:0:0:
444,292,84794,1,0,0:0:0:0:
444,292,85235,6,0,P|424:236|444:176,1,125,6|0,0:0|0:0,0:0:0:0:
488,32,86118,2,0,B|456:24|428:32|428:32|404:40|364:32,1,125,8|0,0:0|0:0,0:0:0:0:
318,91,86780,1,0,0:0:0:0:
285,158,87000,2,0,P|273:218|285:282,1,125,2|0,0:0|0:0,0:0:0:0:
318,347,87662,1,0,0:0:0:0:
244,360,87883,2,0,B|204:356|204:356|168:380|120:368,1,125,8|0,0:0|0:0,0:0:0:0:
140,220,88765,5,6,0:0:0:0:
140,220,89206,1,2,0:0:0:0:
128,71,89648,1,10,0:0:0:0:
273,155,90089,1,2,0:0:0:0:
127,242,90530,1,2,0:0:0:0:
107,59,90971,1,2,0:0:0:0:
294,167,91412,1,10,0:0:0:0:
115,262,91853,1,2,0:0:0:0:
115,262,92294,6,0,P|127:202|115:138,1,125,6|0,0:0|0:0,0:0:0:0:
240,56,93177,2,0,P|228:116|240:180,1,125,8|2,0:0|0:0,0:0:0:0:
264,248,93838,1,0,0:0:0:0:
340,248,94059,2,0,B|380:252|380:252|416:228|464:240,1,125,2|0,0:0|0:0,0:0:0:0:
496,172,94721,1,0,0:0:0:0:
464,104,94941,2,0,B|419:115|383:91|383:91|343:95,1,125,10|0,0:0|0:0,0:0:0:0:
284,204,95824,6,0,B|328:186|354:163|368:120|351:55|307:57|283:59|262:78|262:78|243:57|223:52|176:46|152:109|170:153|209:180,1,437.5,6|0,0:0|0:0,0:0:0:0:
