osu file format v14

[General]
AudioFilename: Path Of The Wind (remix).mp3
AudioLeadIn: 0
PreviewTime: 0
Countdown: 0
SampleSet: Soft
StackLeniency: 0.7
Mode: 0
LetterboxInBreaks: 1
WidescreenStoryboard: 1

[Editor]
Bookmarks: 0,42833,182833,192000,213333
DistanceSpacing: 1.8
BeatDivisor: 4
GridSize: 32
TimelineZoom: 2.599999

[Metadata]
Title:Path of the wind (remix)
TitleUnicode:Path of the wind (remix)
Artist:AekaSora
ArtistUnicode:ÆkaSora
Creator:stooph29
Version:Rainy
Source:My neighbor Totoro
Tags:Ghibli totoro miyazaki joe hinaishi remix chill
BeatmapID:1444000
BeatmapSetID:664205

[Difficulty]
HPDrainRate:5
CircleSize:3.8
OverallDifficulty:6
ApproachRate:8
SliderMultiplier:2
SliderTickRate:2

[Events]
//Background and Video events
0,0,"My-Neighbor-font-b-Totoro-b-font-Hayao-Miyazaki-Cute-Fabric-font-b-poster-b-font.jpg",0,0
//Break Periods
//Storyboard Layer 0 (Background)
//Storyboard Layer 1 (Fail)
//Storyboard Layer 2 (Pass)
//Storyboard Layer 3 (Foreground)
//Storyboard Sound Samples

[TimingPoints]
166,666.666666666667,4,2,0,15,1,0
1832,-100,4,2,0,40,0,0
2166,-100,4,2,0,40,0,0
2832,-100,4,2,0,25,0,0
4166,-100,4,2,0,25,0,0
4499,-100,4,2,0,40,0,0
4832,-100,4,2,0,60,0,0
5499,-100,4,2,0,25,0,0
5832,-100,4,2,0,30,0,1
6166,-100,4,2,0,40,0,1
6499,-100,4,2,0,50,0,1
6832,-100,4,2,0,60,0,1
7166,-100,4,2,0,65,0,1
7499,-100,4,2,0,70,0,1
9166,-50,4,2,0,60,0,1
9832,-100,4,2,0,50,0,1
10832,-100,4,2,0,25,0,0
11166,-100,4,2,0,25,0,0
11499,-100,4,2,0,25,0,0
11832,-100,4,2,0,25,0,0
14166,-100,4,2,0,25,0,0
14499,-100,4,2,0,30,0,0
14832,-100,4,2,0,35,0,0
15166,-100,4,2,0,40,0,0
15499,-100,4,2,0,50,0,0
15832,-100,4,2,0,25,0,0
17499,-100,4,2,0,25,0,0
17832,-66.6666666666667,4,2,0,25,0,0
18166,-100,4,2,0,25,0,0
19166,-100,4,2,0,25,0,0
27166,-66.6666666666667,4,2,0,30,0,0
27499,-57.1428571428571,4,2,0,40,0,0
27832,-50,4,2,0,50,0,0
28166,-50,4,2,0,60,0,0
28499,-57.1428571428571,4,2,0,65,0,0
28832,-66.6666666666667,4,2,0,70,0,0
29165,-100,4,2,0,70,0,0
29499,-100,4,2,0,65,0,0
29832,-100,4,2,0,60,0,0
30166,-100,4,2,0,50,0,0
30832,-100,4,2,0,40,0,0
31165,-100,4,2,0,30,0,0
31499,-100,4,2,0,25,0,0
35499,-50,4,2,0,25,0,0
36499,-100,4,2,0,25,0,0
38832,-100,4,2,0,25,0,0
42832,-100,4,2,0,30,0,0
46166,-86.9565217391304,4,2,0,25,0,0
51499,-100,4,2,0,25,0,0
62166,-100,4,2,0,25,0,0
67832,-50,4,2,0,25,0,0
69166,-100,4,2,0,25,0,0
78166,-80,4,2,0,25,0,0
83499,-100,4,2,0,25,0,0

[HitObjects]
160,88,166,5,0,0:0:0:0:
248,176,499,1,0,0:0:0:0:
160,272,832,1,0,0:0:0:0:
368,88,1499,5,0,0:0:0:0:
248,176,1832,1,0,0:0:0:0:
368,272,2166,1,0,0:0:0:0:
368,176,2499,5,0,0:0:0:0:
72,192,2832,2,0,L|136:160,1,50
296,288,3166,2,0,L|240:256,1,50
80,104,3499,2,0,L|184:80,1,100
248,88,4166,1,0,0:0:0:0:
320,136,4499,1,0,0:0:0:0:
368,208,4832,1,0,0:0:0:0:
168,184,5166,6,0,B|200:216|200:216|248:216,1,50
312,272,5499,2,0,P|272:296|224:304,1,50
232,72,5832,2,0,L|176:48,1,50
312,80,6166,2,0,L|376:104,1,50
304,152,6499,2,4,P|264:176|216:184,1,50
320,224,6832,2,0,P|360:248|400:256,1,50
296,296,7166,6,0,P|256:296|192:328,2,100
368,296,8166,2,0,P|432:296|480:280,2,100
296,224,9166,1,0,0:0:0:0:
192,176,9499,1,0,0:0:0:0:
148,66,9832,2,0,P|103:88|70:125,2,100
166,269,10832,6,0,P|219:264|256:221,3,100
353,176,12166,2,0,P|400:204|436:273,2,100
233,95,13166,1,0,0:0:0:0:
184,241,13499,2,0,P|136:185|112:177,1,100
384,136,14166,5,0,0:0:0:0:
232,104,14499,2,0,L|152:104,1,50
312,168,14832,2,0,L|336:120,1,50
200,192,15166,2,0,L|144:232,1,50
280,256,15499,2,0,P|344:216|400:208,2,100
160,208,16332,5,0,0:0:0:0:
272,288,16499,2,0,P|312:272|352:240,1,50
432,160,16832,2,0,P|368:168|336:176,1,50
240,136,17166,2,0,L|288:104,1,50
296,248,17499,2,0,L|208:232,1,50
160,184,17832,2,0,L|104:240,1,75.0000028610231
176,88,18166,2,0,L|120:88|64:88,2,100
288,96,19166,2,0,L|392:96,2,100
192,168,20166,6,0,L|144:208,2,50
288,112,20666,1,0,0:0:0:0:
256,248,20832,1,0,0:0:0:0:
160,144,20999,2,0,L|184:216,1,50
256,288,21332,1,0,0:0:0:0:
352,240,21499,2,0,B|400:200|400:200|416:152,2,100
144,160,22499,5,0,0:0:0:0:
144,160,22832,2,0,P|112:104|80:80,2,100
152,280,23832,1,0,0:0:0:0:
337,226,24166,2,0,P|414:203|432:205,1,100
208,136,24666,1,0,0:0:0:0:
208,136,24832,2,0,P|113:102|108:96,1,100
304,224,25332,1,0,0:0:0:0:
304,224,25499,6,0,P|400:216|440:224,1,100
248,88,25999,1,0,0:0:0:0:
248,88,26166,2,0,P|144:64|136:56,1,100
232,224,26832,1,0,0:0:0:0:
232,224,27166,2,0,P|280:160|296:152,1,75.0000028610231
208,136,27499,2,0,P|304:136|320:144,1,87.500000834465
280,88,27832,6,0,P|328:192|328:200,1,100
336,128,28166,2,0,P|256:224|224:232,1,100
328,224,28499,2,0,P|264:232|224:232,1,87.500000834465
104,168,28832,1,0,0:0:0:0:
152,88,28999,1,0,0:0:0:0:
216,168,29166,1,0,0:0:0:0:
264,88,29332,1,0,0:0:0:0:
320,176,29499,2,0,P|384:256|384:264,2,100
185,271,30499,1,0,0:0:0:0:
176,112,30832,2,0,P|128:56|104:48,2,100
296,152,31832,5,0,0:0:0:0:
296,152,32166,2,0,B|344:152|344:152|384:104,2,100
200,144,33166,1,0,0:0:0:0:
336,248,33499,1,0,0:0:0:0:
168,264,33832,1,0,0:0:0:0:
104,192,34166,2,0,P|92:159|112:96,1,100
304,176,34832,1,0,0:0:0:0:
328,272,35166,1,0,0:0:0:0:
128,40,35499,6,0,P|72:80|64:128,1,100
63,107,35832,1,0,0:0:0:0:
173,260,35999,2,0,P|204:221|224:176,1,100
224,175,36332,1,0,0:0:0:0:
280,104,36499,2,0,P|304:72|360:40,2,100
384,176,37499,6,0,P|336:232|304:256,1,100
168,208,38166,1,0,0:0:0:0:
232,96,38499,1,0,0:0:0:0:
324,129,38832,6,0,P|231:95|215:95,1,100
128,192,39499,2,0,P|165:224|213:239,1,100
296,208,40166,1,0,0:0:0:0:
336,112,40499,1,0,0:0:0:0:
216,88,40832,1,0,0:0:0:0:
112,144,42832,5,0,0:0:0:0:
320,232,43166,1,0,0:0:0:0:
304,112,43499,2,0,L|416:64,2,100
144,216,44499,1,0,0:0:0:0:
240,128,44832,2,0,L|283:152,1,50
359,200,45166,1,0,0:0:0:0:
232,256,45499,2,0,P|208:296|152:312,1,100
272,48,46166,6,0,B|320:72|320:72|328:144,1,115.000002193451
244,184,46832,1,0,0:0:0:0:
160,236,47166,2,0,B|118:272|118:272|144:349,2,115.000002193451
296,280,48166,2,0,L|360:280,1,57.5000010967255
264,200,48499,2,0,L|192:216,1,57.5000010967255
288,128,48832,2,0,L|352:160,2,57.5000010967255
192,176,49332,5,0,0:0:0:0:
192,176,49499,2,0,L|152:224,2,57.5000010967255
184,96,49999,1,0,0:0:0:0:
184,96,50166,2,0,P|142:121|120:184,1,115.000002193451
167,307,50832,2,0,P|216:275|282:271,1,115.000002193451
380,270,51499,5,0,0:0:0:0:
305,173,51832,1,0,0:0:0:0:
162,167,52166,1,0,0:0:0:0:
232,88,52499,2,0,P|274:65|328:64,2,100
344,248,53499,5,0,0:0:0:0:
416,184,53832,1,0,0:0:0:0:
428,87,54166,2,0,P|404:199|388:215,1,100
304,128,54832,6,0,P|232:88|176:80,2,100
193,226,55832,1,0,0:0:0:0:
304,280,56166,2,0,P|360:288|400:272,1,100
224,104,56832,6,0,L|176:72,1,50
376,128,57166,2,0,L|440:128,1,50
265,179,57499,2,0,L|241:243,1,50
320,72,57832,2,0,P|345:49|416:32,2,100
376,136,58832,2,0,P|424:192|440:232,2,100
296,80,59832,1,0,0:0:0:0:
199,62,60166,1,0,0:0:0:0:
113,110,60499,1,0,0:0:0:0:
62,191,60832,2,0,P|54:271|78:327,1,100
160,224,61499,2,0,P|168:143|143:87,1,100
256,32,62166,5,0,0:0:0:0:
176,112,62499,1,0,0:0:0:0:
288,168,62832,1,0,0:0:0:0:
224,304,63166,1,0,0:0:0:0:
224,304,63499,2,0,P|264:320|336:328,1,100
320,208,64166,6,0,B|275:174|256:152|216:152,2,100
320,208,65166,6,0,B|364:241|384:264|424:264,2,100
208,248,66166,1,0,0:0:0:0:
264,96,66499,1,0,0:0:0:0:
120,120,66832,2,0,P|176:160|216:168,1,100
336,208,67499,5,0,0:0:0:0:
312,72,67832,1,0,0:0:0:0:
312,72,68166,5,0,0:0:0:0:
176,96,68499,1,0,0:0:0:0:
176,96,68832,5,0,0:0:0:0:
200,232,69166,1,0,0:0:0:0:
200,232,69499,2,0,B|160:248|160:248|96:248,2,100
288,176,70499,1,0,0:0:0:0:
392,144,70832,2,0,B|392:192|392:192|376:248,1,100
240,88,71499,5,0,0:0:0:0:
144,176,71832,1,0,0:0:0:0:
240,280,72166,2,0,P|312:208|320:176,1,100
360,56,72832,2,0,B|336:56|278:96|248:96,1,100
192,96,73499,1,0,0:0:0:0:
152,168,73832,2,0,B|176:168|233:208|264:208,1,100
320,208,74499,1,0,0:0:0:0:
319,207,74832,2,0,P|365:189|398:152,2,100
176,128,75832,5,0,0:0:0:0:
312,200,76166,2,0,B|328:144|328:144|296:80,1,100
202,106,76832,2,0,B|184:144|184:144|200:200,1,100
328,272,77499,1,0,0:0:0:0:
352,160,77832,1,0,0:0:0:0:
240,88,78166,2,0,P|199:92|132:118,1,62.5
240,88,78499,2,0,P|205:109|155:161,1,62.5
240,88,78832,2,0,P|217:121|194:189,1,62.5
240,88,79166,2,0,P|230:127|232:199,1,62.5
249,149,79499,2,0,P|242:119|240:88,2,62.5
320,248,80166,5,0,0:0:0:0:
232,80,80499,1,0,0:0:0:0:
160,224,80832,2,0,P|216:256|280:264,1,125
352,168,81499,1,0,0:0:0:0:
208,88,81832,1,0,0:0:0:0:
216,208,82166,2,0,P|232:280|264:336,1,125
312,224,82832,2,0,P|352:168|368:112,1,125
232,80,83499,6,0,P|168:104|136:120,1,100
152,200,84166,2,0,P|168:240|192:280,1,50
256,224,84499,2,0,P|320:248|336:248,2,50
208,152,84999,2,0,P|176:96|168:88,1,50
112,40,85499,5,0,0:0:0:0:
304,104,85832,1,0,0:0:0:0:
304,104,86166,2,0,P|336:160|344:200,1,100
343,194,86832,2,0,P|320:254|295:286,2,100
240,56,87832,1,0,0:0:0:0:
176,152,88166,1,0,0:0:0:0:
240,248,88499,1,0,0:0:0:0:
287,162,88832,2,0,P|269:211|240:248,1,100
192,162,89499,2,0,P|209:211|239:248,2,100
264,40,90499,5,0,0:0:0:0:
192,128,90832,2,0,P|240:168|280:176,1,100
336,96,91499,1,0,0:0:0:0:
128,144,91832,1,0,0:0:0:0:
275,175,92166,2,0,P|235:231|211:255,2,100
272,72,93166,1,0,0:0:0:0:
328,184,93499,1,0,0:0:0:0:
160,144,93832,2,0,P|104:208|96:232,2,100
242,109,94832,5,0,0:0:0:0:
340,107,95166,1,0,0:0:0:0:
426,157,95499,2,0,P|464:224|464:256,1,100
312,144,96166,1,0,0:0:0:0:
216,170,96499,1,0,0:0:0:0:
135,228,96832,2,0,P|80:288|64:328,1,100
192,272,97499,5,0,0:0:0:0:
288,192,97832,1,0,0:0:0:0:
209,129,98166,2,0,P|252:156|287:191,1,100
287,191,98832,2,0,P|302:143|305:93,2,100
176,176,99832,1,0,0:0:0:0:
328,232,100166,1,0,0:0:0:0:
160,104,100499,1,0,0:0:0:0:
264,296,100832,2,0,P|304:232|312:200,1,100
280,80,101499,6,0,P|200:120|184:136,1,100
112,224,102166,1,0,0:0:0:0:
248,216,102499,1,0,0:0:0:0:
331,161,102832,2,0,P|254:213|219:225,2,100
331,161,103832,2,0,P|355:217|384:248,2,100
200,96,104832,1,0,0:0:0:0:
200,96,105166,2,0,P|112:64|64:56,2,100
320,168,106166,5,0,0:0:0:0:
168,240,106499,1,0,0:0:0:0:
224,104,106832,2,0,B|256:48|256:48|320:48,1,100
376,48,107499,2,0,B|344:104|344:104|280:104,1,100
184,64,108166,1,0,0:0:0:0:
216,248,108499,1,0,0:0:0:0:
104,152,108832,2,0,P|168:160|216:176,1,100
296,232,109499,2,0,P|328:184|344:144,2,100
152,272,110499,5,0,0:0:0:0:
183,177,110832,1,0,0:0:0:0:
246,101,111166,2,0,P|304:64|336:48,1,100
384,144,111832,1,0,0:0:0:0:
240,176,112166,2,0,P|288:224|320:240,1,100
316,238,112832,1,0,0:0:0:0:
296,64,113166,1,0,0:0:0:0:
176,128,113499,1,0,0:0:0:0:
176,128,113832,2,0,P|192:184|232:216,2,100
192,48,114832,6,0,P|264:80|288:120,1,100
272,208,115499,2,0,P|176:256|160:248,1,100
195,260,116166,1,0,0:0:0:0:
128,192,116499,2,0,P|88:152|56:112,2,100
256,272,117499,1,0,0:0:0:0:
320,152,117832,1,0,0:0:0:0:
320,152,118166,2,0,P|368:128|424:88,1,100
320,152,118832,2,0,P|368:184|408:200,2,100
208,88,119832,5,0,0:0:0:0:
288,184,120166,1,0,0:0:0:0:
176,224,120499,2,0,P|216:264|280:296,2,100
112,104,121499,1,0,0:0:0:0:
176,224,121832,1,0,0:0:0:0:
216,136,122166,2,0,P|264:88|296:72,1,100
304,176,122832,2,0,P|288:232|264:272,1,100
192,224,123499,5,0,0:0:0:0:
304,192,123832,1,0,0:0:0:0:
320,56,124166,5,0,0:0:0:0:
208,87,124499,1,0,0:0:0:0:
320,56,124832,5,0,0:0:0:0:
352,168,125166,1,0,0:0:0:0:
320,56,125499,5,0,0:0:0:0:
248,160,125832,2,0,L|176:264,2,100
368,96,126832,1,0,0:0:0:0:
368,96,127166,2,0,P|376:160|376:200,1,100
272,200,127832,1,0,0:0:0:0:
272,200,128166,2,0,P|320:224|360:256,2,100
152,128,129166,1,0,0:0:0:0:
152,128,129499,2,0,P|112:88|88:48,1,100
208,48,130166,5,0,0:0:0:0:
328,96,130499,1,0,0:0:0:0:
252,158,130832,2,0,P|324:102|340:70,1,100
327,95,131499,2,0,P|331:145|318:193,2,100
224,64,132499,1,0,0:0:0:0:
288,248,132832,1,0,0:0:0:0:
408,208,133166,1,0,0:0:0:0:
136,176,133499,2,0,P|90:156|53:122,2,100
232,96,134499,5,0,0:0:0:0:
112,216,134832,1,0,0:0:0:0:
224,320,135166,1,0,0:0:0:0:
224,320,135499,2,0,P|280:288|312:256,1,100
344,176,136166,1,0,0:0:0:0:
344,176,136499,1,0,0:0:0:0:
240,160,136832,2,0,B|208:160|168:120|144:120,1,100
120,208,137499,1,0,0:0:0:0:
208,256,137832,2,0,B|240:256|280:296|304:296,2,100
160,168,138832,6,0,P|224:128|248:120,2,100
96,288,139832,1,0,0:0:0:0:
272,264,140166,2,0,P|320:248|352:208,1,100
376,80,140832,2,0,P|340:88|284:128,1,100,0|0,0:1|0:1,0:1:0:0:
200,216,141499,2,0,P|256:240|320:240,1,100
336,160,142166,1,0,0:0:0:0:
208,96,142499,2,0,P|184:152|192:192,1,100
296,216,143166,1,0,0:0:0:0:
312,104,143499,2,0,P|264:88|208:96,1,100
128,152,144166,5,0,0:0:0:0:
272,112,144499,1,0,0:0:0:0:
136,264,144832,2,0,P|209:259|248:248,1,100
176,224,145499,2,0,P|220:245|256:280,1,100
192,296,146166,2,0,P|238:277|279:248,1,100
336,176,146832,2,0,P|264:128|240:120,1,100
160,232,147499,1,0,0:0:0:0:
280,96,147832,1,0,0:0:0:0:
342,201,148166,1,0,0:0:0:0:
264,256,148499,2,0,P|320:232|344:200,2,100
152,248,149499,6,0,P|104:208|88:176,1,100
144,64,150166,1,0,0:0:0:0:
248,128,150499,1,0,0:0:0:0:
192,240,150832,2,0,B|248:264|248:264|296:264,1,100
304,176,151499,1,0,0:0:0:0:
280,80,151832,2,0,B|232:120|232:120|216:168,2,100
220,155,152832,5,0,0:0:0:0:
192,240,153166,2,0,B|240:240|240:240|296:216,1,100
352,136,153832,1,0,0:0:0:0:
360,232,154166,2,0,B|344:280|344:280|296:312,1,100
168,128,154832,1,0,0:0:0:0:
232,216,155166,1,0,0:0:0:0:
209,307,155499,2,0,B|168:280|168:280|152:232,3,100
152,120,156832,2,0,B|200:144|200:144|224:192,1,100
256,264,157499,2,0,B|296:240|296:240|320:192,1,100
216,56,158166,5,0,0:0:0:0:
152,128,158499,2,0,B|184:168|184:168|240:168,1,100
304,152,159166,2,0,B|312:200|312:200|280:240,2,100
208,144,160166,1,0,0:0:0:0:
214,163,160499,1,0,0:0:0:0:
224,184,160832,2,0,B|264:208|264:208|312:168,1,100
376,112,161499,1,0,0:0:0:0:
360,136,161832,1,0,0:0:0:0:
344,160,162166,2,0,B|304:192|304:192|248:200,1,100
192,104,162832,6,0,B|160:144|160:144|144:200,1,100
184,272,163499,1,0,0:0:0:0:
264,288,163832,2,0,L|320:320,2,50
240,176,164499,2,0,B|264:120|264:120|312:104,2,100
240,264,165499,2,0,P|328:240|360:208,1,100
336,96,166166,1,0,0:0:0:0:
208,136,166499,2,0,L|104:208,2,100
272,96,167499,2,0,B|296:136|296:136|352:144,1,100
348,223,168166,2,0,B|296:216|296:216|272:176,1,100
128,144,168832,5,0,0:0:0:0:
144,168,169166,1,0,0:0:0:0:
168,192,169499,2,0,B|200:224|200:224|264:224,2,100
168,56,170499,5,0,0:0:0:0:
288,96,170832,2,0,B|248:128|248:128|232:176,1,100
328,208,171499,1,0,0:0:0:0:
296,80,171832,1,0,0:0:0:0:
160,112,172166,2,0,L|56:144,2,100
152,232,173166,1,0,0:0:0:0:
280,104,173499,1,0,0:0:0:0:
240,208,173832,2,0,B|264:264|264:264|312:288,2,100
256,128,174832,6,0,L|336:48,2,100
176,208,175832,1,0,0:0:0:0:
296,224,176166,1,0,0:0:0:0:
344,120,176499,1,0,0:0:0:0:
216,144,176832,1,0,0:0:0:0:
272,248,177166,1,0,0:0:0:0:
104,264,177499,2,0,L|160:208,1,50
176,224,177832,2,0,L|184:160,1,50
216,152,178166,2,0,L|184:88,1,50
136,48,178499,5,0,0:0:0:0:
88,184,178832,1,0,0:0:0:0:
200,240,179166,1,0,0:0:0:0:
272,144,179499,2,0,P|312:112|368:96,1,100
464,144,180166,1,0,0:0:0:0:
392,240,180499,1,0,0:0:0:0:
280,288,180832,2,0,B|232:304|232:304|184:288,1,100
160,176,181499,5,0,0:0:0:0:
169,167,181832,1,0,0:0:0:0:
187,157,182166,2,0,P|243:117|275:101,1,100
344,104,182832,2,0,B|400:120|400:120|432:168,2,100
248,104,183832,1,0,0:0:0:0:
216,224,184166,1,0,0:0:0:0:
152,136,184499,1,0,0:0:0:0:
288,136,184832,2,0,L|320:184,1,50
296,223,185166,2,0,L|320:167,1,50
365,177,185499,2,0,L|309:177,1,50
168,216,185832,5,0,0:0:0:0:
232,80,185999,1,0,0:0:0:0:
315,177,186166,1,0,0:0:0:0:
248,264,186499,1,0,0:0:0:0:
248,264,186832,2,0,P|192:216|184:192,2,100
320,208,187832,6,0,L|280:168,1,50
240,104,188166,2,0,L|320:104,1,50
368,104,188499,2,0,L|320:184,1,50
288,240,188832,1,0,0:0:0:0:
144,112,189166,1,0,0:0:0:0:
144,112,189499,2,0,P|208:120|264:144,2,100
144,256,190499,5,0,0:0:0:0:
323,245,190832,2,0,B|341:193|341:193|325:138,1,100
244,74,191332,1,0,0:0:0:0:
224,192,191666,1,0,0:0:0:0:
236,213,191832,1,0,0:0:0:0:
254,230,191999,1,0,0:0:0:0:
276,241,192166,2,0,B|324:233|324:233|364:169,1,100
368,88,192832,5,0,0:0:0:0:
248,128,193166,1,0,0:0:0:0:
143,76,193499,1,0,0:0:0:0:
248,128,193832,2,0,P|216:184|176:224,2,100
160,56,194832,1,0,0:0:0:0:
128,248,195166,1,0,0:0:0:0:
344,216,195499,6,0,L|288:240,1,50
296,152,195832,2,0,L|280:216,1,50
216,136,196166,2,0,L|272:200,1,50
152,176,196499,2,0,L|216:184,1,50
336,200,196832,1,0,0:0:0:0:
192,256,197166,5,0,0:0:0:0:
272,112,197499,1,0,0:0:0:0:
368,176,197832,1,0,0:0:0:0:
144,184,198166,2,0,L|192:232,1,50
192,120,198499,2,0,L|192:176,1,50
264,112,198832,2,0,L|224:160,1,50
320,160,199166,2,0,L|264:168,1,50
128,184,199499,1,0,0:0:0:0:
264,240,199832,1,0,0:0:0:0:
304,168,200166,5,0,0:0:0:0:
224,160,200499,1,0,0:0:0:0:
224,160,200832,2,0,L|112:152,1,100
104,264,201499,1,0,0:0:0:0:
256,192,201832,1,0,0:0:0:0:
408,120,202166,1,0,0:0:0:0:
256,72,202499,1,0,0:0:0:0:
256,232,202832,2,0,B|220:208|220:208|188:160,1,100
96,48,203499,6,0,B|152:56|152:56|176:92,1,100
128,256,204166,1,0,0:0:0:0:
232,112,204499,1,0,0:0:0:0:
280,224,204832,1,0,0:0:0:0:
281,226,205166,1,0,0:0:0:0:
152,208,205499,1,0,0:0:0:0:
328,144,205832,1,0,0:0:0:0:
326,147,206166,1,0,0:0:0:0:
160,272,206499,6,0,L|208:320,1,50
232,280,206832,2,0,L|296:296,1,50
288,248,207166,2,0,L|328:216,1,50
288,192,207499,2,0,L|304:144,1,50
256,320,207832,1,0,0:0:0:0:
144,216,208166,1,0,0:0:0:0:
328,144,208499,1,0,0:0:0:0:
144,80,208832,5,0,0:0:0:0:
136,168,209166,2,0,L|184:184,1,50
232,136,209499,2,0,L|272:184,1,50
328,152,209832,2,0,L|328:216,1,50
384,232,210166,2,0,L|336:288,1,50
176,216,210499,1,0,0:0:0:0:
376,152,210832,1,0,0:0:0:0:
208,64,211166,1,0,0:0:0:0:
304,280,211499,1,0,0:0:0:0:
