osu file format v14

[General]
AudioFilename: Adventure Time - Bird Song.mp3
AudioLeadIn: 0
PreviewTime: -1
Countdown: 1
SampleSet: None
StackLeniency: 0.7
Mode: 2
LetterboxInBreaks: 1
WidescreenStoryboard: 1

[Editor]
DistanceSpacing: 1
BeatDivisor: 1
GridSize: 8
TimelineZoom: 1

[Metadata]
Title:Bird Song
TitleUnicode:Bird Song
Artist:Adventure time
ArtistUnicode:Adventure time
Creator:Derp
Version:Easy
Source:
Tags:
BeatmapID:731210
BeatmapSetID:329809

[Difficulty]
HPDrainRate:2.9
CircleSize:3.9
OverallDifficulty:4
ApproachRate:5.7
SliderMultiplier:1.4
SliderTickRate:1

[Events]
//Background and Video events
0,0,"Baby_Birds_TCAWH.png",0,0
//Break Periods
//Storyboard Layer 0 (Background)
//Storyboard Layer 1 (Fail)
//Storyboard Layer 2 (Pass)
//Storyboard Layer 3 (Foreground)
//Storyboard Sound Samples

[TimingPoints]
2769.44665445777,230.423595376167,4,1,0,100,1,0

[Colours]
Combo1 : 255,128,64
Combo2 : 255,128,192
Combo3 : 255,255,0

[HitObjects]
48,336,2769,5,0,0:0:0:0:
64,320,2999,1,0,0:0:0:0:
80,304,3230,1,0,0:0:0:0:
104,280,3460,1,0,0:0:0:0:
128,256,3691,1,0,0:0:0:0:
144,232,3921,1,0,0:0:0:0:
160,200,4151,1,0,0:0:0:0:
176,160,4382,1,0,0:0:0:0:
256,192,4612,12,0,5534,0:0:0:0:
456,32,5995,5,0,0:0:0:0:
424,56,6225,1,0,0:0:0:0:
384,88,6456,1,0,0:0:0:0:
352,120,6686,1,0,0:0:0:0:
312,152,6917,1,0,0:0:0:0:
264,192,7147,1,0,0:0:0:0:
224,240,7377,1,0,0:0:0:0:
184,272,7608,1,0,0:0:0:0:
144,312,7838,1,0,0:0:0:0:
256,192,8069,12,0,8990,0:0:0:0:
128,160,9451,5,0,0:0:0:0:
160,120,9682,1,0,0:0:0:0:
192,80,9912,1,0,0:0:0:0:
224,32,10143,1,0,0:0:0:0:
408,264,10603,1,0,0:0:0:0:
368,216,10834,1,0,0:0:0:0:
328,176,11064,1,0,0:0:0:0:
288,128,11295,1,0,0:0:0:0:
248,80,11525,5,0,0:0:0:0:
136,336,11755,1,0,0:0:0:0:
80,144,11986,1,0,0:0:0:0:
32,320,12216,1,0,0:0:0:0:
80,72,12447,1,0,0:0:0:0:
152,80,12677,1,0,0:0:0:0:
216,208,12908,1,0,0:0:0:0:
336,48,13138,1,0,0:0:0:0:
376,120,13368,5,0,0:0:0:0:
424,48,13599,1,0,0:0:0:0:
456,128,13829,1,0,0:0:0:0:
376,120,14060,1,0,0:0:0:0:
296,120,14290,1,0,0:0:0:0:
224,184,14521,1,0,0:0:0:0:
176,216,14751,1,0,0:0:0:0:
128,256,14981,1,0,0:0:0:0:
96,192,15212,5,0,0:0:0:0:
152,152,15442,1,0,0:0:0:0:
208,120,15673,1,0,0:0:0:0:
264,88,15903,1,0,0:0:0:0:
368,120,16134,1,0,0:0:0:0:
400,240,16364,1,0,0:0:0:0:
336,288,16594,1,0,0:0:0:0:
256,344,16825,1,0,0:0:0:0:
168,304,17055,5,0,0:0:0:0:
96,232,17286,1,0,0:0:0:0:
40,160,17516,1,0,0:0:0:0:
200,208,17746,1,0,0:0:0:0:
272,184,17977,1,0,0:0:0:0:
288,72,18207,1,0,0:0:0:0:
352,160,18438,1,0,0:0:0:0:
448,32,18668,2,0,L|-64:352,1,560
