osu file format v14

[General]
AudioFilename: Adventure Time - Bird Song.mp3
AudioLeadIn: 0
PreviewTime: -1
Countdown: 1
SampleSet: Normal
StackLeniency: 0.7
Mode: 2
LetterboxInBreaks: 1
WidescreenStoryboard: 0

[Editor]
DistanceSpacing: 1
BeatDivisor: 1
GridSize: 8
TimelineZoom: 1

[Metadata]
Title:Bird Song
TitleUnicode:Bird Song
Artist:Adventure time
ArtistUnicode:Adventure time
Creator:Derp
Version:Auto-Bird
Source:
Tags:
BeatmapID:731186
BeatmapSetID:329809

[Difficulty]
HPDrainRate:8
CircleSize:4.6
OverallDifficulty:6.6
ApproachRate:5.9
SliderMultiplier:1.4
SliderTickRate:1

[Events]
//Background and Video events
0,0,"TBbjBU1.jpg",0,0
//Break Periods
//Storyboard Layer 0 (Background)
//Storyboard Layer 1 (Fail)
//Storyboard Layer 2 (Pass)
//Storyboard Layer 3 (Foreground)
//Storyboard Sound Samples

[TimingPoints]
2769.44665445777,230.423595376167,4,1,0,100,1,0

[Colours]
Combo1 : 0,64,0
Combo2 : 0,255,64
Combo3 : 0,255,0

[HitObjects]
160,48,2078,6,0,L|328:56,2,140
40,48,2769,5,0,0:0:0:0:
280,352,2999,1,0,0:0:0:0:
128,184,3230,1,0,0:0:0:0:
344,112,3460,1,0,0:0:0:0:
184,296,3691,1,0,0:0:0:0:
392,240,3921,1,0,0:0:0:0:
280,176,4151,1,0,0:0:0:0:
248,352,4382,6,0,P|72:112|392:112,1,700
480,256,5995,1,0,0:0:0:0:
440,232,6225,1,0,0:0:0:0:
400,208,6456,1,0,0:0:0:0:
272,312,6686,1,0,0:0:0:0:
224,272,6917,1,0,0:0:0:0:
184,232,7147,1,0,0:0:0:0:
304,48,7377,1,0,0:0:0:0:
136,72,7608,5,0,0:0:0:0:
88,56,7838,1,0,0:0:0:0:
48,72,8069,2,0,P|120:352|392:96,1,700
32,176,9682,1,0,0:0:0:0:
120,88,9912,1,8,0:0:0:0:
192,192,10143,1,0,0:0:0:0:
272,96,10373,1,0,0:0:0:0:
456,288,10603,1,8,0:0:0:0:
376,192,10834,1,0,0:0:0:0:
296,288,11064,5,0,0:0:0:0:
40,288,11295,1,0,0:0:0:0:
120,176,11525,1,0,0:0:0:0:
192,288,11755,1,0,0:0:0:0:
200,24,11986,1,0,0:0:0:0:
232,72,12216,1,0,0:0:0:0:
272,112,12447,1,0,0:0:0:0:
360,272,12677,1,0,0:0:0:0:
472,232,12908,5,0,0:0:0:0:
312,160,13138,1,0,0:0:0:0:
448,56,13368,1,0,0:0:0:0:
264,312,13599,1,0,0:0:0:0:
192,240,13829,1,0,0:0:0:0:
152,200,14060,1,0,0:0:0:0:
112,160,14290,1,0,0:0:0:0:
48,336,14521,1,0,0:0:0:0:
192,240,14751,5,0,0:0:0:0:
224,208,14981,1,0,0:0:0:0:
256,168,15212,1,0,0:0:0:0:
312,304,15442,1,0,0:0:0:0:
384,208,15673,1,0,0:0:0:0:
456,336,15903,1,0,0:0:0:0:
480,112,16134,1,0,0:0:0:0:
128,328,16364,5,0,0:0:0:0:
64,184,16594,1,0,0:0:0:0:
240,72,16825,1,0,0:0:0:0:
456,280,17055,1,0,0:0:0:0:
320,208,17286,1,0,0:0:0:0:
144,56,17516,1,0,0:0:0:0:
112,232,17746,1,0,0:0:0:0:
216,152,17977,1,0,0:0:0:0:
280,152,18207,1,0,0:0:0:0:
328,152,18438,1,0,0:0:0:0:
480,32,18668,2,0,B|472:216|64:72|208:320|480:272|208:32|32:80|24:352|352:336|496:208|88:8,1,700
