osu file format v9

[General]
AudioFilename: Adrian Barba - Angeles Fuimos.mp3
AudioLeadIn: 2000
PreviewTime: 15335
Countdown: 0
SampleSet: Normal
StackLeniency: 0.7
Mode: 0
LetterboxInBreaks: 1

[Editor]
Bookmarks: 34651,52368,59662
DistanceSpacing: 1.1
BeatDivisor: 8
GridSize: 8

[Metadata]
Title:Angeles Fuimos
Artist:Adrian Barba
Creator:Lizbeth
Version:Insane
Source:Dragon Ball Z
Tags:Lissette KenezzEdward Kenezz Ending Bokutachi Wa Tenshi Datta We Were Angels DBZ

[Difficulty]
HPDrainRate:7
CircleSize:5
OverallDifficulty:7
ApproachRate:7
SliderMultiplier:1.8
SliderTickRate:1

[Events]
//Background and Video events
Video,-1502,"Dragon Ball Z Ending 2.flv"
0,0,"BG.jpg"
//Break Periods
//Storyboard Layer 0 (Background)
//Storyboard Layer 1 (Fail)
//Storyboard Layer 2 (Pass)
//Storyboard Layer 3 (Foreground)
//Storyboard Sound Samples
//Background Colour Transformations
3,100,163,162,255

[TimingPoints]
502,813.559322033898,4,1,0,30,1,0
906,-100,4,1,0,30,0,0
1922,-100,4,1,0,30,0,0
2533,-100,4,1,0,30,0,0
3548,-100,4,1,0,30,0,0
4159,-100,4,1,0,30,0,0
5175,-100,4,1,0,30,0,0
5583,-100,4,1,0,30,0,0
6802,-100,4,1,0,30,0,0
7413,-100,4,1,0,30,0,0
8428,-100,4,1,0,30,0,0
9039,-100,4,1,0,30,0,0
10055,-100,4,1,0,30,0,0
10666,-100,4,1,0,30,0,0
13512,-100,4,1,0,20,0,0
13817,-100,4,1,0,24,0,0
14020,-100,4,1,0,30,0,0
14223,-100,4,1,0,34,0,0
14427,-100,4,1,0,40,0,0
14630,-100,4,1,0,44,0,0
14833,-100,4,1,0,55,0,0
15138,-50,4,1,0,30,0,0
61702,-100,4,1,0,30,0,0
62313,-50,4,1,0,30,0,0
74715,-100,4,1,0,30,0,0
75326,-50,4,1,0,30,0,0
81629,-100,4,1,0,30,0,0
82240,-100,4,1,0,30,0,0
83255,-100,4,1,0,30,0,0
83866,-100,4,1,0,30,0,0
84882,-100,4,1,0,30,0,0
85493,-100,4,1,0,30,0,0
88339,-100,4,1,0,20,0,0
88644,-100,4,1,0,25,0,0
88847,-100,4,1,0,30,0,0
89050,-100,4,1,0,34,0,0
89254,-100,4,1,0,40,0,0
89457,-100,4,1,0,44,0,0
89660,-100,4,1,0,50,0,0

[Colours]
Combo1 : 0,151,0
Combo2 : 255,138,21
Combo3 : 0,128,255
Combo4 : 255,255,0

[HitObjects]
256,40,95,1,0
256,40,298,2,0,B|80:40,1,135,4|0
256,184,1315,1,0
256,344,1722,1,0
256,344,1925,2,0,B|416:344,1,135,4|0
256,184,2942,1,0
120,344,3349,5,0
120,344,3552,2,0,B|120:264|48:208,1,135,4|0
256,184,4569,1,0
392,344,4976,1,0
392,344,5179,2,0,B|400:280|464:256,1,90,4|0
360,192,5790,5,0
256,280,5993,1,0
272,144,6196,1,0
168,224,6400,1,0
184,96,6603,5,0
184,96,6807,2,0,B|16:96,1,135,4|0
256,200,7824,1,0
328,96,8230,1,0
328,96,8434,2,0,B|496:96,1,135,4|0
256,200,9451,1,0
328,352,9857,1,0
328,352,10061,2,0,B|168:352,1,135,4|0
256,200,11078,1,0
256,200,11485,1,0
256,200,11688,1,4
256,192,11891,12,0,13315
256,352,13722,5,0
304,272,13925,1,0
208,272,14129,1,0
328,192,14332,1,0
184,192,14535,1,0
360,112,14739,1,0
152,112,14942,1,4
480,336,15552,5,8
456,240,15756,1,0
432,144,15959,2,0,B|360:144|320:216|368:320,1,180,0|8
256,280,16569,1,4
32,56,16976,5,0
56,144,17179,1,8
80,232,17383,1,0
104,328,17586,2,0,B|168:328|216:264|176:168,1,180,0|8
256,280,18196,1,4
368,56,18807,5,8
408,144,19010,1,0
456,232,19213,2,0,B|408:296|320:288|256:184,1,180,0|8
210,196,19824,2,0,B|176:144|88:136|32:224,1,180,4|0
54,195,20434,5,8
176,88,20637,1,0
336,88,20840,1,0
452,194,21044,1,0
336,296,21247,1,8
176,296,21451,1,4
48,40,21857,5,0
144,40,22061,1,8
240,40,22264,1,0
240,40,22468,1,0
152,344,22874,1,8
152,344,23078,1,4
464,344,23485,5,0
368,320,23688,1,8
272,344,23891,1,0
272,344,24095,1,0
360,40,24501,1,8
360,40,24705,1,4
136,200,25315,6,0,B|192:160|192:72|88:8,2,180,8|0|8
72,120,26332,2,0,B|16:160|16:248|104:312,1,180,4|0
168,288,26942,2,0,B|392:288,1,180,8|0
392,200,27552,2,0,B|88:200,1,270
72,120,28366,5,0
96,24,28569,1,8
168,88,28773,2,0,B|368:88,1,180
424,24,29383,2,0,B|488:168,1,90,8|0
408,192,29790,2,0,B|336:192|288:256|304:320,1,180,0|8
210,310,30400,2,0,B|224:256|176:192|96:192,1,180
106,192,31010,1,8
256,64,31417,1,0
256,64,31620,2,0,B|256:192,1,90,0|8
432,240,32230,6,0,B|432:312|384:368|248:344,1,180,0|8
256,272,32840,1,0
256,272,33044,2,0,B|264:160|248:208|256:40,1,180,0|8
192,37,33654,2,0,B|126:25|74:68|80:144,1,180,0|0
79,140,34264,1,8
79,140,34468,1,4
456,336,35078,5,8
488,240,35281,1,0
392,248,35485,1,0
416,152,35688,1,0
320,184,35891,1,8
336,88,36095,2,0,B|256:24|144:104,1,180,0|0
232,168,36705,2,0,B|136:240|24:136,2,180,8|0|8
256,264,37722,2,0,B|352:192|464:288,1,180
440,160,38332,5,8
408,64,38535,1,0
336,128,38739,2,0,B|112:128,1,180,0|8
112,216,39349,2,0,B|416:216,1,270,0|8
392,312,40163,5,0
352,344,40264,1,0
304,344,40366,1,0
208,288,40569,1,0
320,240,40773,1,0
152,160,40976,1,0
368,80,41179,1,0
368,80,41383,1,0
368,80,41586,1,12
248,344,41993,6,0,B|168:360|120:312|128:208,1,180,0|8
256,192,42603,1,0
264,40,42807,2,0,B|344:24|392:72|376:160,2,180,0|8|0
256,192,43824,2,0,B|256:296,1,90,0|8
104,344,44434,6,0,B|48:304|48:232|104:168,1,180,0|8
166,257,45044,2,0,B|217:212|210:140|136:72,1,180,0|0
256,40,45654,1,8
352,99,45857,2,0,B|301:140|294:212|360:264,2,180
352,99,46874,1,0
256,40,47078,1,0
224,136,47281,1,8
256,232,47485,1,0
224,328,47688,6,0,B|32:328,2,180,4|8|0
352,192,48908,1,8
280,120,49112,1,0
224,40,49315,2,0,B|416:40,2,180,4|8|0
256,352,50535,1,8
256,256,50739,1,0
256,232,50840,1,0
256,208,50942,1,4
256,40,51349,5,4
160,344,51959,1,4
352,344,52366,1,4
408,120,52773,5,0
312,120,52976,1,0
216,120,53179,1,0
120,120,53383,5,0
56,48,53586,1,0
8,136,53790,1,0
80,208,53993,2,0,B|56:280|96:336|176:344,1,180,4|0
256,312,54603,1,8
256,312,54705,1,0
256,312,54807,1,0
352,344,55010,1,0
392,328,55112,1,0
424,296,55213,1,0
440,256,55315,1,0
432,208,55417,1,8
496,136,55620,6,0,B|512:24|416:0|336:24|336:136,1,270,4|8
256,48,56434,1,0
256,144,56637,1,0
256,240,56840,1,0
256,336,57044,1,8
172,281,57247,2,0,B|176:360|96:384|0:360|16:240,1,270,0|8
96,56,58264,6,0,B|88:152|104:96|96:248,1,180,0|8
205,233,58874,2,0,B|197:149|324:147|304:248,1,180
416,232,59485,1,8
416,232,59688,2,0,B|424:136|408:192|416:32,1,180
328,80,60298,1,8
328,80,60501,2,0,B|340:206|148:209|176:48,1,270,0|8
256,344,61518,5,0
256,344,61722,2,0,B|96:344,1,135,4|0
352,32,62739,6,0,B|352:264,2,180,8|0|8
256,80,63756,2,0,B|256:288,1,180
168,208,64366,1,8
168,208,64569,2,0,B|168:24,1,180
64,72,65179,5,8
40,176,65383,1,0
80,280,65586,2,0,B|184:336|256:272,1,180,0|8
280,176,66196,2,0,B|360:120|448:176,2,180
312,272,67213,5,0
200,272,67417,1,0
312,272,67620,1,8
200,272,67824,1,0
120,328,68027,5,0
56,256,68230,1,0
56,160,68434,1,8
120,80,68637,2,4,B|288:88|216:64|392:80,1,270,4|12
456,160,69451,1,0
456,256,69654,1,0
392,328,69857,1,0
392,328,70061,1,8
392,328,70264,2,0,B|224:336|296:312|112:328,1,270,4|8
40,80,71281,6,0,B|112:16|232:40,1,180,0|8
160,128,71891,2,0,B|360:128,1,180
288,40,72501,1,8
384,48,72705,1,0
448,120,72908,1,0
448,216,73112,1,0
392,304,73315,1,8
392,304,73518,2,0,B|232:296|288:312|104:304,1,270,0|8
256,48,74535,5,0
256,48,74739,2,0,B|408:48,1,135,4|0
256,352,75756,6,0,B|472:352,2,180,8|0|8
352,256,76773,1,0
352,256,76976,2,0,B|128:256,1,180,0|8
112,152,77586,2,0,B|304:152,2,180
21,184,78603,6,0,B|8:112|40:64|128:56,1,180,0|8
208,56,79213,1,0
160,144,79417,2,0,B|360:144,1,180,0|8
256,352,80230,1,4
376,344,80434,1,4
464,272,80637,1,4
480,152,80840,1,4
256,352,81247,5,0
256,352,81451,1,0
256,352,81654,2,0,B|96:352,1,135,4|0
256,192,82671,1,0
256,352,83078,1,0
256,352,83281,2,0,B|400:352,1,135,4|0
256,192,84298,5,0
256,24,84705,1,0
256,24,84908,2,0,B|88:24,1,135,4|0
256,192,85925,1,0
256,24,86332,1,0
256,24,86535,1,4
256,192,86739,12,0,88163
256,40,88569,5,0
208,128,88773,1,0
304,128,88976,1,0
168,216,89179,1,0
344,216,89383,1,0
120,304,89586,1,0
392,304,89790,1,4
