osu file format v9

[General]
AudioFilename: Adrian Barba - Angeles Fuimos.mp3
AudioLeadIn: 2000
PreviewTime: 15335
Countdown: 0
SampleSet: Normal
StackLeniency: 0.7
Mode: 0
LetterboxInBreaks: 1

[Editor]
Bookmarks: 52368,56638
DistanceSpacing: 0.8
BeatDivisor: 4
GridSize: 8

[Metadata]
Title:Angeles Fuimos
Artist:Adrian Barba
Creator:Lizbeth
Version:Hard
Source:Dragon Ball Z
Tags:Lissette KenezzEdward Kenezz Ending Bokutachi Wa Tenshi Datta We Were Angels DBZ

[Difficulty]
HPDrainRate:5
CircleSize:4
OverallDifficulty:6
ApproachRate:6
SliderMultiplier:1.3
SliderTickRate:1

[Events]
//Background and Video events
Video,-1502,"Dragon Ball Z Ending 2.flv"
0,0,"BG.jpg"
//Break Periods
//Storyboard Layer 0 (Background)
//Storyboard Layer 1 (Fail)
//Storyboard Layer 2 (Pass)
//Storyboard Layer 3 (Foreground)
//Storyboard Sound Samples
//Background Colour Transformations
3,100,163,162,255

[TimingPoints]
502,813.559322033898,4,1,0,30,1,0
906,-100,4,1,0,30,0,0
1922,-100,4,1,0,30,0,0
2533,-100,4,1,0,30,0,0
3548,-100,4,1,0,30,0,0
4159,-100,4,1,0,30,0,0
5175,-100,4,1,0,30,0,0
5583,-100,4,1,0,30,0,0
6802,-100,4,1,0,30,0,0
7413,-100,4,1,0,30,0,0
8428,-100,4,1,0,30,0,0
9039,-100,4,1,0,30,0,0
10055,-100,4,1,0,30,0,0
10666,-100,4,1,0,30,0,0
13512,-100,4,1,0,20,0,0
13817,-100,4,1,0,24,0,0
14020,-100,4,1,0,30,0,0
14223,-100,4,1,0,34,0,0
14427,-100,4,1,0,40,0,0
14630,-100,4,1,0,44,0,0
14833,-100,4,1,0,55,0,0
15138,-50,4,1,0,30,0,0
61702,-100,4,1,0,30,0,0
62313,-50,4,1,0,30,0,0
74715,-100,4,1,0,30,0,0
75326,-50,4,1,0,30,0,0
89660,-100,4,1,0,50,0,0

[Colours]
Combo1 : 0,151,0
Combo2 : 255,138,21
Combo3 : 0,128,255
Combo4 : 255,255,0

[HitObjects]
88,112,95,1,0
88,112,298,2,0,B|192:112,1,97.5,4|0
256,192,1315,1,0
320,272,1722,1,0
320,272,1925,2,0,B|424:272,1,97.5,4|0
384,176,2942,5,0
304,104,3349,1,0
304,104,3552,2,0,B|200:104,1,97.5,4|0
144,184,4569,1,0
224,248,4976,1,0
224,248,5179,2,0,B|304:248,1,65,4|0
328,240,5790,5,0
352,208,5993,1,0
376,176,6196,1,0
400,144,6400,1,0
424,104,6603,1,0
424,104,6807,6,0,B|424:0,1,97.5,4|0
344,72,7824,1,0
256,128,8230,1,0
256,128,8434,2,0,B|256:232,1,97.5,4|0
160,168,9451,1,0
72,104,9857,1,0
72,104,10061,2,0,B|72:0,1,97.5,4|0
168,48,11078,1,0
256,104,11485,1,0
256,104,11688,1,4
256,192,11891,12,0,13315
256,64,13722,5,0
256,96,13925,1,0
256,128,14129,1,0
256,160,14332,1,0
256,192,14535,1,0
256,224,14739,1,0
256,256,14942,1,4
112,328,15552,6,0,B|32:304|40:192,2,130,8|0|8
112,328,16569,1,4
160,152,17179,1,8
256,120,17586,1,0
352,152,17993,1,8
352,152,18196,1,4
472,231,18807,2,0,B|480:304|392:328,4,130,8|0|8|0|8
456,208,20637,5,0
440,184,20840,1,0
424,160,21044,1,0
408,136,21247,1,0
392,112,21451,1,4
240,64,22061,6,0,B|88:64,1,130,8|0
112,168,22874,1,8
112,168,23078,1,4
272,208,23688,2,0,B|416:208,1,130,8|0
384,312,24501,1,8
384,312,24705,1,4
232,352,25315,5,8
272,256,25722,1,0
224,168,26129,1,8
224,168,26332,1,4
280,80,26739,1,0
280,80,26942,1,8
280,80,27146,1,0
280,80,27349,1,0
280,80,27552,2,0,B|400:80|440:208,1,195,4|0
384,272,28569,6,0,B|224:272,1,130,8|0
216,176,29383,2,0,B|56:176,2,130,8|0|8
240,128,30400,1,0
264,88,30603,2,0,B|400:88,2,130,0|8|0
264,88,31620,1,0
264,88,31824,1,8
184,152,32230,6,0,B|144:312,2,130,0|8|0
288,176,33451,2,0,B|248:336,1,130,8|0
360,296,34264,2,0,B|384:192,1,65,8|0
408,80,35078,6,0,B|360:16|264:56,1,130,8|0
336,144,35891,2,0,B|268:176|216:104,1,130,8|0
256,224,36705,1,8
312,312,37112,1,0
216,344,37518,2,0,B|148:376|96:304,1,130,8|0
176,240,38332,2,0,B|129:178|40:208,3,130,8|0|8|0
48,104,39959,5,8
152,104,40366,1,0
184,104,40569,1,0
216,104,40773,1,8
248,104,40976,1,0
280,104,41179,6,0,B|424:104,1,130,4|8
488,176,41993,1,0
488,280,42400,1,8
400,344,42807,2,0,B|112:344,1,260
140,344,43824,1,0
140,344,44027,1,8
112,256,44434,6,0,B|88:112,1,130,0|8
192,128,45247,2,0,B|216:272,1,130,0|8
320,256,46061,2,0,B|288:88,1,130,0|8
400,128,46874,2,0,B|432:288,2,130,0|8|0
320,56,48095,5,8
216,56,48501,1,0
112,72,48908,1,8
8,72,49315,1,0
64,160,49722,5,8
168,160,50129,1,0
264,200,50535,1,8
368,200,50942,1,0
464,288,51349,5,4
464,288,51959,1,4
464,288,52366,1,4
360,304,52773,5,0
328,304,52976,1,0
296,304,53179,1,0
264,304,53383,1,0
232,304,53586,1,0
200,304,53790,1,0
168,304,53993,2,0,B|88:304|88:208,1,130
128,192,54603,2,0,B|416:192,1,260
440,192,55620,2,0,B|504:168|472:64,1,130
432,64,56230,6,0,B|272:64,1,130,8|0
320,104,56840,1,0
336,136,57044,1,8
352,168,57247,2,0,B|128:168,1,195,0|8
88,256,58264,6,0,B|72:336|136:384,1,130,0|8
200,296,59078,2,0,B|200:152,1,130,0|8
304,216,59891,2,0,B|304:80,1,130,0|8
392,40,60705,2,0,B|448:76|432:168,2,130,0|8|0
392,40,61722,6,0,B|280:40,1,97.5,4|0
192,56,62739,6,0,B|112:56|64:128,1,130,8|0
136,192,63552,1,8
200,280,63959,1,0
256,360,64366,1,8
312,280,64773,1,0
376,192,65179,1,8
436,105,65586,2,0,B|400:56|304:56,1,130,0|8
320,56,66196,6,0,B|168:56,2,130
335,83,67213,1,0
346,109,67417,1,0
358,134,67620,1,8
370,160,67824,2,0,B|152:160,1,195,0|8
64,166,68840,6,0,B|19:225|56:304,1,130,0|8
144,240,69654,1,0
232,296,70061,1,8
232,296,70264,2,0,B|280:72,1,195,4|8
360,160,71281,1,0
464,96,71688,1,8
464,96,72095,6,0,B|497:159|464:224,1,130,0|8
328,216,72908,2,0,B|176:216,1,130,0|8
56,216,73722,2,0,B|11:157|56:96,2,130,0|8|0
56,216,74739,6,0,B|160:216,1,97.5,4|0
176,320,75756,5,8
176,320,76163,2,0,B|336:320,1,130,0|8
272,224,76976,2,0,B|416:224,2,130,0|8|0
216,136,78196,1,8
216,136,78603,2,0,B|48:136,2,130,0|8|0
256,192,79824,12,4,81654
192,88,82264,6,0,B|128:48|56:96,2,130
192,88,83281,1,4
320,176,83891,2,0,B|384:136|456:184,2,130
320,176,84908,1,4
192,272,85518,2,0,B|128:232|56:280,2,130
192,272,86535,1,4
256,192,86739,12,4,89790
