osu file format v9

[General]
AudioFilename: Adraen - Big Up Toronto.mp3
AudioLeadIn: 0
PreviewTime: 40046
Countdown: 0
SampleSet: Soft
StackLeniency: 0.8
Mode: 1
LetterboxInBreaks: 0

[Editor]
DistanceSpacing: 0.8
BeatDivisor: 4
GridSize: 8

[Metadata]
Title:Big Up Toronto
Artist:Adraen
Creator:Autonom
Version:Taiko Oni
Source:
Tags:lapfox trax Renard the grey goo scenario

[Difficulty]
HPDrainRate:7
CircleSize:5
OverallDifficulty:7
ApproachRate:5
SliderMultiplier:1.39999990463257
SliderTickRate:2

[Events]
//Background and Video events
0,0,"taikobg.jpg"
//Break Periods
//Storyboard Layer 0 (Background)
//Storyboard Layer 1 (Fail)
//Storyboard Layer 2 (Pass)
//Storyboard Layer 3 (Foreground)
//Storyboard Sound Samples
//Background Colour Transformations
3,100,163,162,255

[TimingPoints]
5141,314.465408805031,4,2,0,100,1,0
60500,314.465408805031,4,2,0,100,1,0
80639,314.547837483617,4,2,0,100,1,0
100770,-100,4,2,0,100,0,1
120586,-100,4,2,0,100,0,0
141040,314.589068029886,4,2,0,100,1,0
161173,-100,4,2,0,100,0,1
181307,-100,4,2,0,100,0,0

[Colours]
Combo1 : 0,255,0
Combo2 : 0,166,0
Combo3 : 128,255,128
Combo4 : 0,64,0

[HitObjects]
256,192,40046,1,6
256,192,40361,1,0
256,192,40518,1,0
256,192,40675,1,2
256,192,40832,1,0
256,192,40911,1,0
256,192,40990,1,2
256,192,41147,1,0
256,192,41304,1,2
256,192,41461,1,0
256,192,41776,1,2
256,192,42090,1,0
256,192,42169,1,0
256,192,42247,1,2
256,192,42405,1,0
256,192,42562,1,2
256,192,42719,1,0
256,192,43034,1,2
256,192,43348,1,0
256,192,43427,1,0
256,192,43505,1,2
256,192,43663,1,0
256,192,43820,1,2
256,192,43977,1,0
256,192,44291,1,2
256,192,44606,5,0
256,192,44685,1,0
256,192,44763,1,2
256,192,44920,1,2
256,192,45078,1,0
256,192,45235,1,2
256,192,45392,1,0
256,192,45549,1,2
256,192,45707,1,0
256,192,45864,1,0
256,192,45942,1,0
256,192,46021,1,2
256,192,46178,1,0
256,192,46335,1,2
256,192,46493,1,0
256,192,46807,1,2
256,192,47122,5,0
256,192,47200,1,0
256,192,47279,1,2
256,192,47436,1,0
256,192,47593,1,2
256,192,47751,1,0
256,192,48065,5,0
256,192,48144,1,0
256,192,48222,1,6
256,192,48379,1,0
256,192,48694,1,0
256,192,48773,1,0
256,192,48851,1,6
256,192,49008,1,0
256,192,49323,1,0
256,192,49402,1,0
256,192,49480,1,6
256,192,49637,1,0
256,192,49952,1,0
256,192,50030,1,0
256,192,50109,1,6
256,192,50266,1,0
256,192,50424,5,0
256,192,50581,1,0
256,192,50738,1,2
256,192,50895,1,0
256,192,50974,1,0
256,192,51052,1,2
256,192,51210,1,0
256,192,51367,1,2
256,192,51524,1,0
256,192,51839,1,2
256,192,52153,1,0
256,192,52232,1,0
256,192,52310,1,2
256,192,52468,1,0
256,192,52625,1,2
256,192,52782,1,0
256,192,53096,1,2
256,192,53411,1,0
256,192,53490,1,0
256,192,53568,1,2
256,192,53725,1,0
256,192,53883,1,2
256,192,54040,1,0
256,192,54354,1,2
256,192,54669,5,0
256,192,54747,1,0
256,192,54826,1,2
256,192,54983,1,2
256,192,55140,1,0
256,192,55298,1,2
256,192,55455,1,0
256,192,55612,1,2
256,192,55769,1,0
256,192,55927,1,0
256,192,56005,1,0
256,192,56084,1,2
256,192,56241,1,0
256,192,56398,1,2
256,192,56556,1,0
256,192,56870,1,2
256,192,57185,5,0
256,192,57263,1,0
256,192,57342,1,2
256,192,57499,1,0
256,192,57656,1,2
256,192,57813,1,0
256,192,58128,5,0
256,192,58207,1,0
256,192,58285,1,6
256,192,58442,1,0
256,192,58757,1,0
256,192,58835,1,0
256,192,58914,1,6
256,192,59071,1,0
256,192,59386,1,0
256,192,59464,1,0
256,192,59543,1,6
256,192,59700,1,0
256,192,60015,1,0
256,192,60093,1,0
256,192,60172,1,6
256,192,60329,1,0
256,192,60500,5,6
256,192,60657,1,2
256,192,60814,1,0
256,192,60971,1,0
256,192,61128,1,2
256,192,61286,1,0
256,192,61364,1,2
256,192,61443,1,0
256,192,61600,1,0
256,192,61757,5,0
256,192,61836,1,2
256,192,61915,1,2
256,192,61993,1,2
256,192,62072,1,2
256,192,62150,1,2
256,192,62229,1,0
256,192,62386,5,0
256,192,62465,1,2
256,192,62544,1,0
256,192,62701,1,2
256,192,62858,1,0
256,192,62937,1,2
256,192,63015,1,2
256,192,63094,1,2
256,192,63172,1,0
256,192,63330,5,0
256,192,63408,1,2
256,192,63566,1,0
256,192,63644,1,2
256,192,63801,1,0
256,192,63880,1,2
256,192,64037,1,0
256,192,64116,1,2
256,192,64273,1,0
256,192,64352,1,2
256,192,64509,1,0
256,192,64588,1,2
256,192,64745,5,2
256,192,64902,1,0
256,192,65059,5,0
256,192,65138,1,2
256,192,65216,1,2
256,192,65295,1,2
256,192,65374,1,2
256,192,65452,1,2
256,192,65531,1,0
256,192,65610,1,0
256,192,65688,1,2
256,192,65845,5,0
256,192,66003,1,2
256,192,66160,1,0
256,192,66317,1,0
256,192,66396,1,2
256,192,66474,1,0
256,192,66632,1,0
256,192,66789,1,0
256,192,66867,1,2
256,192,67025,1,0
256,192,67103,1,2
256,192,67261,1,0
256,192,67418,1,2
256,192,67575,1,0
256,192,67732,1,2
256,192,67889,1,0
256,192,68047,12,0,68990
256,192,69305,12,0,70248
256,192,70562,5,2
256,192,70641,1,0
256,192,70720,1,0
256,192,70877,1,2
256,192,71034,1,0
256,192,71349,1,2
256,192,71663,1,0
256,192,71820,1,2
256,192,71899,1,0
256,192,71977,1,2
256,192,72135,1,2
256,192,72292,1,0
256,192,72449,1,2
256,192,72685,1,2
256,192,72921,1,2
256,192,73078,1,2
256,192,73235,1,0
256,192,73393,1,2
256,192,73550,5,0
256,192,73628,1,0
256,192,73707,1,2
256,192,73786,1,2
256,192,73864,1,0
256,192,73943,1,0
256,192,74022,1,2
256,192,74179,5,0
256,192,74257,1,2
256,192,74336,1,0
256,192,74493,1,0
256,192,74650,1,2
256,192,74808,1,0
256,192,74965,1,2
256,192,75279,5,0
256,192,75358,1,0
256,192,75437,1,2
256,192,75515,1,0
256,192,75594,1,2
256,192,75751,5,0
256,192,75908,1,2
256,192,76066,1,0
256,192,76223,1,2
256,192,76380,1,0
256,192,76537,1,2
256,192,76694,1,2
256,192,76852,1,2
256,192,76930,1,0
256,192,77009,1,0
256,192,77166,1,2
256,192,77323,5,0
256,192,77402,1,2
256,192,77559,1,0
256,192,77638,1,2
256,192,77795,1,2
256,192,78110,5,0
256,192,78267,1,2
256,192,78345,1,0
256,192,78424,1,0
256,192,78581,1,2
256,192,78660,1,0
256,192,78738,1,0
256,192,78896,1,0
256,192,79053,1,2
256,192,79367,12,2,80311
256,192,80639,5,0
256,192,80874,1,2
256,192,81110,1,0
256,192,81346,1,2
256,192,81582,1,2
256,192,81661,1,0
256,192,81739,1,0
256,192,81897,1,0
256,192,82133,1,2
256,192,82369,1,0
256,192,82604,1,2
256,192,82840,1,2
256,192,82919,1,0
256,192,82998,1,0
256,192,83155,1,0
256,192,83391,1,2
256,192,83627,1,0
256,192,83863,1,2
256,192,84099,1,2
256,192,84177,1,0
256,192,84256,1,0
256,192,84413,5,2
256,192,84649,1,2
256,192,84885,1,2
256,192,85121,1,2
256,192,85357,1,2
256,192,85435,1,2
256,192,85514,1,0
256,192,85671,5,0
256,192,85907,1,2
256,192,86143,1,0
256,192,86379,1,2
256,192,86615,1,2
256,192,86694,1,0
256,192,86772,1,0
256,192,86929,1,0
256,192,87165,1,2
256,192,87401,1,0
256,192,87637,1,2
256,192,87873,1,2
256,192,87952,1,0
256,192,88030,1,0
256,192,88188,1,0
256,192,88424,1,2
256,192,88659,1,0
256,192,88895,1,2
256,192,89131,1,2
256,192,89210,1,0
256,192,89289,1,0
256,192,89446,5,2
256,192,89682,1,2
256,192,89918,1,2
256,192,90154,1,2
256,192,90389,1,2
256,192,90468,1,2
256,192,90547,1,0
256,192,90704,5,0
256,192,90940,1,2
256,192,91176,1,0
256,192,91412,1,2
256,192,91648,1,2
256,192,91726,1,0
256,192,91805,1,0
256,192,91962,1,0
256,192,92198,1,2
256,192,92434,1,0
256,192,92670,1,2
256,192,92906,1,2
256,192,92985,1,0
256,192,93063,1,0
256,192,93220,1,0
256,192,93456,1,2
256,192,93692,1,0
256,192,93928,1,2
256,192,94164,1,2
256,192,94243,1,0
256,192,94321,1,0
256,192,94479,5,2
256,192,94715,1,2
256,192,94950,1,2
256,192,95186,1,2
256,192,95422,1,2
256,192,95501,1,2
256,192,95580,1,0
256,192,95737,5,0
256,192,95973,1,2
256,192,96209,1,0
256,192,96445,1,2
256,192,96680,1,2
256,192,96759,1,0
256,192,96838,1,0
256,192,96995,1,0
256,192,97231,1,2
256,192,97467,1,0
256,192,97703,1,2
256,192,97939,1,2
256,192,98017,1,0
256,192,98096,1,0
256,192,98253,1,0
256,192,98489,1,2
256,192,98725,1,0
256,192,98961,1,2
256,192,99197,1,2
256,192,99275,1,0
256,192,99354,1,0
256,192,99511,5,2
256,192,99747,1,2
256,192,99983,1,2
256,192,100219,1,2
256,192,100455,1,2
256,192,100770,5,0
256,192,101084,1,2
256,192,101241,1,0
256,192,101399,1,2
256,192,101556,1,0
256,192,101713,1,2
256,192,101870,1,0
256,192,102028,1,0
256,192,102185,1,0
256,192,102342,1,2
256,192,102500,1,0
256,192,102657,1,2
256,192,102814,1,0
256,192,102971,1,2
256,192,103286,5,0
256,192,103600,1,2
256,192,103758,1,0
256,192,103915,1,2
256,192,104072,1,0
256,192,104230,1,2
256,192,104387,1,0
256,192,104544,1,0
256,192,104701,1,0
256,192,104859,1,2
256,192,105016,1,0
256,192,105173,1,2
256,192,105331,1,0
256,192,105409,1,0
256,192,105488,1,2
256,192,105802,5,0
256,192,106117,1,2
256,192,106196,1,0
256,192,106274,1,0
256,192,106431,1,2
256,192,106589,1,0
256,192,106746,1,2
256,192,106903,1,0
256,192,107061,1,0
256,192,107218,1,0
256,192,107375,1,2
256,192,107532,1,0
256,192,107690,1,2
256,192,107847,1,0
256,192,107926,1,0
256,192,108004,1,2
256,192,108319,5,0
256,192,108633,1,2
256,192,108712,1,0
256,192,108791,1,0
256,192,108948,1,2
256,192,109105,1,0
256,192,109262,1,2
256,192,109420,1,0
256,192,109577,1,0
256,192,109734,1,0
256,192,109891,1,2
256,192,109970,1,0
256,192,110049,1,0
256,192,110206,1,2
256,192,110363,1,0
256,192,110442,1,0
256,192,110521,1,2
256,192,110835,5,0
256,192,111150,1,2
256,192,111228,1,0
256,192,111307,1,0
256,192,111464,1,2
256,192,111621,1,0
256,192,111700,1,0
256,192,111779,1,2
256,192,111936,1,0
256,192,112093,1,0
256,192,112251,1,0
256,192,112408,1,2
256,192,112486,1,0
256,192,112565,1,0
256,192,112722,1,2
256,192,112880,1,0
256,192,112958,1,0
256,192,113037,1,2
256,192,113351,5,0
256,192,113666,1,2
256,192,113745,1,0
256,192,113823,1,0
256,192,113902,1,0
256,192,113981,1,2
256,192,114138,1,0
256,192,114216,1,0
256,192,114295,1,2
256,192,114452,1,0
256,192,114610,1,0
256,192,114767,1,0
256,192,114924,1,2
256,192,115003,1,0
256,192,115081,1,0
256,192,115239,1,2
256,192,115317,1,0
256,192,115396,1,0
256,192,115475,1,0
256,192,115553,1,2
256,192,115868,5,0
256,192,116182,1,2
256,192,116261,1,0
256,192,116340,1,0
256,192,116418,1,0
256,192,116497,1,2
256,192,116576,1,0
256,192,116654,1,0
256,192,116733,1,0
256,192,116812,1,2
256,192,116969,1,0
256,192,117126,1,0
256,192,117283,1,0
256,192,117441,1,2
256,192,117519,1,0
256,192,117598,1,0
256,192,117677,1,0
256,192,117755,1,2
256,192,117834,1,0
256,192,117912,1,0
256,192,117991,1,0
256,192,118070,1,2
256,192,118384,5,0
256,192,118699,1,2
256,192,118777,1,0
256,192,118856,1,0
256,192,118935,1,0
256,192,119013,1,2
256,192,119092,1,0
256,192,119171,1,0
256,192,119249,1,0
256,192,119328,1,2
256,192,119407,1,0
256,192,119485,1,0
256,192,119564,1,0
256,192,119642,1,0
256,192,119721,1,0
256,192,119800,1,0
256,192,119878,1,0
256,192,119957,1,2
256,192,120036,1,0
256,192,120114,1,0
256,192,120193,1,0
256,192,120272,1,2
256,192,120350,1,0
256,192,120429,1,0
256,192,120507,1,0
256,192,120586,1,2
256,192,120901,5,6
256,192,121058,1,2
256,192,121215,1,2
256,192,121451,1,0
256,192,121608,1,2
256,192,121687,1,0
256,192,121766,1,0
256,192,121844,1,2
256,192,122080,1,0
256,192,122237,1,2
256,192,122316,1,0
256,192,122395,1,0
256,192,122473,1,2
256,192,122709,5,0
256,192,122867,1,0
256,192,122945,1,2
256,192,123102,1,0
256,192,123260,1,2
256,192,123417,1,0
256,192,123574,1,0
256,192,123732,5,2
256,192,123967,1,0
256,192,124125,1,2
256,192,124203,1,0
256,192,124282,1,0
256,192,124361,1,2
256,192,124597,1,0
256,192,124754,1,2
256,192,124832,1,0
256,192,124911,1,0
256,192,124990,1,2
256,192,125226,1,0
256,192,125304,1,2
256,192,125540,1,2
256,192,125697,1,2
256,192,125776,1,0
256,192,125933,1,0
256,192,126091,1,0
256,192,126248,5,2
256,192,126484,1,0
256,192,126641,1,2
256,192,126720,1,0
256,192,126798,1,0
256,192,126877,1,2
256,192,127113,1,0
256,192,127270,1,2
256,192,127349,1,0
256,192,127427,1,0
256,192,127506,1,2
256,192,127742,5,0
256,192,127899,1,0
256,192,127978,1,2
256,192,128135,1,0
256,192,128292,1,2
256,192,128450,1,0
256,192,128607,1,0
256,192,128764,5,2
256,192,129000,1,0
256,192,129158,1,2
256,192,129236,1,0
256,192,129315,1,0
256,192,129393,1,2
256,192,129629,1,0
256,192,129787,1,2
256,192,129865,1,0
256,192,129944,1,0
256,192,130023,1,2
256,192,130258,1,0
256,192,130337,1,2
256,192,130573,1,2
256,192,130730,1,2
256,192,130809,1,0
256,192,130966,1,0
256,192,131123,1,0
256,192,131281,5,2
256,192,131517,1,0
256,192,131674,1,2
256,192,131753,1,0
256,192,131831,1,0
256,192,131910,1,2
256,192,132146,1,0
256,192,132303,1,2
256,192,132382,1,0
256,192,132460,1,0
256,192,132539,1,2
256,192,132775,5,0
256,192,132932,1,0
256,192,133011,1,2
256,192,133168,1,0
256,192,133325,1,2
256,192,133483,1,0
256,192,133640,1,0
256,192,133797,5,2
256,192,134033,1,0
256,192,134190,1,2
256,192,134269,1,0
256,192,134348,1,0
256,192,134426,1,2
256,192,134662,1,0
256,192,134819,1,2
256,192,134898,1,0
256,192,134977,1,0
256,192,135055,1,2
256,192,135291,1,0
256,192,135370,1,2
256,192,135606,1,2
256,192,135763,1,2
256,192,135842,1,0
256,192,135999,1,0
256,192,136156,1,0
256,192,136313,5,2
256,192,136549,1,0
256,192,136707,1,2
256,192,136785,1,0
256,192,136864,1,0
256,192,136943,1,2
256,192,137178,1,0
256,192,137336,1,2
256,192,137414,1,0
256,192,137493,1,0
256,192,137572,1,2
256,192,137808,1,2
256,192,137886,1,0
256,192,137965,1,0
256,192,138043,1,2
256,192,138201,1,0
256,192,138358,1,2
256,192,138515,5,0
256,192,138673,1,0
256,192,138830,1,2
256,192,139066,1,0
256,192,139223,1,2
256,192,139302,1,0
256,192,139380,1,0
256,192,139459,1,2
256,192,139695,1,0
256,192,139852,1,2
256,192,139931,1,0
256,192,140009,1,0
256,192,140088,1,2
256,192,140324,1,0
256,192,140403,1,2
256,192,140639,1,2
256,192,140717,1,6
256,192,141040,1,0
256,192,141197,1,0
256,192,141354,1,2
256,192,141511,1,0
256,192,141590,1,0
256,192,141669,1,2
256,192,141826,1,0
256,192,141983,1,2
256,192,142141,1,0
256,192,142455,1,2
256,192,142770,1,0
256,192,142848,1,0
256,192,142927,1,2
256,192,143084,1,0
256,192,143242,1,2
256,192,143399,1,0
256,192,143714,1,2
256,192,144028,1,0
256,192,144107,1,0
256,192,144185,1,2
256,192,144343,1,0
256,192,144500,1,2
256,192,144657,1,0
256,192,144972,1,2
256,192,145286,5,0
256,192,145365,1,0
256,192,145444,1,2
256,192,145601,1,2
256,192,145758,1,0
256,192,145916,1,2
256,192,146073,1,0
256,192,146230,1,2
256,192,146388,1,0
256,192,146545,1,0
256,192,146623,1,0
256,192,146702,1,2
256,192,146859,1,0
256,192,147017,1,2
256,192,147174,1,0
256,192,147489,1,2
256,192,147803,5,0
256,192,147882,1,0
256,192,147960,1,2
256,192,148118,1,0
256,192,148275,1,2
256,192,148432,1,0
256,192,148747,5,0
256,192,148826,1,0
256,192,148904,1,6
256,192,149062,1,0
256,192,149376,1,0
256,192,149455,1,0
256,192,149533,1,6
256,192,149691,1,0
256,192,150005,1,0
256,192,150084,1,0
256,192,150163,1,6
256,192,150320,1,0
256,192,150634,1,0
256,192,150713,1,0
256,192,150792,1,6
256,192,150949,1,0
256,192,151106,5,0
256,192,151264,1,0
256,192,151421,1,2
256,192,151578,1,0
256,192,151657,1,0
256,192,151736,1,2
256,192,151893,1,0
256,192,152050,1,2
256,192,152207,1,0
256,192,152522,1,2
256,192,152837,1,0
256,192,152915,1,0
256,192,152994,1,2
256,192,153151,1,0
256,192,153308,1,2
256,192,153466,1,0
256,192,153780,1,2
256,192,154095,1,0
256,192,154174,1,0
256,192,154252,1,2
256,192,154410,1,0
256,192,154567,1,2
256,192,154724,1,0
256,192,155039,1,2
256,192,155353,5,0
256,192,155432,1,0
256,192,155511,1,2
256,192,155668,1,2
256,192,155825,1,0
256,192,155982,1,2
256,192,156140,1,0
256,192,156297,1,2
256,192,156454,1,0
256,192,156612,1,0
256,192,156690,1,0
256,192,156769,1,2
256,192,156926,1,0
256,192,157084,1,2
256,192,157241,1,0
256,192,157555,1,2
256,192,157870,5,0
256,192,157949,1,0
256,192,158027,1,2
256,192,158185,1,0
256,192,158342,1,2
256,192,158499,1,0
256,192,158814,5,0
256,192,158892,1,0
256,192,158971,1,6
256,192,159128,1,0
256,192,159443,1,0
256,192,159522,1,0
256,192,159600,1,6
256,192,159758,1,0
256,192,160072,1,0
256,192,160151,1,0
256,192,160229,1,6
256,192,160387,1,0
256,192,160701,1,0
256,192,160780,1,0
256,192,160859,1,6
256,192,161016,1,0
256,192,161173,5,2
256,192,161488,5,2
256,192,161645,1,0
256,192,161724,1,0
256,192,161802,1,2
256,192,161960,1,0
256,192,162117,1,2
256,192,162274,1,0
256,192,162432,1,2
256,192,162746,1,2
256,192,162903,1,0
256,192,162982,1,0
256,192,163061,1,2
256,192,163218,1,0
256,192,163375,1,2
256,192,163454,1,0
256,192,163533,1,0
256,192,163690,1,2
256,192,164005,1,2
256,192,164162,1,0
256,192,164240,1,0
256,192,164319,1,2
256,192,164476,1,0
256,192,164634,1,2
256,192,164791,1,0
256,192,164948,1,2
256,192,165263,1,2
256,192,165420,1,0
256,192,165499,1,0
256,192,165577,1,2
256,192,165735,1,0
256,192,165892,1,2
256,192,165971,1,0
256,192,166049,1,0
256,192,166207,1,2
256,192,166521,1,2
256,192,166679,1,0
256,192,166757,1,0
256,192,166836,1,2
256,192,166993,1,0
256,192,167150,1,2
256,192,167308,1,0
256,192,167465,1,2
256,192,167780,1,2
256,192,167937,1,0
256,192,168016,1,0
256,192,168094,1,2
256,192,168251,1,0
256,192,168409,1,2
256,192,168487,1,0
256,192,168566,1,0
256,192,168723,1,2
256,192,168881,5,0
256,192,168959,1,0
256,192,169038,1,2
256,192,169195,1,0
256,192,169353,1,2
256,192,169510,5,0
256,192,169588,1,0
256,192,169667,1,2
256,192,169824,1,0
256,192,169982,1,2
256,192,170139,5,0
256,192,170218,1,0
256,192,170296,1,2
256,192,170454,1,0
256,192,170611,1,2
256,192,170768,5,0
256,192,170847,1,0
256,192,170925,1,2
256,192,171083,1,0
256,192,171240,1,2
256,192,171555,5,2
256,192,171712,1,0
256,192,171791,1,0
256,192,171869,1,2
256,192,172027,1,0
256,192,172184,1,2
256,192,172341,1,0
256,192,172420,1,0
256,192,172498,1,2
256,192,172813,1,2
256,192,172970,1,0
256,192,173049,1,0
256,192,173128,1,2
256,192,173285,1,0
256,192,173442,1,2
184,208,173521,1,0
256,192,173599,1,0
256,192,173757,1,0
256,192,174071,1,2
256,192,174229,1,0
256,192,174307,1,0
256,192,174386,1,2
256,192,174543,1,0
256,192,174701,1,2
256,192,174858,1,0
256,192,174936,1,0
256,192,175015,1,2
256,192,175330,1,2
256,192,175487,1,0
256,192,175566,1,0
256,192,175644,1,2
256,192,175802,1,0
256,192,175959,1,2
184,208,176038,1,0
256,192,176116,1,0
256,192,176273,1,0
256,192,176588,1,2
256,192,176745,1,0
256,192,176824,1,0
256,192,176903,1,2
256,192,177060,1,0
256,192,177217,1,2
256,192,177375,1,0
256,192,177453,1,0
256,192,177532,1,2
256,192,177846,1,2
256,192,178004,1,0
256,192,178082,1,0
256,192,178161,1,2
256,192,178318,1,0
256,192,178476,1,2
256,192,178554,1,0
256,192,178633,1,0
256,192,178790,1,0
256,192,178947,5,0
256,192,179026,1,0
256,192,179105,1,2
256,192,179262,1,0
256,192,179419,1,2
256,192,179577,5,0
256,192,179655,1,0
256,192,179734,1,2
256,192,179891,1,0
256,192,180049,1,2
256,192,180206,5,0
256,192,180284,1,0
256,192,180363,1,2
256,192,180520,1,0
256,192,180678,1,2
256,192,180835,5,0
256,192,180914,1,0
256,192,180992,1,2
256,192,181150,1,0
256,192,181307,1,6
