osu file format v9

[General]
AudioFilename: Adraen - Big Up Toronto.mp3
AudioLeadIn: 0
PreviewTime: 40046
Countdown: 0
SampleSet: Soft
StackLeniency: 0.8
Mode: 0
LetterboxInBreaks: 1

[Editor]
DistanceSpacing: 1.2
BeatDivisor: 4
GridSize: 8

[Metadata]
Title:Big Up Toronto
Artist:Adraen
Creator:Autonom
Version:Insane
Source:
Tags:lapfox trax Renard the grey goo scenario

[Difficulty]
HPDrainRate:7
CircleSize:4
OverallDifficulty:7
ApproachRate:9
SliderMultiplier:2.5
SliderTickRate:2

[Events]
//Background and Video events
0,0,"1296932174-1.jpg"
//Break Periods
2,80839,90104
2,120901,130366
//Storyboard Layer 0 (Background)
//Storyboard Layer 1 (Fail)
//Storyboard Layer 2 (Pass)
//Storyboard Layer 3 (Foreground)
Sprite,Foreground,Centre,"black.jpg",320,240 F,0,0,109,1 F,0,109,1369,1,0 F,0,1369,2625,0,1 F,0,2625,3883,1,0 F,0,3883,5140,0,1 F,0,5140,6398,1,0 F,0,6398,7656,0,1 F,0,7656,8914,1,0 F,0,8914,10172,0,1
Sprite,Foreground,Centre,"1296932174-1.jpg",320,240 F,0,10172,10250,1,0.8 S,0,10172,10250,1,1.3 F,0,10250,10801,0.8,0 S,0,10250,10801,1.3,1.7 F,0,10801,20234,0 S,0,10801,20234,1 F,0,20234,20313,0,0.8 S,0,20234,20313,1,1.3 F,0,20313,21492,0.8,0 S,0,20313,21492,1.3,1.7 F,0,21178,80612,0 S,0,21178,80612,1 F,0,80612,80739,1,0.8 S,0,80612,80739,1,1.3 F,0,80651,81541,0.8,0 S,0,80651,81541,1.3,1.7 F,0,120902,121029,1,0.8 S,0,120902,121029,1,1.3 F,0,120980,121870,0.8,0 S,0,120980,121870,1.3,1.7 F,0,181311,181438,1,0.8 S,0,181311,181438,1,1.3 F,0,181390,182280,0.8,0 S,0,181390,182280,1.3,1.7
Sprite,Foreground,Centre,"t4p.png",320,240 F,0,181940,182569,0,1 F,0,182569,183513,1 F,0,183513,183828,1,0
//Storyboard Sound Samples
//Background Colour Transformations
3,100,163,162,255

[TimingPoints]
5141,314.465408805031,4,2,0,100,1,0
60500,314.465408805031,4,2,0,100,1,0
80639,314.547837483617,4,2,0,100,1,0
100770,-100,4,2,0,100,0,1
120586,-100,4,2,0,100,0,0
141040,314.589068029886,4,2,0,100,1,0
161173,-100,4,2,0,100,0,1
181307,-100,4,2,0,100,0,0

[Colours]
Combo1 : 0,255,0
Combo2 : 0,166,0
Combo3 : 128,255,128
Combo4 : 0,64,0

[HitObjects]
256,96,40046,1,8
48,96,40361,6,0,B|80:240,1,125,4|0
208,296,40675,1,2
360,272,40832,1,0
464,168,40990,2,0,B|320:160,2,125,0|0|2
376,48,41461,1,0
104,176,41776,5,0
117,50,42090,1,0
152,80,42169,1,0
186,109,42247,1,2
176,256,42405,1,0
320,304,42562,2,0,B|320:176,1,125
432,96,43034,1,0
136,56,43348,5,0
168,88,43427,1,0
200,120,43505,1,2
352,120,43663,1,0
328,264,43820,1,0
176,272,43977,2,0,B|64:272|48:264|48:264|48:240|136:136,1,250
408,248,44606,5,0
386,224,44685,1,2
360,192,44763,1,2
208,192,44920,2,0,B|88:112,2,125
304,72,45392,5,4
32,200,45707,1,0
112,328,45864,1,0
144,312,45942,1,0
176,296,46021,1,2
272,184,46178,2,0,B|176:104,1,125
328,120,46493,1,0
40,48,46807,1,0
344,32,47122,5,0
313,41,47200,1,0
283,51,47279,1,2
192,168,47436,2,0,B|48:168,2,125
400,48,48065,5,0
400,176,48222,1,2
400,320,48379,1,0
96,320,48694,5,0
96,176,48851,1,2
96,48,49008,1,0
256,176,49323,5,0
256,208,49402,1,0
256,240,49480,1,2
256,336,49637,1,0
416,208,49952,1,0
384,240,50030,1,0
352,272,50109,1,2
256,336,50266,1,0
96,344,50424,5,4
96,192,50581,1,2
96,40,50738,1,0
248,48,50895,1,0
280,80,50974,1,0
312,112,51052,1,2
184,192,51210,2,0,B|280:272,1,125
136,296,51524,1,0
432,320,51839,1,0
216,120,52153,5,0
248,152,52232,1,2
280,184,52310,1,2
432,216,52468,2,0,B|440:88,2,125
136,216,53096,1,0
392,56,53411,5,0
350,75,53490,1,0
309,94,53568,1,2
168,48,53725,2,0,B|72:136,2,125
72,336,54354,1,0
359,321,54669,5,0
381,291,54747,1,0
402,262,54826,1,2
464,128,54983,1,0
352,32,55140,1,0
200,32,55298,1,0
112,104,55455,6,0,B|32:201,1,125,2|0
232,112,55769,2,0,B|152:224,1,125,0|0
448,216,56084,2,0,B|344:96,1,125,2|0
328,224,56398,2,0,B|240:136,1,125
104,200,56713,6,0,B|232:232,1,125,2|0
64,96,57027,2,0,B|186:125,1,125
464,208,57342,2,0,B|352:128,1,125,2|0
360,280,57656,2,0,B|256:208,1,125
424,144,57971,5,2
360,304,58128,1,0
248,176,58285,1,2
192,336,58442,1,0
72,208,58600,1,2
128,48,58757,1,0
248,176,58914,1,2
304,16,59071,1,0
384,128,59229,5,2
385,140,59307,1,0
386,154,59386,1,0
383,170,59464,1,0
379,181,59543,1,2
373,190,59622,1,0
364,198,59700,1,0
359,208,59779,1,0
356,215,59857,1,2
352,224,59936,1,0
350,234,60015,1,0
349,247,60093,1,0
349,257,60172,1,2
354,266,60251,1,0
360,274,60329,1,0
408,328,60486,6,0,B|280:328,1,125,4|0
256,200,60814,2,0,B|152:272,1,125,8|0
80,192,61128,1,0
64,96,61286,1,2
96,88,61364,1,2
136,80,61443,1,8
256,72,61600,1,0
384,72,61757,5,2
400,96,61836,1,2
409,129,61915,1,0
405,161,61993,1,0
392,192,62072,1,8
366,227,62150,2,0,B|329:176,2,62.5
346,253,62386,1,0
306,269,62465,1,2
264,270,62544,1,2
160,272,62701,2,0,B|240:160,1,125,8|0
256,72,63015,5,0
224,72,63094,1,0
184,72,63172,1,0
72,112,63330,2,0,B|128:176,1,62.5,8|2
64,208,63566,2,0,B|104:256,1,62.5,0|2
232,256,63801,2,0,B|272:200,1,62.5,0|2
376,176,64037,2,0,B|344:104,1,62.5,0|2
256,48,64273,5,0
240,80,64352,1,2
176,192,64509,2,0,B|272:224,1,62.5,0|2
400,272,64745,5,0
264,312,64902,1,0
112,288,65059,5,2
88,256,65138,1,0
80,224,65216,1,8
72,192,65295,1,0
72,160,65374,1,0
80,128,65452,1,0
96,96,65531,6,0,B|160:80,2,62.5,0|2|0
352,48,65845,1,8
448,184,66003,1,0
352,288,66160,1,0
200,256,66317,1,0
176,216,66396,1,2
152,176,66474,1,10
88,56,66632,1,0
80,224,66789,6,0,B|88:128,1,62.5
224,88,67025,2,0,B|328:80,1,62.5,0|10
392,224,67261,1,0
400,88,67418,1,0
280,152,67575,1,0
144,128,67732,1,8
160,264,67889,1,0
328,224,68047,6,0,B|360:160,2,62.5,0|2|0
288,40,68361,5,8
256,40,68440,1,2
224,64,68518,1,0
128,120,68676,2,0,B|104:192,1,62.5,0|2
224,224,68911,2,0,B|200:280,1,62.5,0|10
408,304,69305,5,0
408,192,69462,1,0
384,168,69540,1,0
360,144,69619,1,8
336,128,69698,1,2
304,112,69776,1,2
200,160,69933,2,0,B|160:216,1,62.5,0|2
216,320,70169,2,0,B|256:264,1,62.5,0|10
112,56,70562,5,0
144,80,70641,1,2
160,104,70720,2,0,B|112:160,2,62.5,0|0|8
288,32,71034,2,0,B|376:64|416:160|400:256,1,250,0|0
320,288,71506,5,8
152,256,71663,1,0
80,176,71820,1,0
96,144,71899,1,0
128,112,71977,1,0
200,64,72135,2,0,B|304:152,1,125,8|0
320,232,72449,6,0,B|240:232,1,62.5,2|0
168,352,72685,2,0,B|192:280,1,62.5,2|8
152,168,72921,2,2,B|208:224,1,62.5
256,160,73078,5,0
416,160,73235,1,0
416,320,73393,1,8
280,288,73550,1,0
264,264,73628,1,0
232,256,73707,1,0
200,264,73786,1,2
176,280,73864,2,0,B|128:320,2,62.5,2|2|10
64,208,74179,5,0
80,176,74257,1,2
96,152,74336,1,2
176,64,74493,1,0
296,96,74650,2,0,B|376:112|392:184,1,125,8|0
384,264,74965,2,0,B|344:320|240:320,1,125
80,288,75279,5,8
96,264,75358,1,0
112,240,75437,1,0
128,216,75515,1,2
144,192,75594,1,2
232,128,75751,1,0
352,176,75908,2,0,B|344:312,2,125,8|0|0
408,56,76380,5,0
208,32,76537,1,8
40,144,76694,1,0
64,315,76852,5,0
104,320,76930,1,2
135,310,77009,1,2
280,272,77166,1,8
424,232,77323,2,0,B|384:176,1,62.5,0|2
296,112,77559,2,0,B|232:112,1,62.5,0|2
136,160,77795,1,8
352,296,78110,5,0
416,192,78267,1,0
416,160,78345,1,2
408,128,78424,1,10
328,40,78581,1,0
288,32,78660,1,2
248,32,78738,1,2
104,64,78896,1,0
56,200,79053,1,8
256,192,79367,12,4,80639
96,72,90704,5,2
432,72,90940,1,0
440,320,91176,2,0,B|208:320,1,187.5
136,184,91648,1,0
176,184,91726,1,2
216,184,91805,1,2
456,184,91962,5,2
112,320,92198,1,0
96,112,92434,2,0,B|296:56,1,187.5
376,256,92906,2,0,B|344:176,2,62.5,0|2|0
408,56,93220,5,2
264,192,93456,1,0
40,192,93692,1,0
264,192,93928,1,0
440,328,94164,1,0
408,304,94243,1,2
376,280,94321,1,2
144,64,94479,6,0,B|328:160,1,187.5,2|0
352,320,94950,2,0,B|136:208,1,187.5
376,152,95422,2,0,B|424:96,2,62.5,0|2|0
32,72,95737,5,2
88,232,95973,2,0,B|248:120,1,187.5
320,312,96445,1,0
336,64,96680,1,0
328,96,96759,1,2
320,128,96838,1,2
472,168,96995,6,0,B|328:240|336:192|416:200|448:224|320:264|432:288,1,187.5,0|0
40,168,97467,2,0,B|184:240|176:192|96:200|64:224|192:264|80:288,1,187.5,2|0
136,24,97939,1,0
168,48,98017,1,2
200,72,98096,1,2
456,224,98253,6,0,B|360:280|360:200|360:200|312:240|344:240,1,187.5,2|0
56,224,98725,2,0,B|152:280|152:200|152:200|200:240|168:240,1,187.5
368,320,99197,1,0
343,302,99275,1,2
315,282,99354,1,2
64,112,99511,5,2
208,56,99747,1,2
360,88,99983,1,2
432,224,100219,1,2
264,136,100455,5,2
152,368,100770,6,0,B|257:280,1,125,4|0
200,222,101084,2,0,B|94:309,1,125
152,368,101399,2,0,B|257:280,1,125
400,232,101713,1,2
336,80,101870,1,2
176,32,102028,2,0,B|32:64|40:224|144:336,1,375,0|0
352,320,102657,5,2
328,232,102814,1,2
304,144,102971,1,2
280,64,103129,1,2
192,128,103286,6,0,B|200:224|192:272|192:272|144:256|104:192,2,250,4|0|2
192,128,104072,1,2
392,96,104230,1,2
320,280,104387,1,2
112,296,104544,2,0,B|0:200|32:80|96:24|240:32,1,375,0|2
448,40,105173,5,2
112,192,105409,1,2
448,344,105645,1,2
208,320,105802,6,0,B|304:240|304:240,1,125,4|0
400,256,106117,2,0,B|296:344,1,125
304,240,106431,1,0
104,288,106746,5,2
136,136,106903,1,2
256,40,107061,2,0,B|376:80|432:184|400:352,1,375,0|2
256,336,107690,6,2,B|280:208,1,125,0|0
160,168,108004,2,2,B|280:72,1,125
432,64,108319,6,0,B|392:192,1,125,4|0
48,240,108633,2,0,B|120:104,1,125
48,88,108948,1,0
448,112,109262,5,2
272,48,109420,1,2
88,64,109577,2,0,B|48:120|48:120|90:134|120:152|120:152|111:202|120:256|120:256|168:296|232:312|232:312,1,375,0|0
480,232,110206,5,2
240,48,110442,1,2
32,224,110678,1,2
432,304,110835,5,4
288,248,110992,1,0
432,304,111150,1,0
288,248,111307,1,0
160,176,111464,1,0
448,80,111779,2,2,B|272:64,1,125
208,64,112093,6,0,B|179:86|144:80|144:80|104:80|80:56|80:56|48:80|48:120|48:120|48:144|80:160|96:200|72:216|64:240|64:240|88:272|144:280,1,375,0|2
360,328,112722,1,2
416,56,112958,1,2
88,88,113194,1,2
112,280,113351,5,4
240,208,113509,1,0
128,144,113666,1,0
280,80,113823,1,0
240,208,113981,1,0
424,192,114295,2,2,B|400:288|336:304,1,125
232,320,114610,2,0,B|271:282|296:240|296:240|257:215|232:152|232:152|288:104|392:80|392:80,1,375
192,48,115239,6,2,B|120:64|48:168,1,187.5
128,304,115711,1,2
416,104,115868,5,4
264,192,116025,1,0
416,104,116182,1,0
440,248,116340,1,0
416,104,116497,1,0
288,48,116812,5,2
256,48,116890,1,2
224,56,116969,1,2
136,136,117126,2,0,B|264:224|272:360|16:344,1,375,0|2
56,144,117755,5,2
176,200,117912,1,2
304,216,118070,1,2
416,200,118227,1,2
384,80,118384,6,0,B|224:32|80:88|112:80,2,250,4|0|0
368,296,119328,1,2
352,264,119407,1,2
336,232,119485,1,2
272,160,119642,2,0,B|240:160|208:168|208:184|208:184|208:216|192:256|192:256|168:264|144:256|144:256|127:227|120:200|120:200|104:184|80:200|80:200|58:189|48:176|48:128,1,375,0|2
184,48,120272,5,2
328,48,120429,1,0
328,48,120507,1,0
328,48,120586,1,4
144,48,130966,5,0
296,120,131123,1,0
264,288,131281,1,8
96,320,131438,1,0
352,64,131910,5,8
368,272,132224,1,0
128,96,132539,1,8
48,40,132696,1,0
192,328,133011,2,0,B|176:192,1,125,0|8
376,64,133483,5,0
416,224,133640,2,0,B|416:272|344:328|312:320,1,125,0|8
176,344,133954,1,0
72,32,134426,1,8
320,48,134741,5,0
48,160,135055,1,8
80,256,135213,1,0
416,304,135527,2,0,B|312:280|304:224,1,125,0|8
160,200,135999,6,0,B|160:64,1,125,0|2
400,152,136313,2,0,B|264:152,1,125,0|2
88,80,136628,2,0,B|248:80,1,125,0|2
344,64,136943,2,0,B|344:208,1,125,0|2
440,56,137257,5,0
288,56,137414,1,2
288,200,137572,1,0
120,192,137729,1,2
288,200,137886,1,0
448,200,138043,1,2
448,336,138201,1,0
288,344,138358,1,2
176,312,138515,5,0
144,296,138594,1,0
128,272,138673,1,2
128,240,138751,1,0
120,208,138830,1,0
104,184,138908,1,0
80,168,138987,1,2
56,152,139066,1,0
40,128,139144,1,0
48,96,139223,1,0
72,80,139302,1,2
104,72,139380,1,0
136,80,139459,1,0
160,88,139538,1,0
192,96,139616,1,2
224,96,139695,1,0
256,192,139773,12,8,140717
160,288,141040,6,0,B|80:176,1,125,4|0
128,40,141354,1,2
280,32,141511,1,0
328,176,141669,6,0,B|440:88,2,125,0|0|2
280,320,142141,1,0
32,152,142455,1,0
392,80,142770,5,0
376,104,142848,1,2
360,128,142927,1,2
256,240,143084,1,0
216,88,143242,1,2
64,72,143399,1,0
216,336,143714,1,0
448,168,144028,5,0
424,184,144107,1,2
399,199,144185,1,2
256,256,144343,2,0,B|112:160,1,125,2|2
224,56,144657,1,0
408,296,144972,1,0
144,160,145286,6,0,B|248:152,2,62.5,0|2|0
48,272,145601,1,0
184,328,145758,1,2
336,328,145916,1,0
424,136,146073,6,0,B|328:56|168:80,1,250
48,136,146545,1,0
56,168,146623,1,2
64,200,146702,1,2
136,336,146859,2,0,B|280:304,1,125
384,224,147174,1,0
152,32,147489,1,0
288,296,147803,5,0
259,268,147882,1,2
237,249,147960,1,2
288,104,148118,2,0,B|416:168,2,125
440,328,148747,5,0
400,328,148826,1,2
368,328,148904,1,2
136,328,149062,1,0
120,64,149376,5,0
152,64,149455,1,2
184,64,149533,1,2
424,64,149691,1,0
120,304,150005,6,0,B|192:240,2,62.5,0|2|0
256,192,150320,1,0
424,64,150634,6,0,B|360:128,2,62.5,0|2|0
256,192,150949,1,0
400,272,151106,6,0,B|376:128|224:128,1,250,4|0
200,320,151578,1,0
200,288,151657,1,2
200,256,151736,1,2
72,176,151893,2,0,B|176:72,1,125
296,32,152207,1,0
440,296,152522,1,0
192,128,152837,6,0,B|120:48,2,62.5,0|2|0
240,272,153151,1,0
96,304,153308,1,2
48,160,153466,2,0,B|128:48|256:24,1,250
384,296,154095,5,0
376,264,154174,1,2
368,232,154252,1,2
424,96,154410,1,0
280,128,154567,1,2
136,88,154724,1,0
304,336,155039,1,0
72,144,155353,6,0,B|32:96,2,62.5,0|2|0
192,56,155668,2,0,B|360:56,1,125
352,200,155982,1,2
32,216,156140,6,0,B|131:351|260:342,1,250
376,280,156612,1,0
344,280,156690,1,2
312,280,156769,1,2
184,200,156926,2,0,B|272:56,2,125
440,40,157555,1,0
191,87,157870,5,0
168,112,157949,1,2
144,136,158027,1,2
176,280,158185,2,0,B|272:168,1,125
320,48,158499,1,0
424,304,158814,5,0
384,304,158892,1,2
352,304,158971,1,2
120,304,159128,1,0
120,64,159443,5,0
152,64,159522,1,2
184,64,159600,1,2
424,64,159758,1,0
120,304,160072,6,0,B|192:240,2,62.5,0|2|0
256,192,160387,1,0
424,64,160701,6,0,B|352:128,2,62.5,0|2|0
256,192,161016,1,0
72,56,161173,5,4
424,328,161488,1,10
392,88,161802,1,2
264,80,161960,1,2
144,120,162117,1,10
104,240,162274,1,2
200,328,162432,5,0
472,160,162746,1,8
320,64,163061,2,0,B|168:56,1,125,0|0
80,136,163375,2,0,B|120:304,1,125,10|0
224,328,163690,5,2
432,88,164005,1,8
168,40,164319,1,2
64,120,164476,1,2
64,256,164634,2,0,B|152:352,1,125,8|0
280,344,164948,5,2
112,72,165263,1,8
352,232,165577,1,2
448,144,165735,2,0,B|360:24,1,125,0|8
240,40,166049,1,0
104,56,166207,5,6
208,352,166521,1,8
448,248,166836,1,2
416,120,166993,1,2
304,48,167150,1,8
176,72,167308,2,0,B|64:168,1,125,0|2
344,328,167780,5,8
56,80,168094,1,0
152,224,168251,1,0
248,80,168409,1,8
344,224,168566,1,0
440,80,168723,5,2
240,328,169038,1,8
48,72,169353,1,2
160,208,169510,1,0
176,32,169667,1,8
288,168,169824,1,0
256,192,169982,12,4,171240
256,192,171555,5,8
72,96,171869,2,0,B|240:48|376:80,1,250,2|8
432,248,172498,2,0,B|360:360|168:344,1,250,4|8
56,208,173128,2,8,B|72:128|128:80|248:56,1,250,2|8
440,104,173757,5,4
304,264,174071,1,8
128,144,174386,1,2
336,192,174701,1,8
200,32,175015,1,4
224,240,175330,1,8
424,296,175644,1,0
280,144,175959,1,8
480,104,176273,6,0,B|472:240,1,125,4|0
464,296,176588,2,4,B|320:256,1,125,8|0
272,232,176903,2,0,B|336:120,1,125,0|0
296,64,177217,2,0,B|168:128,1,125,8|0
144,176,177532,2,0,B|208:312,1,125,4|0
240,336,177846,2,0,B|328:240,1,125,8|0
344,176,178161,2,0,B|168:176,1,125,0|0
152,192,178476,2,0,B|176:328,1,125,8|0
328,336,178790,5,0
408,248,178947,1,0
408,136,179105,1,8
328,48,179262,1,0
184,336,179419,5,0
104,248,179577,1,0
104,136,179734,1,8
184,48,179891,1,0
256,192,180049,12,4,181307
