osu file format v9

[General]
AudioFilename: Adraen - Big Up Toronto.mp3
AudioLeadIn: 0
PreviewTime: 40046
Countdown: 0
SampleSet: Soft
StackLeniency: 0.8
Mode: 0
LetterboxInBreaks: 1

[Editor]
Bookmarks: 40046
DistanceSpacing: 0.9
BeatDivisor: 4
GridSize: 8

[Metadata]
Title:Big Up Toronto
Artist:Adraen
Creator:Autonom
Version:Hard
Source:
Tags:lapfox trax Renard the grey goo scenario

[Difficulty]
HPDrainRate:5
CircleSize:4
OverallDifficulty:4
ApproachRate:7
SliderMultiplier:1.7
SliderTickRate:2

[Events]
//Background and Video events
0,0,"1296932174-1.jpg"
//Break Periods
2,80839,89804
2,120786,130066
//Storyboard Layer 0 (Background)
//Storyboard Layer 1 (Fail)
//Storyboard Layer 2 (Pass)
//Storyboard Layer 3 (Foreground)
Sprite,Foreground,Centre,"black.jpg",320,240 F,0,0,109,1 F,0,109,1369,1,0 F,0,1369,2625,0,1 F,0,2625,3883,1,0 F,0,3883,5140,0,1 F,0,5140,6398,1,0 F,0,6398,7656,0,1 F,0,7656,8914,1,0 F,0,8914,10172,0,1
Sprite,Foreground,Centre,"1296932174-1.jpg",320,240 F,0,10172,10250,1,0.8 S,0,10172,10250,1,1.3 F,0,10250,10801,0.8,0 S,0,10250,10801,1.3,1.7 F,0,10801,20234,0 S,0,10801,20234,1 F,0,20234,20313,0,0.8 S,0,20234,20313,1,1.3 F,0,20313,21492,0.8,0 S,0,20313,21492,1.3,1.7 F,0,21178,80612,0 S,0,21178,80612,1 F,0,80612,80739,1,0.8 S,0,80612,80739,1,1.3 F,0,80651,81541,0.8,0 S,0,80651,81541,1.3,1.7 F,0,120902,121029,1,0.8 S,0,120902,121029,1,1.3 F,0,120980,121870,0.8,0 S,0,120980,121870,1.3,1.7 F,0,181311,181438,1,0.8 S,0,181311,181438,1,1.3 F,0,181390,182280,0.8,0 S,0,181390,182280,1.3,1.7
Sprite,Foreground,Centre,"t4p.png",320,240 F,0,181940,182569,0,1 F,0,182569,183513,1 F,0,183513,183828,1,0
//Storyboard Sound Samples
//Background Colour Transformations
3,100,163,162,255

[TimingPoints]
5141,314.465408805031,4,2,0,100,1,0
60500,314.465408805031,4,2,0,100,1,0
80639,314.547837483617,4,2,0,100,1,0
90704,-100,4,2,0,80,0,0
91019,-100,4,2,0,40,0,0
91333,-100,4,2,0,80,0,0
91648,-100,4,2,0,40,0,0
91962,-100,4,2,0,80,0,0
92277,-100,4,2,0,40,0,0
92591,-100,4,2,0,80,0,0
92906,-100,4,2,0,40,0,0
93220,-100,4,2,0,80,0,0
93535,-100,4,2,0,40,0,0
93850,-100,4,2,0,80,0,0
94164,-100,4,2,0,40,0,0
94715,-100,4,2,0,80,0,0
94950,-100,4,2,0,40,0,0
95186,-100,4,2,0,80,0,0
95422,-100,4,2,0,40,0,0
95580,-100,4,2,0,80,0,0
96051,-100,4,2,0,40,0,0
96366,-100,4,2,0,80,0,0
96680,-100,4,2,0,40,0,0
96995,-100,4,2,0,80,0,0
97310,-100,4,2,0,40,0,0
97624,-100,4,2,0,80,0,0
97939,-100,4,2,0,40,0,0
98253,-100,4,2,0,80,0,0
98568,-100,4,2,0,40,0,0
98882,-100,4,2,0,80,0,0
99197,-100,4,2,0,40,0,0
99511,-100,4,2,0,80,0,0
99826,-100,4,2,0,40,0,0
100455,-100,4,2,0,80,0,0
100770,-100,4,2,0,100,0,1
101713,-100,4,2,0,60,0,1
101792,-100,4,2,0,100,0,1
102657,-100,4,2,0,60,0,1
102735,-100,4,2,0,100,0,1
102971,-100,4,2,0,60,0,1
103050,-100,4,2,0,100,0,1
104230,-100,4,2,0,60,0,1
104308,-100,4,2,0,100,0,1
106746,-100,4,2,0,60,0,1
106825,-100,4,2,0,100,0,1
107690,-100,4,2,0,60,0,1
107768,-100,4,2,0,100,0,1
108004,-100,4,2,0,60,0,1
108083,-100,4,2,0,100,0,1
109262,-100,4,2,0,60,0,1
109341,-100,4,2,0,100,0,1
111779,-100,4,2,0,60,0,1
111857,-100,4,2,0,100,0,1
112722,-100,4,2,0,60,0,1
112801,-100,4,2,0,100,0,1
113037,-100,4,2,0,60,0,1
113116,-100,4,2,0,100,0,1
114295,-100,4,2,0,60,0,1
114374,-100,4,2,0,100,0,1
116812,-100,4,2,0,60,0,1
116890,-100,4,2,0,100,0,1
117755,-100,4,2,0,60,0,1
117834,-100,4,2,0,100,0,1
118070,-100,4,2,0,60,0,1
118148,-100,4,2,0,100,0,1
119328,-100,4,2,0,60,0,1
119407,-100,4,2,0,100,0,1
120272,-100,4,2,0,60,0,1
120429,-100,4,2,0,100,0,1
120586,-100,4,2,0,100,0,0
141040,314.589068029886,4,2,0,100,1,0
161173,-100,4,2,0,100,0,1
181307,-100,4,2,0,100,0,0

[Colours]
Combo1 : 0,255,0
Combo2 : 0,166,0
Combo3 : 128,255,128
Combo4 : 0,64,0

[HitObjects]
176,240,40046,1,8
40,200,40361,6,4,B|88:96,1,85,2|0
128,72,40675,2,0,B|208:48|312:48,1,170,0|0
360,88,41147,1,0
376,160,41304,1,2
376,240,41461,2,0,B|272:264|240:136,1,170
112,80,42090,5,2
48,32,42247,1,0
40,112,42405,2,0,B|48:184|112:184,2,85,0|0|2
192,152,43034,1,2
176,304,43348,5,2
104,336,43505,1,0
112,256,43663,2,0,B|94:201|128:176,2,85,0|0|2
48,120,44291,1,2
200,88,44606,5,0
264,48,44763,1,2
272,120,44920,2,0,B|256:208,1,85,2|0
256,280,45235,1,0
184,296,45392,6,0,B|136:232|120:128,1,170
144,64,45864,1,0
216,48,46021,1,2
288,80,46178,2,0,B|384:120,1,85
408,176,46493,2,2,B|224:264,1,170,2|2
104,280,47122,5,0
32,288,47279,1,2
56,216,47436,2,0,B|104:120,1,85
144,80,47751,1,2
296,64,48065,5,0
296,64,48222,1,2
296,64,48379,1,0
272,216,48694,5,0
272,216,48851,1,2
272,216,49008,1,0
120,200,49323,5,0
120,200,49480,1,2
120,200,49637,1,0
224,88,49952,5,0
224,88,50109,1,2
224,88,50266,1,0
304,96,50424,6,0,B|392:144|384:272,1,170,4|0
392,312,50895,1,2
320,344,51052,1,2
240,336,51210,2,0,B|200:336|168:288,1,85,0|2
144,216,51524,2,2,B|96:128|184:24,1,170
312,24,52153,6,0,B|400:104,1,85,2|0
304,112,52468,2,0,B|368:168,1,85
440,192,52782,2,2,B|472:288|312:320,1,170
200,296,53411,6,0,B|144:224,1,85,2|0
224,216,53725,2,0,B|168:144,1,85
144,80,54040,2,2,B|256:72|280:192,1,170
272,320,54669,5,2
344,344,54826,1,0
336,272,54983,2,0,B|456:296,2,85,2|0|0
376,208,55455,6,0,B|392:168|344:136,1,85
288,88,55769,1,0
208,80,55927,1,2
136,96,56084,2,0,B|160:200,2,85
64,120,56556,2,2,B|64:216|136:312,1,170
264,272,57185,5,0
328,224,57342,1,2
256,200,57499,1,0
312,152,57656,2,0,B|344:64,1,85,2|0
192,40,58128,6,0,B|144:144,1,85,2|0
96,160,58442,1,2
176,296,58757,6,0,B|128:192,1,85,2|0
96,160,59071,1,2
208,56,59386,6,0,B|256:160,1,85,2|0
304,184,59700,1,2
208,304,60015,6,0,B|256:208,1,85,2|0
304,184,60329,1,2
320,256,60500,5,4
376,200,60657,1,0
400,128,60814,2,0,B|312:112,1,85,8|0
240,96,61128,2,2,B|208:120|208:160|192:176|192:176|160:104|160:104|144:120|128:160|88:176,1,255,2|2
112,240,61757,5,0
112,240,61915,1,0
120,320,62072,2,0,B|224:360,1,85,8|2
272,344,62386,2,0,B|384:304,1,85,2|0
416,272,62701,1,8
416,272,62858,1,0
440,200,63015,6,0,B|344:120,1,85,0|0
312,192,63330,2,0,B|240:128,1,85,8|0
208,200,63644,2,0,B|128:128,1,85,0|0
72,128,63959,1,8
72,128,64116,1,0
56,200,64273,6,0,B|84:262|150:289|205:269,1,170,0|8
272,264,64745,2,2,B|360:264,1,85,2|2
400,200,65059,2,0,B|488:200,1,85,0|8
472,352,65531,1,0
392,352,65688,5,0
312,352,65845,1,8
232,352,66003,1,0
152,344,66160,2,0,B|112:344|72:304,1,85,0|0
48,240,66474,1,8
40,168,66632,1,0
40,88,66789,6,0,B|80:40|128:32|128:32|120:96|120:96|176:96|216:40|216:40|256:80,1,340,0|0
304,136,67575,1,0
352,192,67732,2,0,B|408:264,1,85,8|0
416,336,68047,6,0,B|304:328|312:328,1,85,0|0
256,304,68361,2,0,B|176:256,1,85,8|0
120,216,68676,1,0
96,144,68833,1,0
128,72,68990,1,8
280,40,69305,6,0,B|224:152,1,85,0|0
312,152,69619,2,0,B|312:104|352:88|352:88|352:120|368:152|368:152|384:176|400:152|400:152|416:120|416:88|416:88|456:104|456:160,1,340,8|8
352,48,70562,6,0,B|256:32|184:110,1,170,0|8
200,176,71034,2,0,B|248:248|364:251,1,170,0|0
416,224,71506,5,8
448,152,71663,1,0
376,160,71820,2,0,B|288:200|290:295,1,170,0|8
216,288,72292,1,0
152,248,72449,2,0,B|112:145|202:91,1,170,0|8
344,64,73078,5,0
352,144,73235,1,0
392,208,73393,1,8
400,288,73550,2,0,B|312:296,1,85,0|0
304,224,73864,2,0,B|224:264,1,85,0|8
176,208,74179,2,0,B|144:304,1,85,0|0
112,352,74493,5,0
184,352,74650,2,0,B|264:360|264:360|240:304|240:304|296:288|296:288,1,170,8|0
112,280,75279,6,0,B|32:296|32:296|32:200,1,170,8|0
32,128,75751,1,0
56,56,75908,1,8
136,56,76066,2,0,B|224:56,1,85,0|0
248,128,76380,2,0,B|160:128,1,85,0|8
160,208,76694,1,0
232,240,76852,1,0
232,240,77009,1,0
232,240,77166,1,8
304,256,77323,6,0,B|360:192,1,85,0|0
408,136,77638,2,0,B|376:56,1,85,0|8
304,40,77952,2,0,B|192:48,1,85
104,128,78424,2,0,B|80:216,1,85,8|0
80,288,78738,1,0
152,304,78896,1,0
200,248,79053,1,8
256,192,79367,12,4,80639
104,56,90704,5,2
256,56,91019,1,8
256,208,91333,1,2
408,208,91648,1,8
408,360,91962,1,2
256,360,92277,1,8
408,336,92591,2,0,B|376:248|408:160,1,170,2|8
256,184,93220,1,2
408,184,93535,1,8
400,336,93850,2,0,B|320:352|192:336,1,170,2|8
232,184,94479,6,0,B|168:176|72:184,1,127.5,8|0
104,296,94950,2,0,B|168:304|232:296,1,127.5,8|0
344,280,95422,2,0,B|350:241|344:176,2,85,8|0|2
192,280,96051,5,8
192,128,96366,1,2
40,128,96680,1,8
40,280,96995,1,0
192,280,97310,2,0,B|280:288|384:280,1,170,8|2
360,128,97939,1,10
208,128,98253,1,0
208,280,98568,1,10
208,128,98882,1,0
56,128,99197,2,2,B|32:216|56:296,1,170,10|0
208,296,99826,1,8
40,40,100455,5,2
184,72,100770,6,0,B|264:56|328:64|352:72|352:72|376:80|408:144|416:248,1,340,4|0
272,296,101713,6,8,B|240:200,1,85
224,144,102028,2,2,B|216:112|248:32|384:32|408:112|392:168|392:168,1,255,0|2
392,224,102657,6,8,B|288:224,1,85
232,224,102971,2,8,B|128:224,1,85
72,224,103286,6,0,B|88:96|88:96|72:56|72:56|112:80|264:80,1,340,4|0
304,216,104230,6,8,B|184:208,1,85
144,200,104544,2,0,B|112:216|48:176|88:120|88:120|56:48|112:24|160:40|160:40,1,255,0|0
224,32,105173,2,0,B|352:32,2,127.5
232,136,105802,6,0,B|168:80|80:48|80:48,2,170,4|0|0
256,288,106746,6,8,B|356:274,1,85
416,256,107061,2,0,B|448:249|506:185|446:63|364:76|327:112|327:112,1,255
264,104,107690,6,8,B|264:208,1,85
192,224,108004,2,8,B|192:328,1,85
272,304,108319,6,0,B|320:152|272:128|216:120|64:160,1,361.25,4|0
88,312,109262,6,8,B|208:304,1,85
248,296,109577,2,0,B|360:264|184:224|184:168|392:128|208:112,1,255
152,112,110206,2,0,B|96:96|16:112,2,127.5
176,184,110835,6,0,B|208:248|288:288|312:288|312:288|328:280|400:200|392:112,1,340,4|0
304,64,111779,6,8,B|272:160,1,85
264,216,112093,2,0,B|256:248|288:328|424:328|448:248|432:200|432:200,1,255
432,136,112722,6,8,B|328:112,1,85
272,112,113037,2,8,B|168:136,1,85
184,56,113351,6,0,B|296:80|352:56|352:56|320:104|328:264,1,340,4|0
208,312,114295,6,8,B|216:192,1,85
224,152,114610,2,0,B|224:96|248:80|280:80|304:96|304:96|336:80|368:80|384:96|384:152,1,255
392,224,115239,2,0,B|392:352,2,127.5
320,248,115868,6,0,B|326:172|296:120|296:120|224:80|80:56|80:56,1,340,4|0
40,200,116812,6,8,B|128:200,1,85
200,200,117126,2,0,B|232:208|312:176|312:40|232:16|184:32|184:32,1,255
120,40,117755,6,8,B|136:144,1,85
120,208,118070,2,8,B|104:312,1,85
176,320,118384,6,0,B|288:304|344:320|344:320|312:280|320:112,1,340,4|0
192,72,119328,6,8,B|200:184,1,85
224,232,119642,2,0,B|208:264|248:328|304:288|304:288|376:320|400:240|384:216|384:216,1,255,0|0
400,152,120272,5,8
392,80,120429,2,0,B|336:80,2,42.5,0|0|4
192,96,130966,6,2,B|256:192,1,85
288,224,131281,1,8
344,168,131438,1,0
112,152,131910,1,8
248,80,132224,6,2,B|332:61|366:72|418:122,1,170,2|10
464,168,132696,1,0
432,320,133011,2,0,B|376:304|364:255,1,85,0|8
360,112,133483,6,2,B|320:192,1,85
288,256,133797,1,8
224,216,133954,1,0
80,40,134426,5,8
80,192,134741,2,2,B|128:248|96:304|-16:320|144:336|232:296,1,255
352,256,135527,2,0,B|352:168|328:144,1,85,0|8
256,192,135999,12,8,140717
472,184,141040,2,4,B|424:288,1,85,2|0
384,312,141354,2,0,B|264:344|200:336,1,170,0|0
152,296,141826,1,0
136,224,141983,1,2
136,144,142141,2,0,B|240:128|272:248,1,170
400,304,142770,5,2
464,352,142927,1,0
472,272,143084,2,0,B|464:200|400:200,2,85,0|0|2
320,232,143714,1,2
336,80,144028,5,2
408,48,144185,1,0
400,128,144343,2,0,B|418:183|384:208,2,85,0|0|2
464,264,144972,1,2
312,296,145286,5,0
248,336,145444,1,2
240,264,145601,2,0,B|256:176,1,85,2|0
256,104,145916,1,0
328,88,146073,6,0,B|376:152|392:256,1,170
368,320,146545,1,0
296,336,146702,1,2
224,304,146859,2,0,B|128:264,1,85
104,208,147174,2,2,B|288:120,1,170,2|2
408,104,147803,5,0
480,96,147960,1,2
456,168,148118,2,0,B|408:264,1,85
368,304,148432,1,2
216,320,148747,5,0
216,320,148904,1,2
216,320,149062,1,0
184,168,149376,5,0
184,168,149533,1,2
184,168,149691,1,0
328,120,150005,5,0
328,120,150163,1,2
328,120,150320,1,0
288,272,150634,5,0
288,272,150792,1,2
288,272,150949,1,0
216,288,151106,6,4,B|128:240|136:112,1,170
120,72,151578,1,2
192,40,151736,1,2
272,48,151893,2,0,B|312:48|344:96,1,85,0|2
368,168,152207,2,2,B|416:264|328:360,1,170
200,360,152837,6,0,B|112:280,1,85,2|0
208,272,153151,2,0,B|144:216,1,85
72,192,153466,2,2,B|56:80|200:64,1,170
312,88,154095,6,0,B|368:160,1,85,2|0
288,168,154410,2,0,B|352:240,1,85
368,304,154724,2,2,B|272:296|232:192,1,170
240,64,155353,5,2
168,40,155511,1,0
176,112,155668,2,0,B|56:88,2,85,2|0|0
136,176,156140,6,0,B|120:216|168:248,1,85
224,296,156454,1,0
304,304,156612,1,2
376,288,156769,2,0,B|352:184,2,85
448,264,157241,2,2,B|448:168|376:72,1,170
248,112,157870,5,0
184,160,158027,1,2
256,184,158185,1,0
200,232,158342,2,0,B|168:320,1,85,2|0
320,344,158814,6,0,B|368:240,1,85,2|0
416,224,159128,1,2
336,88,159443,6,0,B|384:192,1,85,2|0
416,224,159758,1,2
304,328,160072,6,0,B|256:224,1,85,2|0
208,200,160387,5,2
304,80,160701,6,0,B|256:176,1,85,2|0
208,200,161016,1,2
128,200,161173,5,4
128,48,161488,1,8
128,200,161802,2,0,B|16:200,3,85,0|0|8|0
40,280,162432,5,0
192,280,162746,1,8
344,280,163061,2,0,B|440:280,3,85,0|0|8|0
424,200,163690,5,0
424,48,164005,1,8
272,48,164319,2,0,B|176:48,3,85,0|0|8|0
184,128,164948,5,0
184,280,165263,1,8
336,280,165577,2,0,B|432:280,3,85,0|0|8|0
424,200,166207,5,4
312,96,166521,1,8
200,200,166836,1,0
88,96,167150,1,8
200,200,167465,5,0
312,96,167780,1,8
424,200,168094,1,0
312,96,168409,1,8
232,224,168723,6,0,B|352:344,1,170,0|8
370,192,169353,2,0,B|249:71,1,170,0|8
256,192,169982,12,4,171240
112,96,171555,5,8
264,96,171869,1,0
264,248,172184,1,8
112,248,172498,5,4
264,248,172813,1,8
416,248,173128,1,0
416,96,173442,1,8
264,96,173757,5,4
112,96,174071,1,8
112,248,174386,1,0
264,248,174701,1,8
264,96,175015,5,4
416,96,175330,1,8
416,248,175644,1,0
416,96,175959,1,8
264,96,176273,6,0,B|264:208|264:208|184:208,1,170,4|8
120,208,176903,2,4,B|56:208|56:208|56:80,1,170,0|8
208,104,177532,6,8,B|320:104|320:104|320:184,1,170,4|8
320,248,178161,2,8,B|320:312|320:312|192:312,1,170,0|8
256,192,178790,12,4,181307
