osu file format v9

[General]
AudioFilename: Activ - Doar cu tine.mp3
AudioLeadIn: 0
PreviewTime: 61847
Countdown: 0
SampleSet: Normal
StackLeniency: 0.6
Mode: 0
LetterboxInBreaks: 0

[Editor]
DistanceSpacing: 1.3
BeatDivisor: 4
GridSize: 4

[Metadata]
Title:Doar Cu Tine
Artist:Activ
Creator:Tony
Version:Mediu
Source:Best of Romanian Songs 2006
Tags:-kevincela- Motive Only With You Tonoicutzu

[Difficulty]
HPDrainRate:3
CircleSize:4
OverallDifficulty:3
ApproachRate:4
SliderMultiplier:1.2
SliderTickRate:2

[Events]
//Background and Video events
0,0,"activ.jpg"
Video,-100,"Activ - Doar cu tine.flv"
//Break Periods
2,93533,107251
2,154485,166299
//Storyboard Layer 0 (Background)
//Storyboard Layer 1 (Fail)
//Storyboard Layer 2 (Pass)
//Storyboard Layer 3 (Foreground)
Sprite,Foreground,Centre,"Tony.png",312,445 F,0,0,199999,1
//Storyboard Sound Samples
//Background Colour Transformations
3,100,163,162,255

[TimingPoints]
0,476.190476190476,4,1,0,43,1,0
16666,-100,4,2,0,43,0,0
16785,-100,4,1,0,43,0,0
47619,-100,4,2,0,43,0,0
60952,-100,4,1,0,43,0,0
62857,-100,4,1,0,43,0,1
77976,-100,4,1,0,43,0,0
78095,-100,4,1,0,43,0,1
93333,-100,4,1,0,43,0,0
108571,-100,4,2,0,43,0,0
121904,-100,4,1,0,43,0,0
123809,-100,4,1,0,43,0,1
139047,-100,4,1,0,43,0,0
169523,-100,4,1,0,43,0,1
184642,-100,4,1,0,43,0,0
184761,-100,4,1,0,43,0,1
199880,-100,4,2,0,5,0,1
199999,-100,4,2,0,5,0,0

[HitObjects]
256,192,14761,12,0,16666
116,96,17142,6,0,B|296:96,1,180,6|0
376,96,18095,2,0,B|464:96,2,90,2|2|0
336,164,19047,5,2
400,308,19523,1,8
336,352,19761,1,0
272,308,19999,2,0,B|180:308,2,90,2|2|0
336,264,20952,5,2
216,164,21428,2,0,B|156:164,1,60,8|0
80,164,21904,2,0,B|44:164|44:164|16:156|4:132,2,90,2|2|0
120,232,22857,5,2
256,312,23333,2,0,B|300:272,1,60,8|0
356,216,23809,2,0,B|380:196|380:196|408:184|436:192,2,90,2|2|0
372,292,24761,5,2
256,184,25238,1,8
140,292,25714,1,2
256,184,26190,1,8
196,40,26666,2,0,B|256:68|312:40,2,120,2|8|2
256,184,28095,1,8
392,264,28571,6,0,B|347:248|303:264|303:264|259:280|215:264,1,180,2|0
140,252,29523,1,2
56,120,29999,1,8
212,112,30476,6,0,B|256:96|300:112|300:112|344:128|388:112,1,180,2|0
468,108,31428,1,2
460,264,31904,1,8
316,320,32380,6,0,B|260:344|200:320,3,120,4|8|0|8
112,192,34285,1,0
256,256,34761,1,8
400,192,35238,1,0
256,132,35714,6,0,B|256:72,2,60,8|0|0
332,268,36666,1,8
176,268,37142,1,0
256,132,37619,1,8
256,132,37857,2,0,B|340:100|432:132,2,180,0|8|0
188,172,39523,1,8
32,172,39999,5,4
112,304,40476,1,8
112,148,40952,1,0
256,92,41428,1,8
256,92,41666,2,0,B|301:76|345:92|345:92|389:108|433:92,2,180,0|8|0
256,172,43333,1,8
196,316,43809,6,0,B|320:316,2,120,4|8|0
48,268,45238,1,8
124,132,45714,1,0
256,52,46190,1,8
388,132,46666,2,0,B|476:132,2,90,2|2|0
332,188,47619,6,0,B|332:248,2,60,6|0|2
256,52,48571,1,0
180,188,49047,2,0,B|180:248,2,60,2|0|0
256,208,49761,2,0,B|256:144|256:144|288:100,1,120,2|2
368,100,50476,6,0,B|400:145|400:145|400:209,1,120,2|0
316,340,51428,1,2
256,288,51666,1,0
196,340,51904,1,0
84,232,52380,6,0,B|40:220|16:176,2,90,2|2|2
100,156,53333,2,0,B|144:168|168:212,2,90,2|2|2
44,104,54285,2,0,B|56:60|100:36,2,90,2|2|2
20,180,55238,6,0,B|8:244,2,60,6|0|2
100,316,56190,1,0
180,180,56666,2,0,B|192:244,2,60,2|0|0
172,104,57380,2,0,B|228:72|288:104,1,120,2|2
340,160,58095,6,0,B|388:136|396:92,2,90,2|2|0
312,232,59047,1,2
256,376,59523,1,0
200,232,59999,1,2
120,96,60476,2,0,B|180:92,1,60,0|0
256,84,60952,5,0
200,232,61428,1,0
256,376,61904,1,0
312,232,62380,1,0
456,296,62857,6,0,B|491:243|465:179,1,120,6|8
312,152,63809,2,0,B|256:120|196:152,1,120,2|8
46,179,64761,2,0,B|20:243|56:296,1,120,2|8
192,368,65714,5,2
256,224,66190,1,8
256,68,66666,1,2
256,68,67142,2,0,B|196:68,2,60,8|0|2
336,68,67857,1,0
412,68,68095,2,0,B|452:68|452:68|496:80|500:124,2,120,8|2|8
368,212,69523,5,2
256,320,69999,1,8
144,212,70476,1,6
176,60,70952,1,8
332,60,71428,1,2
332,60,71904,2,0,B|361:49|391:60|391:60|420:70|449:60,2,120,8|2|8
368,212,73333,5,2
256,104,73809,2,0,B|256:168,2,60,8|0|2
144,212,74761,2,0,B|114:222|84:212|84:212|55:201|26:212,2,120,8|2|8
208,356,76190,2,0,B|224:324|256:317|288:324|304:356,1,120,2|8
256,208,77142,1,2
256,208,77619,1,8
208,60,78095,6,0,B|224:88|256:107|288:88|304:60,1,120,6|8
432,152,79047,2,0,B|407:168|390:201|407:234|432:251,1,120,2|8
312,352,79999,1,2
256,208,80476,1,8
200,352,80952,6,0,B|140:352,2,60,2|0|8
256,208,81904,2,0,B|231:191|214:158|231:125|256:108,1,120,2|8
328,76,82619,1,0
400,108,82857,2,0,B|425:125|442:158|425:191|401:208,1,120,2|8
328,348,83809,1,2
328,348,84285,1,8
172,352,84761,6,0,B|92:352,2,60,2|0|8
172,272,85476,1,0
172,196,85714,2,0,B|52:196,2,120,6|8|2
256,64,87142,1,8
340,196,87619,1,2
256,328,88095,1,8
256,172,88571,6,0,B|292:120|356:112,2,120,2|8|2
256,328,89999,2,0,B|220:276|156:268,2,120,8|2|8
412,328,91428,2,0,B|456:92,1,240,2|2
332,184,92857,1,2
256,48,93333,1,4
64,132,108571,6,8,B|44:72,2,60,6|0|2
88,288,109523,2,0,B|148:308|208:288,1,120,0|2
256,228,110238,1,0
200,172,110476,1,0
256,116,110714,6,0,B|316:96|376:116,1,120,2|2
428,172,111428,1,2
484,316,111904,2,0,B|424:336|364:316,1,120,0|2
292,296,112619,1,0
256,228,112857,1,0
300,80,113333,6,0,B|212:80,2,90,2|2|2
296,160,114285,2,0,B|384:160,2,90,2|2|2
216,160,115238,2,0,B|128:160,2,90,2|2|2
256,228,116190,5,6
140,332,116666,1,2
52,204,117142,1,0
160,92,117619,2,0,B|100:76,2,60,2|0|0
236,116,118333,2,0,B|356:148,1,120,2|2
372,224,119047,6,0,B|460:248,2,90,2|2|0
348,300,119999,2,0,B|233:270,1,120,2|0
132,148,120952,2,0,B|212:60,1,120,2|0
372,60,121904,5,0
356,216,122380,1,0
256,336,122857,1,0
156,216,123333,1,0
140,60,123809,6,0,B|200:48|200:48|256:60,2,120,6|8|2
76,204,125238,1,8
232,204,125714,1,2
156,340,126190,1,8
308,296,126666,6,0,B|340:288|356:260,2,60,2|0|8
420,188,127619,2,0,B|464:140|460:76,1,120,2|8
312,128,128571,2,0,B|256:108|256:108|200:128,1,120,2|8
51,78,129523,2,0,B|48:140|92:188,1,120,2|8
180,320,130476,6,0,B|120:320,2,60,2|0|8
256,320,131190,1,0
332,320,131428,2,0,B|452:320,2,120,6|8|2
312,164,132857,2,0,B|256:184|256:184|200:164,1,120,8|2
180,320,133809,1,8
48,236,134285,6,0,B|16:288,2,60,2|0|8
84,168,134999,1,0
124,100,135238,2,0,B|157:50|157:50|214:34,1,120,2|8
256,184,136190,1,2
296,36,136666,1,8
424,124,137142,6,0,B|489:137|489:242|424:255,1,180,2|0
364,308,138095,2,0,B|394:342|446:330,2,90,2|2|0
304,256,139047,5,4
256,108,139523,1,8
208,256,140000,2,0,B|192:316,2,60,0|0|8
112,132,140952,5,0
256,188,141428,1,8
400,132,141904,2,0,B|460:132,2,60,0|0|8
376,288,142857,5,0
256,188,143333,1,8
136,288,143809,2,0,B|136:348,2,60,0|0|8
256,188,144761,5,0
256,188,145000,2,0,B|256:96,1,90,8|8
368,136,145714,2,0,B|368:76,2,60,0|0|8
316,284,146666,6,0,B|196:284,1,120,4|8
128,144,147619,1,0
256,56,148095,1,8
384,144,148571,6,0,B|428:200|384:252,1,120,0|8
256,340,149523,1,0
256,340,150000,1,8
200,196,150476,6,0,B|256:176|256:176|312:196,1,120,0|8
256,52,151428,1,0
256,52,151904,1,8
384,140,152380,6,0,B|420:200|384:256,1,120,0|8
256,340,153333,2,0,B|192:340,2,60,0|0|8
256,184,154285,5,4
104,72,167619,5,0
180,208,168095,1,0
256,72,168571,2,0,B|316:72,1,60,0|0
392,84,169047,2,0,B|432:128,1,60,0|0
452,204,169523,6,0,B|454:256|454:256|442:291|406:295,1,120,6|8
256,348,170476,2,0,B|266:310|256:289|256:289|245:268|256:231,2,120,2|8|2
108,296,171904,1,8
128,140,172380,6,8,B|104:120|96:92,2,60,2|0|8
256,48,173333,1,2
384,140,173809,2,0,B|408:120|416:92,2,60,8|0|2
336,288,174761,1,8
180,288,175238,2,0,B|124:324|68:288,1,120,2|8
84,132,176190,6,0,B|24:140,2,60,2|0|8
160,116,176904,1,0
236,100,177142,2,0,B|292:84|356:96,1,120,6|8
480,188,178095,2,0,B|424:204|360:192,1,120,2|8
340,348,179047,1,2
184,348,179523,1,8
152,192,180000,6,0,B|88:204|32:188,1,120,2|8
4,116,180714,1,0
44,48,180952,2,0,B|108:36|164:52,1,120,2|8
256,176,181904,1,2
352,52,182380,1,8
352,52,182857,2,0,B|392:54|392:54|426:84|413:126,1,120,2|8
424,280,183809,6,0,B|406:305|373:310,1,60,2|0
300,332,184285,2,0,B|268:340|240:328,1,60,8|0
168,308,184761,6,0,B|100:312|56:268,1,120,6|8
144,140,185714,1,2
256,32,186190,1,8
368,140,186666,1,2
256,252,187142,1,8
404,300,187619,6,0,B|472:324,2,60,2|0|8
256,348,188571,1,2
108,300,189047,2,0,B|40:324,2,60,8|0|2
196,172,190000,2,0,B|316:172,2,120,8|2|8
92,52,191428,6,0,B|32:52,2,60,2|0|8
168,52,192142,1,0
244,52,192380,2,0,B|282:62|303:52|303:52|324:41|361:52,2,120,6|8|2
168,188,193809,1,8
256,316,194285,1,2
344,188,194761,1,8
420,52,195238,6,0,B|452:60|468:84,2,60,2|0|8
344,44,195952,1,0
280,84,196190,2,0,B|220:96|160:84,1,120,2|8
48,188,197142,2,0,B|108:200|168:188,1,120,2|8
176,344,198095,5,2
332,344,198571,1,8
256,208,199047,2,0,B|256:324,2,90,2|2|0
256,192,199880,12,0,202857
