osu file format v9

[General]
AudioFilename: Activ - Doar cu tine.mp3
AudioLeadIn: 0
PreviewTime: 61847
Countdown: 0
SampleSet: Normal
StackLeniency: 0.6
Mode: 0
LetterboxInBreaks: 0

[Editor]
DistanceSpacing: 1.11
BeatDivisor: 4
GridSize: 4

[Metadata]
Title:Doar Cu Tine
Artist:Activ
Creator:Tony
Version:Dificil
Source:Best of Romanian Songs 2006
Tags:-kevincela- Motive Only With You Tonoicutzu

[Difficulty]
HPDrainRate:6
CircleSize:4
OverallDifficulty:6
ApproachRate:8
SliderMultiplier:1.6
SliderTickRate:2

[Events]
//Background and Video events
0,0,"activ.jpg"
Video,-100,"Activ - Doar cu tine.flv"
//Break Periods
2,93535,107821
//Storyboard Layer 0 (Background)
//Storyboard Layer 1 (Fail)
//Storyboard Layer 2 (Pass)
//Storyboard Layer 3 (Foreground)
Sprite,Foreground,Centre,"Tony.png",312,445 F,0,0,199999,1
//Storyboard Sound Samples
//Background Colour Transformations
3,100,163,162,255

[TimingPoints]
0,476.190476190476,4,1,0,43,1,0
16666,-100,4,2,0,43,0,0
16785,-100,4,1,0,43,0,0
47619,-100,4,2,0,43,0,0
62857,-100,4,1,0,43,0,1
77976,-100,4,1,0,43,0,0
78095,-100,4,1,0,43,0,1
93333,-100,4,1,0,43,0,0
108571,-100,4,2,0,43,0,0
123809,-100,4,1,0,43,0,1
139047,-100,4,1,0,43,0,0
154285,-100,4,2,0,43,0,0
169523,-100,4,1,0,43,0,1
184642,-100,4,1,0,43,0,0
184761,-100,4,1,0,43,0,1
199880,-100,4,2,0,5,0,1
199999,-100,4,2,0,5,0,0

[HitObjects]
256,192,14761,12,0,16666
44,100,17142,6,0,B|52:56|100:32|148:56|156:100,1,160,6|8
100,168,17857,1,0
88,256,18095,2,0,B|172:256,1,80,2|0
212,256,18452,1,0
300,256,18690,1,0
344,256,18809,1,0
344,344,19047,5,2
168,344,19285,1,0
256,192,19523,1,8
176,36,19761,1,0
176,36,19999,6,0,B|196:72|196:72|244:84,1,80,2|0
276,88,20357,2,0,B|313:97|313:97|333:133,1,80
340,176,20714,1,0
256,192,20952,5,2
168,344,21190,1,0
344,344,21428,1,8
256,192,21666,1,0
256,192,21904,6,0,B|176:192,1,80,2|0
132,192,22261,1,0
60,144,22499,1,0
48,100,22619,1,0
132,72,22857,5,2
256,192,23095,1,0
380,72,23333,1,8
504,196,23571,1,0
504,196,23809,6,0,B|496:240|456:256,1,80,2|0
420,280,24166,2,0,B|380:300|343:279,1,80,0|0
304,264,24523,1,0
256,340,24761,5,2
160,192,24999,1,0
256,44,25238,1,8
352,192,25476,1,0
200,109,25714,6,0,B|216:148|256:164|256:164|295:148|311:109,2,160,2|8|2
112,256,27142,1,8
256,356,27619,1,2
400,256,28095,1,8
311,109,28571,6,0,B|295:148|256:164|256:164|216:148|200:109,2,160,2|8|2
380,160,29761,1,0
320,224,29999,1,8
256,60,30476,1,2
196,224,30952,5,8
132,164,31190,1,0
216,132,31428,2,0,B|227:160|257:172|257:172|286:160|298:132,2,120,2|2|0
304,356,32380,6,0,B|308:328|294:300|258:287|221:300|207:328|212:356,2,160,4|8|0
380,312,33571,1,0
344,232,33809,1,8
256,216,34047,1,0
168,232,34285,2,0,B|126:242|108:281|108:281|90:321|49:331,2,160,0|8|0
212,44,35714,5,8
300,44,35952,1,0
204,132,36190,2,0,B|165:202,1,80,0|0
308,132,36666,2,0,B|346:202,1,80,8|0
216,276,37142,2,0,B|296:276,2,80,0|0|8
176,356,37857,2,0,B|336:356,2,160
88,356,39047,1,0
64,272,39285,5,0
120,204,39523,2,0,B|109:162|70:144|70:144|30:126|20:85,2,160,8|0|8
176,272,40714,1,0
210,190,40952,1,0
216,104,41190,2,0,B|256:92|296:104,1,80,0|8
298,190,41666,2,0,B|335:211|375:197|375:197|416:181|452:203,2,160,0|0|0
256,268,42857,1,0
184,108,43333,5,8
328,108,43571,1,0
212,192,43809,1,0
256,60,44047,1,0
300,192,44285,1,8
256,324,44523,5,0
212,192,44761,1,0
328,272,44999,1,0
184,276,45238,1,8
300,192,45476,2,0,B|460:192,1,160
500,112,46190,2,0,B|420:112,1,80,8|0
332,120,46666,2,0,B|340:76|340:76|356:40|400:32,2,120,2|2|2
256,72,47619,5,4
180,120,47857,1,0
140,200,48095,1,2
180,280,48333,1,0
256,320,48571,2,0,B|300:316|300:316|332:296,1,80,2|0
356,212,49047,2,0,B|393:235|393:235|412:267,2,80,2|0|0
272,232,49761,2,0,B|276:180|276:180|304:124|364:132,1,160,2|2
356,44,50476,5,2
272,64,50714,1,0
188,44,50952,1,2
104,64,51190,1,0
44,128,51428,2,0,B|48:172|48:172|68:204,1,80,2|0
136,148,51904,2,0,B|154:178|154:178|158:222,1,80,2|0
160,312,52380,6,0,B|116:325|116:325|80:328|47:303,2,120,2|2|2
248,312,53333,2,0,B|291:325|291:325|327:328|360:303,2,120,2|2|2
204,236,54285,2,0,B|204:116,2,120,2|2|2
304,244,55238,5,6
328,160,55476,1,0
408,196,55714,1,2
432,112,55952,1,0
352,76,56190,2,0,B|320:56|320:56|276:60,1,80,2|0
192,72,56666,2,0,B|149:75|149:75|117:55,2,80,2|0|0
244,144,57380,2,0,B|260:304,1,160,2|2
172,304,58095,6,0,B|160:184,2,120,2|2|0
216,380,59047,2,0,B|296:372|316:308,2,120,2|2|2
128,380,59999,2,0,B|48:372|28:308,2,120,2|2|2
172,304,60952,5,4
344,304,61428,1,4
344,128,61904,1,4
300,52,62142,1,0
212,52,62380,1,8
168,128,62619,1,0
180,216,62857,6,0,B|256:256|336:216,1,160,6|8
180,312,63809,2,0,B|256:352|336:312,2,160,2|8|2
256,156,65238,1,8
96,96,65714,5,2
168,44,65952,1,0
256,32,66190,1,8
344,44,66428,1,0
416,96,66666,2,0,B|440:128|436:172,1,80,2|0
440,260,67142,6,0,B|436:304|460:336,2,80,8|0|2
360,220,67857,1,0
308,288,68095,1,8
256,120,68571,1,2
204,288,69047,1,8
152,120,69523,5,2
168,32,69761,1,0
256,44,69999,1,8
344,32,70238,1,0
360,120,70476,2,0,B|400:168|400:168|420:228|380:256,1,160,6|8
216,320,71428,2,0,B|179:341|139:327|139:327|98:311|62:333,2,160,2|8|2
256,152,72857,1,8
304,76,73095,5,0
212,244,73333,1,2
208,76,73571,1,0
300,244,73809,1,8
168,160,74047,1,0
344,160,74285,2,0,B|388:160|388:160|456:160|472:224,1,160,2|8
448,308,74999,5,0
360,296,75238,1,2
256,152,75714,1,8
152,296,76190,1,2
256,152,76666,1,8
84,120,77142,5,2
132,48,77380,1,0
216,72,77619,2,0,B|256:52|292:72,1,80,8|0
380,48,78095,2,0,B|424:96|424:96|448:144|424:188,1,160,6|8
332,336,79047,2,0,B|256:304|176:336,2,160,2|8|2
256,176,80476,1,8
80,152,80952,5,2
100,236,81190,1,0
172,184,81428,1,8
152,100,81666,1,0
360,100,81904,5,2
340,184,82142,1,0
412,236,82380,1,8
432,152,82619,1,0
256,132,82857,6,0,B|256:52,2,80,2|0|8
180,292,83809,2,0,B|256:324|336:292,1,160,2|8
424,140,84761,5,2
336,140,84999,1,0
256,100,85238,1,8
176,140,85476,1,0
88,140,85714,2,0,B|52:208|52:208|32:288,1,160,6|8
200,344,86666,2,0,B|208:300|256:276|304:300|312:344,2,160,2|8|2
252,176,88095,1,8
208,92,88333,5,0
296,92,88571,1,2
172,176,88809,1,0
340,176,89047,1,8
212,264,89285,1,0
300,264,89523,6,0,B|340:304|340:304|396:332|436:296,1,160,2|8
508,244,90238,1,0
452,176,90476,1,2
312,72,90952,2,0,B|304:116|256:140|208:116|200:72,1,160,8|2
256,240,91904,5,8
256,328,92142,1,0
180,280,92380,5,0
160,280,92499,1,0
332,280,92738,1,0
352,280,92857,1,0
300,160,93095,5,0
212,160,93333,1,4
256,320,108571,5,4
332,272,108809,1,0
372,192,109047,1,2
332,112,109285,1,0
256,72,109523,2,0,B|212:76|212:76|180:96,1,80,2|0
156,180,109999,2,0,B|119:157|119:157|100:125,2,80,2|0|0
240,160,110714,2,0,B|236:212|236:212|208:268|148:260,1,160,2|2
108,336,111428,5,2
196,340,111666,1,0
276,300,111904,1,2
316,220,112142,1,0
352,140,112380,2,0,B|396:144|396:144|428:164,1,80,2|0
484,96,112857,2,0,B|502:126|502:126|506:170,1,80,2|0
460,244,113333,6,0,B|447:288|447:288|444:324|469:357,2,120,2|2|2
372,260,114285,2,0,B|332:281|332:281|304:304|299:345,2,120,2|2|2
400,176,115238,2,0,B|377:58,2,120,2|2|2
256,252,116190,5,6
184,200,116428,1,0
212,116,116666,1,2
300,116,116904,1,0
328,200,117142,2,0,B|360:220|360:220|404:216,1,80,2|0
404,304,117619,2,0,B|447:307|447:307|479:287,2,80,2|0|0
316,312,118333,2,0,B|156:328,1,160,2|2
76,288,119047,6,0,B|45:307|41:339|52:370|86:383,2,120,2|2|0
152,244,119999,2,0,B|232:236|252:172,2,120,2|2|2
72,204,120952,2,0,B|57:125|-8:110,2,120,2|2|2
148,160,121904,5,4
256,300,122380,1,4
364,160,122857,1,4
324,80,123095,1,0
256,136,123333,1,8
188,80,123571,1,0
148,160,123809,6,0,B|116:204|116:204|88:252|96:308,2,160,6|8|2
256,300,125238,1,8
364,160,125714,2,0,B|396:204|396:204|424:252|416:308,1,160,2|8
256,360,126666,5,2
196,296,126904,1,0
212,208,127142,1,8
300,208,127380,1,0
256,132,127619,1,2
212,208,127857,1,0
196,296,128095,6,0,B|116:296,2,80,8|0|2
256,360,128809,1,0
316,296,129047,2,0,B|488:296,2,160,8|2|8
360,120,130476,5,2
344,32,130714,1,0
256,44,130952,1,8
168,32,131190,1,0
152,120,131428,2,0,B|112:168|112:168|92:228|132:256,1,160,6|8
296,320,132380,2,0,B|333:341|373:327|373:327|414:311|450:333,2,160,2|8|2
256,152,133809,1,8
208,76,134047,5,0
300,240,134285,1,2
304,76,134523,1,0
212,240,134761,1,8
344,160,134999,1,0
168,160,135238,2,0,B|124:160|124:160|56:160|40:224,1,160,2|8
64,308,135952,5,0
152,296,136190,1,2
256,152,136666,1,8
360,296,137142,2,0,B|404:288|436:268|436:268|452:228|444:188,2,160,2|8|2
256,152,138571,1,2
256,328,139047,5,4
256,328,139523,1,8
112,224,140000,2,0,B|112:144,2,80,0|0|8
256,120,140952,5,0
400,224,141428,1,8
400,224,141904,2,0,B|400:304,2,80,0|0|8
256,328,142857,5,0
112,224,143333,1,8
112,224,143809,2,0,B|32:224,2,80,0|0|8
256,120,144761,5,0
256,208,145000,2,0,B|256:312,1,80,8|0
256,328,145357,1,8
368,260,145714,2,0,B|448:260,2,80,0|0|8
432,96,146666,5,4
256,120,147142,1,8
80,96,147619,1,0
36,172,147857,1,0
76,252,148095,2,0,B|116:260|156:252,1,80,8|0
240,232,148571,2,0,B|320:212|400:232,1,160,0|8
344,64,149523,5,0
256,48,149761,1,0
168,64,150000,2,0,B|160:104|168:144,1,80,8|0
96,192,150476,2,0,B|115:272|171:333,1,160,0|8
336,268,151428,5,0
396,332,151666,1,0
456,268,151904,1,8
436,184,152142,1,0
348,184,152380,2,0,B|268:164|188:184,1,160,0|8
128,124,153095,5,0
128,124,153214,1,0
128,124,153333,1,0
104,208,153571,1,0
168,268,153809,1,8
332,328,154285,5,4
420,328,154523,1,0
464,252,154761,1,2
420,176,155000,1,0
332,176,155238,2,0,B|252:176,1,80,2|0
212,100,155714,2,0,B|292:100,2,80,2|0|0
172,176,156428,2,0,B|148:252|148:252|168:328,1,160,2|2
256,348,157142,5,2
328,296,157380,1,0
256,244,157619,1,2
328,192,157857,1,0
256,140,158095,2,0,B|256:60,2,80,2|0|2
184,192,158809,1,0
120,252,159047,6,0,B|64:280|4:252,2,120,2|2|2
100,168,160000,2,0,B|72:112|100:52,2,120,2|2|2
184,192,160952,2,0,B|240:164|300:192,2,120,2|2|2
204,280,161904,5,4
256,352,162142,1,0
340,324,162380,1,2
428,332,162619,1,0
436,244,162857,2,0,B|356:236,1,80,2|0
368,148,163333,2,0,B|448:156,2,80,2|0|0
408,72,164047,2,0,B|248:56,1,160,2|2
192,120,164761,6,0,B|72:104,2,120,2|2|0
152,200,165714,2,0,B|235:208|235:208|276:197,2,120,2|2|2
184,285,166666,2,0,B|100:276|100:276|59:287,2,120,2|2|2
256,340,167619,5,4
256,308,168095,1,4
256,276,168571,2,0,B|256:192,1,80,4|0
216,116,169047,2,0,B|296:116,1,80,8|0
332,36,169523,6,0,B|400:96|360:180,1,160,6|8
484,308,170476,2,0,B|424:376|340:336,1,160,2|8
164,344,171428,2,0,B|96:284|136:200,1,160,2|8
200,32,172380,5,2
256,100,172619,1,0
312,32,172857,1,8
256,100,173095,1,0
256,188,173333,2,0,B|256:268,1,80,2|0
168,284,173809,5,8
212,360,174047,1,0
300,360,174285,1,2
344,284,174523,1,0
256,268,174761,2,0,B|256:108,2,160,8|2|8
416,196,176190,5,2
484,140,176428,1,0
416,84,176666,1,8
344,136,176904,1,0
256,136,177142,2,0,B|96:136,1,160,6|8
256,212,178095,2,0,B|96:212,2,160,2|8|2
124,328,179523,1,8
208,296,179761,5,0
256,372,180000,1,2
304,296,180238,1,0
388,328,180476,2,0,B|420:296|420:256,1,80,8|0
448,176,180952,2,0,B|400:112|308:112,1,160,2|8
256,184,181666,1,0
203,111,181904,2,0,B|112:112|64:176,1,160,2|8
184,308,182857,2,0,B|260:340|340:308,1,160,2|8
84,120,183809,5,2
132,48,184047,1,0
216,72,184285,2,0,B|256:52|292:72,1,80,8|0
380,48,184761,2,0,B|424:96|424:96|448:144|424:188,1,160,6|8
332,336,185714,2,0,B|256:304|176:336,2,160,2|8|2
256,176,187142,1,8
432,200,187619,5,2
412,116,187857,1,0
340,168,188095,1,8
360,252,188333,1,0
152,252,188571,5,2
172,168,188809,1,0
100,116,189047,1,8
80,200,189285,1,0
256,220,189523,6,0,B|256:300,2,80,2|0|8
332,60,190476,2,0,B|256:28|176:60,1,160,2|8
88,212,191428,5,2
176,212,191666,1,0
256,252,191904,1,8
336,212,192142,1,0
424,212,192380,2,0,B|460:144|460:144|480:64,1,160,6|8
304,44,193333,2,0,B|256:36|256:36|200:28|156:76,2,160,2|8|2
256,212,194761,1,8
320,272,195000,5,0
256,332,195238,1,2
192,272,195476,1,0
256,212,195714,1,8
300,136,195952,1,0
212,136,196190,6,0,B|172:96|172:96|116:68|76:104,1,160,2|8
8,160,196904,1,0
88,192,197142,1,2
200,328,197619,2,0,B|208:284|256:260|304:284|312:328,1,160,8|2
212,184,198571,5,8
300,184,198809,1,0
256,108,199047,5,2
256,108,199166,1,0
256,256,199404,1,0
256,256,199523,2,0,B|256:336,1,80,8|0
256,192,199880,12,0,202857
