osu file format v12

[General]
AudioFilename: 10_acrnym-knife.mp3
AudioLeadIn: 0
PreviewTime: -1
Countdown: 1
SampleSet: Soft
StackLeniency: 0.7
Mode: 1
LetterboxInBreaks: 1
WidescreenStoryboard: 0

[Editor]
Bookmarks: 269233
DistanceSpacing: 0.8
BeatDivisor: 4
GridSize: 32

[Metadata]
Title:Knife
TitleUnicode:Knife
Artist:Acrnym
ArtistUnicode:Acrnym
Creator:LZD
Version:LZD's Taiko
Source:
Tags:breakcore
BeatmapID:290466
BeatmapSetID:111694

[Difficulty]
HPDrainRate:5
CircleSize:5
OverallDifficulty:5
ApproachRate:5
SliderMultiplier:1.4
SliderTickRate:1

[Events]
//Background and Video events
0,0,"Taiko BG knife.jpg",0,0
//Break Periods
//Storyboard Layer 0 (Background)
//Storyboard Layer 1 (Fail)
//Storyboard Layer 2 (Pass)
//Storyboard Layer 3 (Foreground)
//Storyboard Sound Samples
//Background Colour Transformations
3,100,163,162,255

[TimingPoints]
50844,300,4,2,0,100,1,0
71244,-100,4,2,0,100,0,0
71319,-90.0900900900901,4,2,0,100,0,0
71394,-81.9672131147541,4,2,0,100,0,0
71469,-75.187969924812,4,2,0,100,0,0
71544,-69.4444444444444,4,2,0,100,0,0
71619,-64.5161290322581,4,2,0,100,0,0
71694,-60.2409638554217,4,2,0,100,0,0
71769,-56.4971751412429,4,2,0,100,0,0
71844,-50.251256281407,4,2,0,100,0,0
72144,-133.333333333333,4,2,0,100,0,0
76044,-100,4,2,0,100,0,0
101994,-200,4,2,0,100,0,0
118044,-133.333333333333,4,2,0,100,0,0
126444,-60.6060606060605,4,2,0,100,0,0
126519,-133.333333333333,4,2,0,100,0,0
133044,-200,4,2,0,100,0,0
134844,-100,4,2,0,100,0,0
151644,-83.3333333333333,4,2,0,100,0,1
171744,-90.9090909090909,4,2,0,100,0,1
172644,-100,4,2,0,100,0,1
173694,-83.3333333333333,4,2,0,100,0,1
185244,-100,4,2,0,100,0,0
202194,-83.3333333333333,4,2,0,100,0,1
218844,-100,4,2,0,100,0,0

[HitObjects]
256,192,50844,1,8,0:0:0:0:
256,192,50994,1,0,0:0:0:0:
256,192,51144,1,8,0:0:0:0:
256,192,51219,1,8,0:0:0:0:
256,192,51294,1,0,0:0:0:0:
256,192,51369,1,0,0:0:0:0:
256,192,51444,1,8,0:0:0:0:
256,192,51594,1,8,0:0:0:0:
256,192,51669,1,0,0:0:0:0:
256,192,51744,1,8,0:0:0:0:
256,192,51894,1,0,0:0:0:0:
256,192,52044,1,12,0:0:0:0:
256,192,52344,1,0,0:0:0:0:
256,192,52494,1,8,0:0:0:0:
256,192,52569,1,8,0:0:0:0:
256,192,52644,1,0,0:0:0:0:
256,192,52794,1,0,0:0:0:0:
256,192,52944,1,8,0:0:0:0:
256,192,53094,1,0,0:0:0:0:
256,192,53169,1,0,0:0:0:0:
256,192,53244,1,8,0:0:0:0:
256,192,53394,1,12,0:0:0:0:
256,192,53619,1,4,0:0:0:0:
256,192,53844,1,12,0:0:0:0:
256,192,53994,1,0,0:0:0:0:
256,192,54069,1,0,0:0:0:0:
256,192,54144,1,8,0:0:0:0:
320,192,54444,1,4,0:0:0:0:
320,192,54744,1,4,0:0:0:0:
320,192,55044,1,8,0:0:0:0:
320,192,55194,1,0,0:0:0:0:
320,192,55269,1,8,0:0:0:0:
320,192,55344,1,8,0:0:0:0:
288,192,55494,1,0,0:0:0:0:
288,192,55644,1,8,0:0:0:0:
288,192,55719,1,0,0:0:0:0:
288,192,55794,1,0,0:0:0:0:
288,192,55944,1,0,0:0:0:0:
288,192,56094,1,0,0:0:0:0:
288,192,56169,1,8,0:0:0:0:
288,192,56244,1,8,0:0:0:0:
288,192,56394,1,8,0:0:0:0:
288,192,56469,1,8,0:0:0:0:
288,192,56544,1,0,0:0:0:0:
288,192,56694,1,0,0:0:0:0:
288,192,56769,1,0,0:0:0:0:
288,192,56844,1,8,0:0:0:0:
288,192,56919,1,8,0:0:0:0:
288,192,56994,1,0,0:0:0:0:
288,192,57144,1,12,0:0:0:0:
288,192,57444,1,8,0:0:0:0:
256,160,57594,1,8,0:0:0:0:
256,160,57669,1,0,0:0:0:0:
288,192,57744,1,8,0:0:0:0:
288,192,57819,1,0,0:0:0:0:
288,192,57894,1,8,0:0:0:0:
256,160,58044,1,8,0:0:0:0:
256,160,58194,1,0,0:0:0:0:
256,160,58269,1,0,0:0:0:0:
256,160,58344,1,8,0:0:0:0:
256,160,58494,1,0,0:0:0:0:
256,160,58644,1,0,0:0:0:0:
256,160,58719,1,8,0:0:0:0:
256,160,58794,1,0,0:0:0:0:
256,160,58869,1,0,0:0:0:0:
256,160,58944,1,8,0:0:0:0:
256,160,59094,1,0,0:0:0:0:
224,192,59169,1,0,0:0:0:0:
256,192,59244,1,8,0:0:0:0:
256,192,59394,1,0,0:0:0:0:
256,192,59469,1,0,0:0:0:0:
256,192,59544,1,8,0:0:0:0:
256,192,59694,1,0,0:0:0:0:
256,192,59769,1,0,0:0:0:0:
256,192,59844,1,8,0:0:0:0:
256,192,59994,1,8,0:0:0:0:
224,160,60069,1,0,0:0:0:0:
224,160,60144,1,8,0:0:0:0:
288,224,60219,1,8,0:0:0:0:
224,160,60294,1,0,0:0:0:0:
224,160,60369,1,0,0:0:0:0:
224,160,60444,1,8,0:0:0:0:
288,224,60744,1,8,0:0:0:0:
256,128,61044,1,4,0:0:0:0:
224,192,61344,1,8,0:0:0:0:
256,192,61494,1,0,0:0:0:0:
256,192,61569,1,0,0:0:0:0:
256,192,61644,1,8,0:0:0:0:
256,192,61719,1,0,0:0:0:0:
256,192,61869,1,0,0:0:0:0:
256,192,61944,1,8,0:0:0:0:
256,192,62094,1,0,0:0:0:0:
256,192,62244,1,0,0:0:0:0:
256,192,62319,1,8,0:0:0:0:
256,192,62394,1,0,0:0:0:0:
256,192,62469,1,0,0:0:0:0:
256,192,62544,1,8,0:0:0:0:
256,192,62694,1,0,0:0:0:0:
256,192,62769,1,8,0:0:0:0:
256,192,62919,1,0,0:0:0:0:
256,192,62994,1,8,0:0:0:0:
256,192,63069,1,0,0:0:0:0:
256,192,63144,1,8,0:0:0:0:
256,192,63219,1,0,0:0:0:0:
256,192,63369,1,0,0:0:0:0:
256,192,63444,1,8,0:0:0:0:
256,192,63594,1,4,0:0:0:0:
256,192,63744,1,12,0:0:0:0:
256,192,63894,1,4,0:0:0:0:
256,192,64044,1,12,0:0:0:0:
256,192,64194,1,8,0:0:0:0:
256,192,64269,1,8,0:0:0:0:
256,192,64344,1,0,0:0:0:0:
256,192,64419,1,8,0:0:0:0:
256,192,64494,1,0,0:0:0:0:
256,192,64569,1,0,0:0:0:0:
256,192,64719,1,0,0:0:0:0:
256,192,64794,1,8,0:0:0:0:
352,224,64944,1,0,0:0:0:0:
352,224,65094,1,8,0:0:0:0:
320,160,65169,1,8,0:0:0:0:
320,160,65244,1,0,0:0:0:0:
320,160,65394,1,0,0:0:0:0:
320,160,65469,1,0,0:0:0:0:
256,192,65544,5,8,0:0:0:0:
256,160,65644,1,0,0:0:0:0:
256,160,65744,1,8,0:0:0:0:
256,160,65844,1,0,0:0:0:0:
256,160,65944,1,0,0:0:0:0:
256,160,66044,1,8,0:0:0:0:
256,160,66144,1,8,0:0:0:0:
288,224,66219,1,0,0:0:0:0:
288,224,66294,1,8,0:0:0:0:
192,128,66444,1,0,0:0:0:0:
192,128,66594,1,8,0:0:0:0:
192,128,66669,1,8,0:0:0:0:
192,128,66744,1,0,0:0:0:0:
192,128,66894,1,8,0:0:0:0:
192,128,66969,1,0,0:0:0:0:
192,128,67044,1,0,0:0:0:0:
192,128,67194,1,0,0:0:0:0:
192,128,67269,1,0,0:0:0:0:
192,128,67344,1,0,0:0:0:0:
192,128,67644,1,8,0:0:0:0:
192,128,67794,1,8,0:0:0:0:
192,128,67944,1,8,0:0:0:0:
192,128,68019,1,8,0:0:0:0:
192,128,68094,1,8,0:0:0:0:
192,128,68169,1,0,0:0:0:0:
192,128,68244,1,8,0:0:0:0:
192,128,68394,1,8,0:0:0:0:
192,128,68544,1,0,0:0:0:0:
192,96,68769,1,8,0:0:0:0:
192,96,68844,1,8,0:0:0:0:
192,96,68919,1,0,0:0:0:0:
192,96,68994,1,8,0:0:0:0:
192,96,69069,1,0,0:0:0:0:
192,96,69144,1,0,0:0:0:0:
192,96,69219,1,0,0:0:0:0:
192,96,69294,1,8,0:0:0:0:
192,96,69369,1,0,0:0:0:0:
192,96,69444,1,8,0:0:0:0:
192,96,69519,1,8,0:0:0:0:
192,96,69594,1,0,0:0:0:0:
192,96,69669,1,0,0:0:0:0:
192,96,69744,1,8,0:0:0:0:
192,96,69894,1,0,0:0:0:0:
192,96,69969,1,8,0:0:0:0:
192,96,70119,1,0,0:0:0:0:
192,96,70194,1,8,0:0:0:0:
192,96,70494,1,8,0:0:0:0:
192,96,70569,1,8,0:0:0:0:
192,96,70644,1,0,0:0:0:0:
256,192,70794,1,0,0:0:0:0:
256,192,70944,1,8,0:0:0:0:
224,192,71019,1,0,0:0:0:0:
224,192,71094,1,8,0:0:0:0:
224,160,71244,1,0,0:0:0:0:
224,160,71319,1,0,0:0:0:0:
224,160,71394,1,0,0:0:0:0:
224,160,71469,1,0,0:0:0:0:
224,160,71544,1,8,0:0:0:0:
224,160,71619,1,8,0:0:0:0:
224,160,71694,1,8,0:0:0:0:
224,160,71769,1,8,0:0:0:0:
224,160,71844,1,8,0:0:0:0:
224,160,72294,1,8,0:0:0:0:
224,160,72444,1,8,0:0:0:0:
224,160,72594,1,0,0:0:0:0:
224,160,72744,1,8,0:0:0:0:
224,160,73044,1,8,0:0:0:0:
224,160,73644,1,0,0:0:0:0:
224,160,73794,1,0,0:0:0:0:
224,160,73944,1,8,0:0:0:0:
224,160,74394,1,8,0:0:0:0:
224,160,74544,1,0,0:0:0:0:
224,160,74694,1,0,0:0:0:0:
224,160,74844,1,8,0:0:0:0:
224,160,75144,1,0,0:0:0:0:
256,192,75444,12,0,75969,0:0:0:0:
288,224,76044,5,8,0:0:0:0:
288,192,76119,1,0,0:0:0:0:
288,192,76194,1,0,0:0:0:0:
288,192,76269,1,0,0:0:0:0:
288,192,76344,1,8,0:0:0:0:
288,192,76419,1,0,0:0:0:0:
288,192,76494,1,0,0:0:0:0:
288,192,76569,1,0,0:0:0:0:
288,192,76644,1,8,0:0:0:0:
288,192,76719,1,0,0:0:0:0:
288,192,76794,1,0,0:0:0:0:
288,192,76869,1,0,0:0:0:0:
288,192,76944,1,8,0:0:0:0:
288,192,77019,1,0,0:0:0:0:
288,192,77094,1,0,0:0:0:0:
288,192,77169,1,0,0:0:0:0:
288,192,77244,1,8,0:0:0:0:
288,192,77394,1,12,0:0:0:0:
288,192,77544,1,4,0:0:0:0:
288,192,77694,1,4,0:0:0:0:
288,192,77844,1,12,0:0:0:0:
288,192,78144,1,0,0:0:0:0:
288,192,78219,1,8,0:0:0:0:
288,192,78294,1,8,0:0:0:0:
288,192,78369,1,8,0:0:0:0:
288,192,78444,1,0,0:0:0:0:
288,192,78519,1,8,0:0:0:0:
288,192,78594,1,8,0:0:0:0:
288,192,78669,1,8,0:0:0:0:
288,192,78744,1,0,0:0:0:0:
288,192,78819,1,8,0:0:0:0:
288,192,78894,1,8,0:0:0:0:
288,192,78969,1,8,0:0:0:0:
288,192,79044,1,0,0:0:0:0:
288,192,79194,1,0,0:0:0:0:
288,192,79269,1,8,0:0:0:0:
288,192,79344,1,0,0:0:0:0:
288,224,79419,1,8,0:0:0:0:
288,192,79494,1,8,0:0:0:0:
288,192,79644,1,0,0:0:0:0:
288,224,79794,1,8,0:0:0:0:
288,224,79869,1,8,0:0:0:0:
288,224,79944,1,0,0:0:0:0:
288,224,80244,1,8,0:0:0:0:
288,224,80394,1,0,0:0:0:0:
288,224,80544,1,8,0:0:0:0:
288,224,80619,1,8,0:0:0:0:
288,224,80694,1,8,0:0:0:0:
288,224,80769,1,0,0:0:0:0:
288,224,80844,1,0,0:0:0:0:
288,224,80919,1,0,0:0:0:0:
288,224,80994,1,8,0:0:0:0:
288,224,81069,1,0,0:0:0:0:
288,224,81144,1,8,0:0:0:0:
288,224,81444,1,0,0:0:0:0:
288,224,81594,1,8,0:0:0:0:
288,224,81669,1,0,0:0:0:0:
320,192,81744,1,8,0:0:0:0:
288,224,81819,1,0,0:0:0:0:
288,224,81894,1,0,0:0:0:0:
288,224,82044,1,8,0:0:0:0:
288,224,82119,1,0,0:0:0:0:
288,224,82269,1,0,0:0:0:0:
288,224,82344,1,8,0:0:0:0:
288,224,82494,1,0,0:0:0:0:
288,224,82569,1,8,0:0:0:0:
288,224,82719,1,0,0:0:0:0:
288,224,82794,1,8,0:0:0:0:
288,224,82944,1,0,0:0:0:0:
320,192,83019,1,8,0:0:0:0:
320,192,83169,1,0,0:0:0:0:
320,192,83244,1,8,0:0:0:0:
320,192,83394,1,0,0:0:0:0:
320,192,83469,1,8,0:0:0:0:
320,192,83619,1,0,0:0:0:0:
320,192,83694,1,8,0:0:0:0:
320,192,83844,1,0,0:0:0:0:
320,192,83919,1,8,0:0:0:0:
320,192,84069,1,0,0:0:0:0:
320,192,84144,1,8,0:0:0:0:
320,192,84294,1,8,0:0:0:0:
320,192,84444,1,0,0:0:0:0:
320,192,84594,1,8,0:0:0:0:
320,192,84669,1,0,0:0:0:0:
320,192,84744,1,8,0:0:0:0:
320,192,84894,1,8,0:0:0:0:
320,192,84969,1,0,0:0:0:0:
320,192,85044,1,0,0:0:0:0:
320,192,85119,1,8,0:0:0:0:
320,192,85194,1,8,0:0:0:0:
320,192,85344,1,8,0:0:0:0:
320,192,85419,1,0,0:0:0:0:
320,192,85494,1,8,0:0:0:0:
320,192,85569,1,8,0:0:0:0:
320,192,85644,1,0,0:0:0:0:
320,192,85794,1,4,0:0:0:0:
320,192,85944,1,12,0:0:0:0:
320,192,86094,1,4,0:0:0:0:
320,192,86244,1,0,0:0:0:0:
320,192,86319,1,8,0:0:0:0:
320,192,86394,1,0,0:0:0:0:
320,192,86469,1,8,0:0:0:0:
320,192,86544,1,8,0:0:0:0:
320,192,86694,1,8,0:0:0:0:
320,192,86769,1,0,0:0:0:0:
320,192,86844,1,0,0:0:0:0:
320,192,86994,1,8,0:0:0:0:
320,192,87144,1,8,0:0:0:0:
320,192,87219,1,0,0:0:0:0:
320,192,87294,1,0,0:0:0:0:
320,192,87369,1,8,0:0:0:0:
320,192,87444,1,0,0:0:0:0:
320,192,87519,1,8,0:0:0:0:
320,192,87594,1,8,0:0:0:0:
320,192,87744,1,12,0:0:0:0:
320,192,87894,1,4,0:0:0:0:
320,192,88044,1,12,0:0:0:0:
320,192,88194,1,4,0:0:0:0:
320,192,88344,1,12,0:0:0:0:
320,192,88494,1,4,0:0:0:0:
320,192,88644,1,12,0:0:0:0:
320,192,88794,1,0,0:0:0:0:
320,192,88869,1,8,0:0:0:0:
320,192,88944,1,0,0:0:0:0:
320,192,89019,1,8,0:0:0:0:
320,192,89094,1,8,0:0:0:0:
320,192,89169,1,0,0:0:0:0:
320,192,89244,1,8,0:0:0:0:
64,160,89319,1,8,0:0:0:0:
320,192,89394,1,8,0:0:0:0:
320,192,89469,1,0,0:0:0:0:
320,192,89544,1,8,0:0:0:0:
192,160,89694,1,0,0:0:0:0:
192,192,89844,1,0,0:0:0:0:
192,192,90069,1,0,0:0:0:0:
91,171,90144,1,0,0:0:0:0:
256,128,90369,1,0,0:0:0:0:
91,171,90444,1,8,0:0:0:0:
256,128,90669,1,0,0:0:0:0:
256,128,90744,1,8,0:0:0:0:
256,128,90894,1,8,0:0:0:0:
256,128,91044,1,0,0:0:0:0:
224,192,91194,1,8,0:0:0:0:
224,192,91344,1,0,0:0:0:0:
224,192,91419,1,0,0:0:0:0:
224,192,91494,1,8,0:0:0:0:
224,192,91644,1,4,0:0:0:0:
224,192,91794,1,0,0:0:0:0:
224,192,91944,1,0,0:0:0:0:
224,192,92019,1,8,0:0:0:0:
224,192,92094,1,0,0:0:0:0:
224,192,92244,1,4,0:0:0:0:
224,192,92394,1,0,0:0:0:0:
224,192,92544,1,8,0:0:0:0:
224,192,92619,1,0,0:0:0:0:
224,192,92694,1,8,0:0:0:0:
256,192,92844,1,4,0:0:0:0:
256,192,93144,1,4,0:0:0:0:
256,192,93444,1,12,0:0:0:0:
256,192,93594,1,4,0:0:0:0:
256,192,93894,1,4,0:0:0:0:
256,192,94194,1,12,0:0:0:0:
256,192,94344,1,4,0:0:0:0:
256,192,94644,1,4,0:0:0:0:
256,192,94944,1,12,0:0:0:0:
256,192,95094,1,12,0:0:0:0:
256,192,95244,1,8,0:0:0:0:
256,192,95319,1,0,0:0:0:0:
256,192,95394,1,0,0:0:0:0:
256,192,95469,1,8,0:0:0:0:
256,192,95544,1,8,0:0:0:0:
256,192,95694,1,0,0:0:0:0:
256,192,95769,1,8,0:0:0:0:
256,192,95844,1,0,0:0:0:0:
256,192,95919,1,0,0:0:0:0:
256,192,95994,1,8,0:0:0:0:
256,192,96069,1,8,0:0:0:0:
256,192,96144,1,8,0:0:0:0:
256,192,96294,1,8,0:0:0:0:
256,192,96369,1,0,0:0:0:0:
256,192,96444,1,8,0:0:0:0:
256,192,96519,1,0,0:0:0:0:
256,192,96594,1,0,0:0:0:0:
256,192,96744,1,0,0:0:0:0:
256,192,96819,1,8,0:0:0:0:
256,192,96969,1,0,0:0:0:0:
256,192,97044,1,8,0:0:0:0:
256,192,97194,1,0,0:0:0:0:
256,192,97269,1,8,0:0:0:0:
256,192,97419,1,8,0:0:0:0:
256,192,97494,1,8,0:0:0:0:
256,192,97569,1,8,0:0:0:0:
256,192,97644,1,0,0:0:0:0:
256,192,97719,1,0,0:0:0:0:
256,192,97869,1,8,0:0:0:0:
256,192,97944,1,0,0:0:0:0:
256,192,98094,1,4,0:0:0:0:
256,192,98244,1,12,0:0:0:0:
320,192,98394,1,12,0:0:0:0:
256,192,98544,1,8,0:0:0:0:
256,192,98619,1,0,0:0:0:0:
256,192,98694,1,0,0:0:0:0:
256,192,98769,1,8,0:0:0:0:
256,192,98844,1,0,0:0:0:0:
320,192,98994,1,8,0:0:0:0:
256,192,99144,1,8,0:0:0:0:
320,192,99294,1,0,0:0:0:0:
288,192,99369,1,8,0:0:0:0:
288,192,99519,1,0,0:0:0:0:
288,192,99594,1,8,0:0:0:0:
256,192,99744,12,0,100269,0:0:0:0:
256,192,100344,12,0,100869,0:0:0:0:
256,192,100944,12,0,101169,0:0:0:0:
288,160,101244,5,0,0:0:0:0:
320,128,101344,1,8,0:0:0:0:
320,128,101444,1,0,0:0:0:0:
320,128,101544,1,0,0:0:0:0:
320,128,101644,1,8,0:0:0:0:
320,128,101744,1,0,0:0:0:0:
320,128,101844,1,8,0:0:0:0:
320,160,103344,1,0,0:0:0:0:
320,160,105444,1,8,0:0:0:0:
320,160,107544,1,8,0:0:0:0:
320,160,109044,1,0,0:0:0:0:
320,160,109194,1,8,0:0:0:0:
320,160,109344,1,8,0:0:0:0:
320,160,109644,1,8,0:0:0:0:
320,160,111744,1,0,0:0:0:0:
320,160,113844,1,8,0:0:0:0:
320,160,115944,1,8,0:0:0:0:
320,160,118044,1,8,0:0:0:0:
288,160,118194,1,0,0:0:0:0:
320,128,118344,1,8,0:0:0:0:
320,128,118419,1,8,0:0:0:0:
320,160,118494,1,8,0:0:0:0:
320,128,118644,1,8,0:0:0:0:
320,128,118719,1,0,0:0:0:0:
320,128,118794,1,8,0:0:0:0:
320,128,118869,1,8,0:0:0:0:
320,128,118944,1,8,0:0:0:0:
320,128,119094,1,0,0:0:0:0:
320,128,119244,1,0,0:0:0:0:
320,128,119394,1,8,0:0:0:0:
320,128,119544,1,8,0:0:0:0:
320,128,119619,1,8,0:0:0:0:
320,128,119694,1,0,0:0:0:0:
320,128,119769,1,8,0:0:0:0:
320,128,119844,1,8,0:0:0:0:
320,128,119919,1,0,0:0:0:0:
320,128,119994,1,8,0:0:0:0:
320,128,120144,1,12,0:0:0:0:
320,128,120294,1,8,0:0:0:0:
320,128,120369,1,8,0:0:0:0:
320,128,120444,1,8,0:0:0:0:
320,128,120519,1,8,0:0:0:0:
320,128,120594,1,8,0:0:0:0:
320,128,120669,1,8,0:0:0:0:
320,128,120744,1,0,0:0:0:0:
320,128,121044,1,12,0:0:0:0:
320,128,121344,1,0,0:0:0:0:
320,128,121419,1,0,0:0:0:0:
320,128,121494,1,0,0:0:0:0:
320,128,121569,1,8,0:0:0:0:
320,128,121644,1,8,0:0:0:0:
320,128,121794,1,8,0:0:0:0:
320,128,121869,1,8,0:0:0:0:
320,128,121944,1,8,0:0:0:0:
320,128,122094,1,0,0:0:0:0:
320,128,122244,1,8,0:0:0:0:
320,128,122394,1,8,0:0:0:0:
320,128,122469,1,0,0:0:0:0:
320,128,122619,1,8,0:0:0:0:
320,128,122694,1,0,0:0:0:0:
256,192,122844,1,8,0:0:0:0:
256,192,122919,1,0,0:0:0:0:
256,192,123069,1,0,0:0:0:0:
256,192,123144,1,8,0:0:0:0:
256,192,123294,1,8,0:0:0:0:
256,192,123369,1,0,0:0:0:0:
256,192,123444,1,8,0:0:0:0:
256,192,123594,1,0,0:0:0:0:
256,192,123744,1,0,0:0:0:0:
256,192,123894,1,0,0:0:0:0:
256,192,124044,1,8,0:0:0:0:
256,192,124119,1,8,0:0:0:0:
256,192,124194,1,0,0:0:0:0:
256,192,124344,1,0,0:0:0:0:
256,192,124494,1,8,0:0:0:0:
256,192,124569,1,8,0:0:0:0:
256,192,124644,1,8,0:0:0:0:
256,192,124719,1,0,0:0:0:0:
256,192,124794,1,8,0:0:0:0:
256,192,124944,1,8,0:0:0:0:
256,192,125094,1,0,0:0:0:0:
256,192,125244,1,8,0:0:0:0:
256,192,125394,1,0,0:0:0:0:
256,192,125544,1,0,0:0:0:0:
256,192,125694,1,8,0:0:0:0:
256,192,125769,1,0,0:0:0:0:
256,192,125844,1,0,0:0:0:0:
256,192,125919,1,8,0:0:0:0:
256,192,125994,1,8,0:0:0:0:
192,128,126069,1,0,0:0:0:0:
192,128,126144,1,8,0:0:0:0:
224,128,126444,1,4,0:0:0:0:
256,160,126744,1,8,0:0:0:0:
256,160,126894,1,8,0:0:0:0:
256,160,126969,1,8,0:0:0:0:
256,160,127044,1,0,0:0:0:0:
256,160,127194,1,8,0:0:0:0:
256,160,127344,1,8,0:0:0:0:
256,160,127419,1,0,0:0:0:0:
256,160,127494,1,8,0:0:0:0:
256,160,127569,1,0,0:0:0:0:
256,160,127644,1,8,0:0:0:0:
256,160,127719,1,8,0:0:0:0:
256,160,127794,1,0,0:0:0:0:
320,256,127869,1,8,0:0:0:0:
320,256,127944,1,0,0:0:0:0:
192,160,128094,1,12,0:0:0:0:
192,160,128394,1,8,0:0:0:0:
192,160,128469,1,8,0:0:0:0:
192,160,128544,1,0,0:0:0:0:
192,160,128619,1,0,0:0:0:0:
192,160,128694,1,0,0:0:0:0:
192,160,128769,1,8,0:0:0:0:
192,160,128844,1,0,0:0:0:0:
192,160,128994,1,8,0:0:0:0:
192,160,129144,1,0,0:0:0:0:
192,160,129294,1,0,0:0:0:0:
192,160,129444,1,8,0:0:0:0:
192,160,129519,1,8,0:0:0:0:
192,160,129594,1,0,0:0:0:0:
192,160,129744,1,0,0:0:0:0:
192,160,129819,1,8,0:0:0:0:
192,160,129894,1,0,0:0:0:0:
192,160,129969,1,8,0:0:0:0:
192,160,130044,1,8,0:0:0:0:
192,160,130119,1,0,0:0:0:0:
192,160,130194,1,8,0:0:0:0:
192,160,130269,1,8,0:0:0:0:
192,160,130344,1,0,0:0:0:0:
192,160,130419,1,8,0:0:0:0:
192,160,130494,1,8,0:0:0:0:
192,160,130569,1,0,0:0:0:0:
192,160,130644,1,0,0:0:0:0:
192,160,130794,1,0,0:0:0:0:
192,160,130944,1,8,0:0:0:0:
192,160,131094,1,8,0:0:0:0:
192,160,131169,1,8,0:0:0:0:
192,160,131244,1,8,0:0:0:0:
192,160,131319,1,8,0:0:0:0:
192,160,131394,1,0,0:0:0:0:
192,160,131544,1,0,0:0:0:0:
192,256,131844,1,12,0:0:0:0:
192,256,131994,1,12,0:0:0:0:
192,256,132144,1,12,0:0:0:0:
192,256,132294,1,4,0:0:0:0:
192,256,132444,1,4,0:0:0:0:
192,256,132594,1,4,0:0:0:0:
192,256,132744,1,12,0:0:0:0:
192,256,133044,1,12,0:0:0:0:
192,256,133344,1,12,0:0:0:0:
192,256,133644,1,4,0:0:0:0:
192,256,133944,1,12,0:0:0:0:
192,256,134844,1,8,0:0:0:0:
256,192,134994,1,0,0:0:0:0:
256,192,135144,1,8,0:0:0:0:
256,192,135219,1,8,0:0:0:0:
256,192,135294,1,0,0:0:0:0:
256,192,135444,1,0,0:0:0:0:
256,192,135519,1,8,0:0:0:0:
256,192,135594,1,0,0:0:0:0:
256,192,135669,1,0,0:0:0:0:
256,192,135744,1,8,0:0:0:0:
256,192,136044,1,4,0:0:0:0:
256,192,136194,1,0,0:0:0:0:
256,192,136344,1,8,0:0:0:0:
256,192,136419,1,8,0:0:0:0:
256,192,136494,1,0,0:0:0:0:
256,192,136569,1,8,0:0:0:0:
256,192,136644,1,0,0:0:0:0:
256,192,136719,1,0,0:0:0:0:
256,192,136794,1,8,0:0:0:0:
256,192,136944,1,8,0:0:0:0:
256,192,137094,1,8,0:0:0:0:
256,192,137169,1,8,0:0:0:0:
256,192,137244,1,0,0:0:0:0:
256,192,137319,1,0,0:0:0:0:
256,192,137394,1,0,0:0:0:0:
256,192,137469,1,8,0:0:0:0:
256,192,137544,1,8,0:0:0:0:
256,192,137844,1,8,0:0:0:0:
256,192,137994,1,0,0:0:0:0:
256,192,138144,1,8,0:0:0:0:
256,192,138219,1,0,0:0:0:0:
256,192,138294,1,0,0:0:0:0:
256,192,138369,1,8,0:0:0:0:
256,192,138444,1,8,0:0:0:0:
256,192,138594,1,8,0:0:0:0:
256,192,138669,1,0,0:0:0:0:
256,192,138744,1,8,0:0:0:0:
256,192,138894,1,8,0:0:0:0:
256,192,139044,1,0,0:0:0:0:
256,192,139194,1,0,0:0:0:0:
256,192,139269,1,8,0:0:0:0:
256,192,139344,1,8,0:0:0:0:
256,192,139419,1,0,0:0:0:0:
256,192,139494,1,0,0:0:0:0:
256,192,139644,1,0,0:0:0:0:
256,192,139719,1,8,0:0:0:0:
256,192,139794,1,8,0:0:0:0:
256,192,139869,1,0,0:0:0:0:
256,192,139944,1,8,0:0:0:0:
256,192,140094,1,0,0:0:0:0:
256,192,140169,1,8,0:0:0:0:
256,192,140244,1,8,0:0:0:0:
256,192,140394,1,0,0:0:0:0:
256,192,140544,1,8,0:0:0:0:
256,192,140844,1,8,0:0:0:0:
256,192,140919,1,0,0:0:0:0:
256,192,140994,1,8,0:0:0:0:
256,192,141144,1,0,0:0:0:0:
256,192,141294,1,8,0:0:0:0:
256,192,141369,1,8,0:0:0:0:
256,192,141444,1,0,0:0:0:0:
256,192,141519,1,0,0:0:0:0:
256,192,141594,1,8,0:0:0:0:
256,192,141744,1,8,0:0:0:0:
256,192,141894,1,0,0:0:0:0:
256,192,142044,1,8,0:0:0:0:
256,192,142194,1,0,0:0:0:0:
256,192,142344,1,8,0:0:0:0:
256,192,142494,1,0,0:0:0:0:
256,192,142569,1,0,0:0:0:0:
256,192,142644,1,8,0:0:0:0:
256,192,142719,1,0,0:0:0:0:
224,192,142794,1,0,0:0:0:0:
256,192,142869,1,8,0:0:0:0:
256,192,142944,1,8,0:0:0:0:
256,192,143244,1,8,0:0:0:0:
256,192,143394,1,0,0:0:0:0:
256,192,143544,1,8,0:0:0:0:
256,192,143619,1,0,0:0:0:0:
256,192,143694,1,0,0:0:0:0:
256,192,143844,1,0,0:0:0:0:
256,192,143919,1,8,0:0:0:0:
256,192,143994,1,0,0:0:0:0:
256,192,144069,1,0,0:0:0:0:
256,192,144144,1,8,0:0:0:0:
256,192,144444,1,8,0:0:0:0:
256,192,144594,1,0,0:0:0:0:
256,192,144744,1,8,0:0:0:0:
256,192,144819,1,0,0:0:0:0:
256,192,144894,1,0,0:0:0:0:
256,192,144969,1,8,0:0:0:0:
256,192,145044,1,0,0:0:0:0:
256,192,145119,1,8,0:0:0:0:
256,192,145194,1,8,0:0:0:0:
256,192,145344,1,0,0:0:0:0:
256,192,145494,1,8,0:0:0:0:
256,192,145569,1,8,0:0:0:0:
256,192,145644,1,0,0:0:0:0:
256,192,145719,1,8,0:0:0:0:
256,192,145794,1,0,0:0:0:0:
256,192,145869,1,0,0:0:0:0:
256,192,145944,1,8,0:0:0:0:
256,192,146244,1,8,0:0:0:0:
256,192,146394,1,0,0:0:0:0:
256,192,146544,1,0,0:0:0:0:
256,192,146619,1,8,0:0:0:0:
256,192,146694,1,0,0:0:0:0:
256,192,146769,1,0,0:0:0:0:
256,192,146844,1,8,0:0:0:0:
256,192,146994,1,8,0:0:0:0:
256,192,147069,1,0,0:0:0:0:
256,192,147144,1,8,0:0:0:0:
256,192,147294,1,8,0:0:0:0:
256,192,147444,1,0,0:0:0:0:
256,192,147594,1,0,0:0:0:0:
256,192,147669,1,0,0:0:0:0:
256,192,147744,1,8,0:0:0:0:
256,192,147819,1,8,0:0:0:0:
256,192,147894,1,0,0:0:0:0:
256,192,148044,1,0,0:0:0:0:
256,192,148119,1,8,0:0:0:0:
256,192,148194,1,0,0:0:0:0:
256,192,148269,1,8,0:0:0:0:
256,192,148344,1,8,0:0:0:0:
256,192,148494,1,8,0:0:0:0:
256,192,148569,1,8,0:0:0:0:
256,192,148644,1,0,0:0:0:0:
256,192,148794,1,0,0:0:0:0:
256,192,148944,1,8,0:0:0:0:
256,192,149244,1,0,0:0:0:0:
256,192,149319,1,8,0:0:0:0:
256,192,149394,1,8,0:0:0:0:
256,192,149544,1,0,0:0:0:0:
256,192,149694,1,0,0:0:0:0:
256,192,149769,1,8,0:0:0:0:
256,192,149844,1,0,0:0:0:0:
256,192,149919,1,8,0:0:0:0:
256,192,149994,1,0,0:0:0:0:
256,192,150144,1,0,0:0:0:0:
256,192,150294,1,8,0:0:0:0:
256,192,150444,1,8,0:0:0:0:
256,192,150594,1,0,0:0:0:0:
256,192,150744,1,8,0:0:0:0:
256,192,150894,1,0,0:0:0:0:
256,192,150969,1,0,0:0:0:0:
256,192,151044,1,8,0:0:0:0:
256,192,151119,1,0,0:0:0:0:
256,192,151194,1,0,0:0:0:0:
256,192,151269,1,8,0:0:0:0:
256,192,151344,1,8,0:0:0:0:
256,192,151644,1,8,0:0:0:0:
256,192,151719,1,0,0:0:0:0:
256,192,151794,1,0,0:0:0:0:
256,192,151869,1,0,0:0:0:0:
256,192,151944,1,8,0:0:0:0:
256,192,152019,1,0,0:0:0:0:
256,192,152094,1,0,0:0:0:0:
256,192,152169,1,0,0:0:0:0:
256,192,152244,1,8,0:0:0:0:
256,192,152319,1,0,0:0:0:0:
256,192,152394,1,0,0:0:0:0:
256,192,152469,1,0,0:0:0:0:
256,192,152544,1,8,0:0:0:0:
256,192,152694,1,8,0:0:0:0:
256,192,152769,1,8,0:0:0:0:
256,192,152844,1,0,0:0:0:0:
256,192,152994,1,0,0:0:0:0:
256,192,153069,1,0,0:0:0:0:
256,192,153144,1,8,0:0:0:0:
256,192,153219,1,8,0:0:0:0:
256,192,153294,1,8,0:0:0:0:
320,224,153444,1,0,0:0:0:0:
320,224,153519,1,0,0:0:0:0:
320,224,153594,1,8,0:0:0:0:
320,224,153744,1,8,0:0:0:0:
320,224,153894,1,0,0:0:0:0:
320,224,153969,1,0,0:0:0:0:
320,224,154044,1,8,0:0:0:0:
320,224,154194,1,8,0:0:0:0:
256,192,154344,1,0,0:0:0:0:
256,192,154419,1,0,0:0:0:0:
256,192,154494,1,8,0:0:0:0:
256,192,154569,1,0,0:0:0:0:
256,192,154644,1,8,0:0:0:0:
256,192,154719,1,0,0:0:0:0:
256,192,154794,1,8,0:0:0:0:
256,192,154869,1,8,0:0:0:0:
256,192,154944,1,0,0:0:0:0:
256,192,155019,1,0,0:0:0:0:
256,192,155094,1,0,0:0:0:0:
256,192,155169,1,8,0:0:0:0:
256,192,155244,1,0,0:0:0:0:
256,192,155319,1,0,0:0:0:0:
256,192,155394,1,8,0:0:0:0:
256,192,155544,1,8,0:0:0:0:
256,192,155694,1,8,0:0:0:0:
256,192,155844,1,0,0:0:0:0:
256,192,155994,1,0,0:0:0:0:
256,192,156144,1,8,0:0:0:0:
256,192,156219,1,8,0:0:0:0:
256,192,156294,1,0,0:0:0:0:
256,192,156369,1,0,0:0:0:0:
256,192,156444,1,8,0:0:0:0:
256,192,156594,1,8,0:0:0:0:
256,192,156744,1,0,0:0:0:0:
288,192,156894,1,8,0:0:0:0:
288,192,156969,1,8,0:0:0:0:
288,192,157044,1,0,0:0:0:0:
288,192,157119,1,8,0:0:0:0:
288,192,157194,1,0,0:0:0:0:
288,192,157269,1,0,0:0:0:0:
288,192,157344,1,8,0:0:0:0:
288,192,157794,1,8,0:0:0:0:
288,192,157869,1,8,0:0:0:0:
288,192,157944,1,0,0:0:0:0:
288,192,158094,1,8,0:0:0:0:
288,192,158244,1,8,0:0:0:0:
288,192,158319,1,0,0:0:0:0:
288,192,158394,1,0,0:0:0:0:
288,192,158544,1,8,0:0:0:0:
288,192,158694,1,0,0:0:0:0:
288,192,158844,1,8,0:0:0:0:
288,192,158919,1,0,0:0:0:0:
288,192,158994,1,8,0:0:0:0:
288,192,159069,1,0,0:0:0:0:
288,192,159144,1,8,0:0:0:0:
288,192,159219,1,0,0:0:0:0:
288,192,159294,1,8,0:0:0:0:
288,192,159369,1,8,0:0:0:0:
288,192,159444,1,0,0:0:0:0:
288,192,159594,1,0,0:0:0:0:
288,192,159744,1,8,0:0:0:0:
288,192,159819,1,0,0:0:0:0:
288,192,159894,1,8,0:0:0:0:
288,192,159969,1,0,0:0:0:0:
288,192,160044,1,0,0:0:0:0:
288,192,160194,1,0,0:0:0:0:
288,192,160344,1,8,0:0:0:0:
288,192,160419,1,0,0:0:0:0:
288,192,160494,1,0,0:0:0:0:
288,192,160644,1,0,0:0:0:0:
288,192,160794,1,0,0:0:0:0:
288,192,160869,1,0,0:0:0:0:
288,192,160944,1,8,0:0:0:0:
288,192,161094,1,8,0:0:0:0:
288,192,161244,1,8,0:0:0:0:
288,192,161319,1,0,0:0:0:0:
288,192,161394,1,8,0:0:0:0:
288,192,161469,1,8,0:0:0:0:
288,192,161544,1,0,0:0:0:0:
288,192,161694,1,0,0:0:0:0:
288,192,161844,1,12,0:0:0:0:
288,192,161994,1,12,0:0:0:0:
288,192,162144,1,8,0:0:0:0:
288,192,162219,1,8,0:0:0:0:
288,192,162294,1,8,0:0:0:0:
288,192,162369,1,0,0:0:0:0:
288,192,162444,1,0,0:0:0:0:
384,256,162594,1,0,0:0:0:0:
384,256,162669,1,8,0:0:0:0:
384,256,162744,1,0,0:0:0:0:
384,256,162819,1,0,0:0:0:0:
384,256,162894,1,8,0:0:0:0:
256,160,162969,1,8,0:0:0:0:
384,256,163044,1,0,0:0:0:0:
384,256,163119,1,8,0:0:0:0:
384,256,163194,1,0,0:0:0:0:
384,256,163269,1,0,0:0:0:0:
384,256,163344,1,8,0:0:0:0:
384,256,163569,1,8,0:0:0:0:
384,256,163644,1,0,0:0:0:0:
256,224,163869,1,8,0:0:0:0:
256,224,163944,1,0,0:0:0:0:
320,224,164044,1,8,0:0:0:0:
320,224,164144,1,8,0:0:0:0:
320,224,164244,1,0,0:0:0:0:
352,160,164394,1,0,0:0:0:0:
352,160,164544,1,0,0:0:0:0:
352,160,164694,1,0,0:0:0:0:
352,160,164844,1,8,0:0:0:0:
352,160,164994,1,0,0:0:0:0:
352,160,165069,1,8,0:0:0:0:
352,160,165144,1,0,0:0:0:0:
352,160,165444,1,8,0:0:0:0:
352,160,165519,1,0,0:0:0:0:
352,160,165594,1,8,0:0:0:0:
352,160,165744,1,0,0:0:0:0:
352,160,165894,1,8,0:0:0:0:
352,160,165969,1,8,0:0:0:0:
352,160,166044,1,0,0:0:0:0:
352,160,166194,1,0,0:0:0:0:
352,160,166344,1,8,0:0:0:0:
352,160,166419,1,0,0:0:0:0:
352,160,166494,1,0,0:0:0:0:
352,160,166569,1,8,0:0:0:0:
352,160,166644,1,0,0:0:0:0:
352,160,166719,1,8,0:0:0:0:
352,160,166794,1,8,0:0:0:0:
352,160,166869,1,0,0:0:0:0:
352,160,166944,1,8,0:0:0:0:
352,160,167094,1,8,0:0:0:0:
352,160,167244,1,8,0:0:0:0:
352,160,167394,1,0,0:0:0:0:
352,160,167544,1,0,0:0:0:0:
256,192,167694,12,0,168369,0:0:0:0:
256,192,168444,5,0,0:0:0:0:
352,160,168594,1,8,0:0:0:0:
352,160,168669,1,8,0:0:0:0:
256,192,168744,1,0,0:0:0:0:
352,160,168894,1,8,0:0:0:0:
352,160,168969,1,8,0:0:0:0:
192,192,169044,5,0,0:0:0:0:
224,192,169194,1,0,0:0:0:0:
224,192,169269,1,0,0:0:0:0:
224,192,169344,1,8,0:0:0:0:
224,192,169494,1,8,0:0:0:0:
256,192,169644,1,0,0:0:0:0:
256,192,169719,1,0,0:0:0:0:
256,192,169794,1,0,0:0:0:0:
256,192,169869,1,8,0:0:0:0:
256,192,169944,1,0,0:0:0:0:
256,192,170094,1,8,0:0:0:0:
256,192,170394,1,0,0:0:0:0:
256,192,170469,1,8,0:0:0:0:
256,192,170544,1,0,0:0:0:0:
256,192,170619,1,0,0:0:0:0:
256,192,170694,1,8,0:0:0:0:
256,192,170844,1,0,0:0:0:0:
256,192,170919,1,8,0:0:0:0:
256,192,170994,1,8,0:0:0:0:
256,192,171069,1,0,0:0:0:0:
256,192,171144,1,8,0:0:0:0:
256,192,171294,1,8,0:0:0:0:
256,192,171369,1,8,0:0:0:0:
256,192,171444,1,0,0:0:0:0:
256,192,171744,1,12,0:0:0:0:
256,192,171894,1,4,0:0:0:0:
256,192,172119,1,4,0:0:0:0:
256,192,172344,1,12,0:0:0:0:
256,192,172644,1,4,0:0:0:0:
256,192,172794,1,8,0:0:0:0:
256,192,173094,1,4,0:0:0:0:
256,192,173394,1,4,0:0:0:0:
256,192,173544,1,0,0:0:0:0:
256,192,173694,1,4,0:0:0:0:
256,192,173844,1,0,0:0:0:0:
256,192,173919,1,8,0:0:0:0:
256,192,173994,1,0,0:0:0:0:
256,192,174144,1,8,0:0:0:0:
256,192,174294,1,0,0:0:0:0:
256,192,174369,1,8,0:0:0:0:
256,192,174444,1,0,0:0:0:0:
256,192,174594,1,8,0:0:0:0:
256,192,174744,1,0,0:0:0:0:
256,192,174894,1,8,0:0:0:0:
256,192,174969,1,0,0:0:0:0:
256,192,175044,1,0,0:0:0:0:
256,192,175194,1,8,0:0:0:0:
256,192,175344,1,8,0:0:0:0:
256,192,175419,1,8,0:0:0:0:
256,192,175494,1,0,0:0:0:0:
256,192,175569,1,0,0:0:0:0:
256,192,175644,1,8,0:0:0:0:
256,192,175794,1,8,0:0:0:0:
256,192,175944,1,0,0:0:0:0:
256,192,176544,1,0,0:0:0:0:
256,192,176619,1,0,0:0:0:0:
256,192,176694,1,0,0:0:0:0:
256,192,176769,1,0,0:0:0:0:
256,192,176844,1,8,0:0:0:0:
256,192,176994,1,0,0:0:0:0:
256,192,177069,1,0,0:0:0:0:
256,192,177144,1,8,0:0:0:0:
256,192,177219,1,0,0:0:0:0:
256,192,177294,1,0,0:0:0:0:
256,192,177369,1,8,0:0:0:0:
256,192,177444,1,0,0:0:0:0:
256,192,177519,1,8,0:0:0:0:
256,192,177594,1,8,0:0:0:0:
256,192,177669,1,8,0:0:0:0:
256,192,177744,1,0,0:0:0:0:
256,192,177894,1,0,0:0:0:0:
256,192,178044,1,0,0:0:0:0:
256,192,178119,1,8,0:0:0:0:
256,192,178269,1,0,0:0:0:0:
256,192,178344,1,8,0:0:0:0:
256,192,178494,1,8,0:0:0:0:
256,192,178644,1,0,0:0:0:0:
256,192,178794,1,0,0:0:0:0:
256,192,178869,1,8,0:0:0:0:
256,192,178944,1,0,0:0:0:0:
256,192,179019,1,8,0:0:0:0:
256,192,179094,1,8,0:0:0:0:
256,192,179169,1,0,0:0:0:0:
256,192,179244,1,0,0:0:0:0:
256,192,179319,1,8,0:0:0:0:
256,192,179394,1,0,0:0:0:0:
256,192,179544,1,0,0:0:0:0:
256,192,179694,1,0,0:0:0:0:
256,192,179769,1,0,0:0:0:0:
256,192,179844,1,8,0:0:0:0:
256,192,179994,1,0,0:0:0:0:
256,192,180294,1,0,0:0:0:0:
256,192,180369,1,0,0:0:0:0:
256,192,180444,1,8,0:0:0:0:
256,192,180519,1,0,0:0:0:0:
256,192,180594,1,0,0:0:0:0:
256,192,180669,1,8,0:0:0:0:
256,192,180744,1,0,0:0:0:0:
288,192,180819,1,0,0:0:0:0:
256,128,180894,1,8,0:0:0:0:
256,160,180969,1,0,0:0:0:0:
256,160,181044,1,0,0:0:0:0:
256,160,181194,1,8,0:0:0:0:
256,160,181344,1,8,0:0:0:0:
256,160,181494,1,8,0:0:0:0:
256,160,181644,1,0,0:0:0:0:
256,160,181794,1,8,0:0:0:0:
256,160,181869,1,0,0:0:0:0:
352,96,182094,1,8,0:0:0:0:
288,128,182244,1,0,0:0:0:0:
256,160,182319,1,0,0:0:0:0:
288,128,182394,1,8,0:0:0:0:
256,160,182469,1,8,0:0:0:0:
320,128,182619,1,0,0:0:0:0:
288,128,182694,1,8,0:0:0:0:
256,192,182844,1,8,0:0:0:0:
320,64,183144,1,0,0:0:0:0:
288,128,183294,1,8,0:0:0:0:
256,160,183369,1,8,0:0:0:0:
288,128,183444,1,0,0:0:0:0:
256,192,183594,1,8,0:0:0:0:
256,160,183669,1,8,0:0:0:0:
288,128,183744,1,0,0:0:0:0:
256,192,183894,1,8,0:0:0:0:
256,160,183969,1,0,0:0:0:0:
320,128,184119,1,8,0:0:0:0:
288,128,184194,1,0,0:0:0:0:
256,192,184344,1,8,0:0:0:0:
256,160,184419,1,8,0:0:0:0:
288,128,184494,1,0,0:0:0:0:
256,192,184644,1,8,0:0:0:0:
224,224,184719,1,8,0:0:0:0:
256,192,184794,1,0,0:0:0:0:
288,128,184944,1,8,0:0:0:0:
224,224,185244,1,8,0:0:0:0:
228,190,185394,1,8,0:0:0:0:
228,190,185544,1,0,0:0:0:0:
228,190,185694,1,8,0:0:0:0:
228,190,185844,1,0,0:0:0:0:
228,190,185919,1,0,0:0:0:0:
228,190,185994,1,8,0:0:0:0:
228,190,186069,1,0,0:0:0:0:
228,190,186144,1,8,0:0:0:0:
256,192,186294,1,0,0:0:0:0:
256,192,186369,1,8,0:0:0:0:
266,177,186444,1,8,0:0:0:0:
256,192,186594,1,8,0:0:0:0:
256,192,186744,1,0,0:0:0:0:
256,192,186894,1,8,0:0:0:0:
256,192,187044,1,8,0:0:0:0:
256,192,187119,1,0,0:0:0:0:
256,192,187194,1,0,0:0:0:0:
256,192,187269,1,8,0:0:0:0:
256,192,187344,1,0,0:0:0:0:
256,192,187494,1,8,0:0:0:0:
256,192,187644,1,0,0:0:0:0:
256,192,187794,1,8,0:0:0:0:
256,192,187944,1,8,0:0:0:0:
266,177,188019,1,0,0:0:0:0:
256,192,188094,1,8,0:0:0:0:
256,192,188169,1,8,0:0:0:0:
256,192,188244,1,0,0:0:0:0:
256,192,188394,1,0,0:0:0:0:
256,192,188469,1,0,0:0:0:0:
256,192,188544,1,8,0:0:0:0:
256,192,188694,1,8,0:0:0:0:
256,192,188844,1,0,0:0:0:0:
256,192,188994,1,8,0:0:0:0:
256,192,189144,1,8,0:0:0:0:
256,192,189219,1,0,0:0:0:0:
256,192,189294,1,8,0:0:0:0:
256,192,189369,1,0,0:0:0:0:
256,192,189444,1,8,0:0:0:0:
266,177,189594,1,8,0:0:0:0:
256,192,189744,1,0,0:0:0:0:
256,192,189894,1,8,0:0:0:0:
256,192,190044,1,8,0:0:0:0:
256,192,190119,1,8,0:0:0:0:
256,192,190194,1,0,0:0:0:0:
256,192,190269,1,0,0:0:0:0:
256,192,190344,1,8,0:0:0:0:
256,192,190494,1,0,0:0:0:0:
256,192,190569,1,0,0:0:0:0:
256,192,190644,1,8,0:0:0:0:
256,192,190794,1,8,0:0:0:0:
256,192,190944,1,0,0:0:0:0:
266,177,191094,1,8,0:0:0:0:
256,192,191244,1,0,0:0:0:0:
256,192,191319,1,8,0:0:0:0:
256,192,191394,1,0,0:0:0:0:
256,192,191469,1,8,0:0:0:0:
256,192,191544,1,0,0:0:0:0:
256,192,191694,1,8,0:0:0:0:
256,192,191844,1,0,0:0:0:0:
256,192,191994,1,8,0:0:0:0:
256,192,192144,1,8,0:0:0:0:
256,192,192219,1,8,0:0:0:0:
256,192,192294,1,0,0:0:0:0:
256,192,192369,1,8,0:0:0:0:
256,192,192444,1,0,0:0:0:0:
266,177,192594,1,8,0:0:0:0:
266,177,192669,1,8,0:0:0:0:
256,192,192744,1,0,0:0:0:0:
256,192,192894,1,8,0:0:0:0:
256,192,193044,1,8,0:0:0:0:
256,192,193119,1,0,0:0:0:0:
256,192,193194,1,8,0:0:0:0:
256,192,193269,1,0,0:0:0:0:
256,192,193344,1,0,0:0:0:0:
256,192,193644,1,0,0:0:0:0:
256,192,193794,1,8,0:0:0:0:
256,192,193944,1,8,0:0:0:0:
266,177,194094,1,0,0:0:0:0:
266,177,194244,1,8,0:0:0:0:
256,192,194319,1,8,0:0:0:0:
256,192,194394,1,0,0:0:0:0:
256,192,194469,1,8,0:0:0:0:
256,192,194544,1,8,0:0:0:0:
256,192,194694,1,8,0:0:0:0:
256,192,194769,1,8,0:0:0:0:
256,192,194844,1,0,0:0:0:0:
256,192,194994,1,8,0:0:0:0:
256,192,195144,1,8,0:0:0:0:
256,192,195294,1,0,0:0:0:0:
266,177,195444,1,8,0:0:0:0:
266,177,195519,1,8,0:0:0:0:
266,177,195594,1,0,0:0:0:0:
266,177,195669,1,8,0:0:0:0:
266,177,195744,1,0,0:0:0:0:
256,192,195894,1,8,0:0:0:0:
256,192,196044,1,8,0:0:0:0:
256,192,196194,1,0,0:0:0:0:
256,192,196344,1,8,0:0:0:0:
256,192,196419,1,0,0:0:0:0:
266,177,196494,1,8,0:0:0:0:
266,177,196569,1,8,0:0:0:0:
266,177,196644,1,0,0:0:0:0:
266,177,196794,1,8,0:0:0:0:
266,177,196869,1,8,0:0:0:0:
266,177,196944,1,0,0:0:0:0:
266,177,197019,1,8,0:0:0:0:
266,177,197094,1,0,0:0:0:0:
266,177,197169,1,0,0:0:0:0:
266,177,197244,1,8,0:0:0:0:
256,192,197544,1,8,0:0:0:0:
256,192,197619,1,8,0:0:0:0:
256,192,197694,1,8,0:0:0:0:
256,192,197769,1,8,0:0:0:0:
256,192,197844,1,0,0:0:0:0:
256,192,197994,1,0,0:0:0:0:
266,177,198144,1,8,0:0:0:0:
266,177,198294,1,0,0:0:0:0:
266,177,198444,1,0,0:0:0:0:
266,177,198519,1,8,0:0:0:0:
266,177,198594,1,0,0:0:0:0:
266,177,198669,1,0,0:0:0:0:
266,177,198744,1,8,0:0:0:0:
256,192,198894,1,8,0:0:0:0:
256,192,198969,1,0,0:0:0:0:
256,192,199044,1,8,0:0:0:0:
256,192,199194,1,0,0:0:0:0:
256,192,199344,1,8,0:0:0:0:
256,192,199494,1,0,0:0:0:0:
266,177,199644,1,8,0:0:0:0:
266,177,199719,1,0,0:0:0:0:
266,177,199794,1,0,0:0:0:0:
266,177,199869,1,8,0:0:0:0:
266,177,199944,1,8,0:0:0:0:
266,177,200094,1,0,0:0:0:0:
266,177,200244,1,8,0:0:0:0:
256,192,200394,1,0,0:0:0:0:
256,192,200544,1,0,0:0:0:0:
256,192,200619,1,8,0:0:0:0:
256,192,200694,1,0,0:0:0:0:
256,192,200769,1,8,0:0:0:0:
256,192,200844,1,0,0:0:0:0:
256,192,200994,1,0,0:0:0:0:
256,192,201069,1,8,0:0:0:0:
266,177,201144,1,8,0:0:0:0:
266,177,201294,1,8,0:0:0:0:
266,177,201444,1,0,0:0:0:0:
266,177,201519,1,8,0:0:0:0:
266,177,201594,1,0,0:0:0:0:
266,177,201819,1,4,0:0:0:0:
256,192,202044,1,4,0:0:0:0:
266,177,202194,1,8,0:0:0:0:
266,177,202269,1,8,0:0:0:0:
266,177,202344,1,0,0:0:0:0:
256,192,202644,1,0,0:0:0:0:
266,177,202794,1,8,0:0:0:0:
266,177,202869,1,0,0:0:0:0:
266,177,202944,1,8,0:0:0:0:
266,177,203094,1,8,0:0:0:0:
266,177,203169,1,0,0:0:0:0:
266,177,203244,1,0,0:0:0:0:
266,177,203319,1,8,0:0:0:0:
266,177,203394,1,0,0:0:0:0:
256,192,203469,1,8,0:0:0:0:
256,192,203544,1,0,0:0:0:0:
266,177,203694,1,0,0:0:0:0:
266,177,203844,1,0,0:0:0:0:
266,177,203919,1,0,0:0:0:0:
256,192,203994,1,8,0:0:0:0:
256,192,204144,1,0,0:0:0:0:
266,177,204294,1,0,0:0:0:0:
266,177,204444,1,8,0:0:0:0:
266,177,204594,1,0,0:0:0:0:
266,177,204669,1,8,0:0:0:0:
266,177,204744,1,0,0:0:0:0:
266,177,204819,1,8,0:0:0:0:
266,177,204894,1,8,0:0:0:0:
266,177,204969,1,0,0:0:0:0:
256,192,205044,1,8,0:0:0:0:
256,192,205119,1,8,0:0:0:0:
266,177,205194,1,0,0:0:0:0:
266,177,205344,1,4,0:0:0:0:
256,192,205644,1,0,0:0:0:0:
266,177,205944,1,0,0:0:0:0:
266,177,206244,1,0,0:0:0:0:
266,177,206319,1,8,0:0:0:0:
266,177,206394,1,8,0:0:0:0:
266,177,206544,1,0,0:0:0:0:
256,192,206694,1,0,0:0:0:0:
266,177,206844,1,8,0:0:0:0:
266,177,206919,1,8,0:0:0:0:
256,192,206994,1,0,0:0:0:0:
266,177,207294,1,0,0:0:0:0:
266,177,207369,1,0,0:0:0:0:
266,177,207444,1,0,0:0:0:0:
266,177,207519,1,8,0:0:0:0:
266,177,207594,1,0,0:0:0:0:
266,177,207669,1,0,0:0:0:0:
266,177,207744,1,8,0:0:0:0:
266,177,207819,1,8,0:0:0:0:
266,177,207894,1,8,0:0:0:0:
266,177,207969,1,8,0:0:0:0:
266,177,208044,1,0,0:0:0:0:
266,177,208119,1,8,0:0:0:0:
256,192,208194,1,0,0:0:0:0:
256,192,208269,1,0,0:0:0:0:
266,177,208344,1,8,0:0:0:0:
331,248,208494,1,8,0:0:0:0:
331,248,208644,1,8,0:0:0:0:
331,248,208794,1,8,0:0:0:0:
331,248,208944,1,0,0:0:0:0:
306,214,209094,1,8,0:0:0:0:
306,214,209169,1,8,0:0:0:0:
331,248,209244,1,8,0:0:0:0:
306,214,209394,1,8,0:0:0:0:
306,214,209469,1,0,0:0:0:0:
306,214,209544,1,0,0:0:0:0:
306,214,209844,1,8,0:0:0:0:
306,214,209919,1,0,0:0:0:0:
306,214,209994,1,8,0:0:0:0:
306,214,210069,1,8,0:0:0:0:
306,214,210144,1,0,0:0:0:0:
338,198,210444,1,0,0:0:0:0:
338,198,210594,1,0,0:0:0:0:
338,198,210669,1,0,0:0:0:0:
338,198,210744,1,8,0:0:0:0:
338,198,210894,1,0,0:0:0:0:
338,198,211044,1,8,0:0:0:0:
338,198,211119,1,0,0:0:0:0:
278,159,211194,1,8,0:0:0:0:
278,159,211344,1,8,0:0:0:0:
278,159,211494,1,8,0:0:0:0:
278,159,211644,1,0,0:0:0:0:
278,159,211794,1,0,0:0:0:0:
278,159,211869,1,0,0:0:0:0:
278,159,211944,1,8,0:0:0:0:
278,159,212094,1,8,0:0:0:0:
278,159,212244,1,0,0:0:0:0:
278,159,212319,1,8,0:0:0:0:
278,159,212394,1,0,0:0:0:0:
278,159,212544,1,0,0:0:0:0:
278,159,212694,1,0,0:0:0:0:
278,159,212769,1,8,0:0:0:0:
278,159,212919,1,0,0:0:0:0:
278,159,213069,1,8,0:0:0:0:
278,159,213144,1,0,0:0:0:0:
278,159,213219,1,8,0:0:0:0:
278,159,213294,1,8,0:0:0:0:
278,159,213444,1,8,0:0:0:0:
278,159,213519,1,8,0:0:0:0:
278,159,213594,1,0,0:0:0:0:
278,159,213744,1,0,0:0:0:0:
278,159,213819,1,0,0:0:0:0:
278,159,213894,1,8,0:0:0:0:
278,159,213969,1,0,0:0:0:0:
278,159,214044,1,0,0:0:0:0:
278,159,214119,1,0,0:0:0:0:
278,159,214194,1,8,0:0:0:0:
278,159,214269,1,8,0:0:0:0:
278,159,214344,1,0,0:0:0:0:
278,159,214494,1,0,0:0:0:0:
278,159,214644,1,4,0:0:0:0:
278,159,215094,1,8,0:0:0:0:
278,159,215244,1,12,0:0:0:0:
278,159,215394,1,12,0:0:0:0:
278,159,215544,1,0,0:0:0:0:
278,159,215619,1,0,0:0:0:0:
278,159,215694,1,8,0:0:0:0:
278,159,215844,1,0,0:0:0:0:
278,159,215919,1,8,0:0:0:0:
278,159,215994,1,0,0:0:0:0:
278,159,216144,1,0,0:0:0:0:
278,159,216219,1,8,0:0:0:0:
278,159,216294,1,8,0:0:0:0:
278,159,216444,1,0,0:0:0:0:
278,159,216594,1,0,0:0:0:0:
278,159,216744,1,8,0:0:0:0:
278,159,216894,1,8,0:0:0:0:
278,159,216969,1,8,0:0:0:0:
278,159,217044,1,0,0:0:0:0:
278,159,217194,1,0,0:0:0:0:
278,159,217344,1,0,0:0:0:0:
278,159,217494,1,0,0:0:0:0:
278,159,217644,1,0,0:0:0:0:
278,159,217719,1,0,0:0:0:0:
278,159,217794,1,8,0:0:0:0:
278,159,217869,1,8,0:0:0:0:
278,159,217944,1,8,0:0:0:0:
278,159,218244,1,12,0:0:0:0:
278,159,218544,1,8,0:0:0:0:
278,159,218619,1,8,0:0:0:0:
278,159,218694,1,8,0:0:0:0:
278,159,218844,1,12,0:0:0:0:
295,128,219444,1,4,0:0:0:0:
295,128,220044,1,4,0:0:0:0:
295,128,220644,1,0,0:0:0:0:
295,128,220719,1,8,0:0:0:0:
295,128,220794,1,8,0:0:0:0:
295,128,220944,1,0,0:0:0:0:
333,132,221094,1,8,0:0:0:0:
333,132,221169,1,8,0:0:0:0:
333,132,221244,1,0,0:0:0:0:
333,132,221319,1,8,0:0:0:0:
333,132,221394,1,0,0:0:0:0:
333,132,221544,1,8,0:0:0:0:
333,132,221619,1,8,0:0:0:0:
333,132,221694,1,0,0:0:0:0:
333,132,221844,1,0,0:0:0:0:
333,132,221994,1,0,0:0:0:0:
333,132,222069,1,0,0:0:0:0:
333,132,222144,1,8,0:0:0:0:
333,132,222294,1,0,0:0:0:0:
333,132,222444,1,0,0:0:0:0:
333,132,222594,1,4,0:0:0:0:
333,132,222744,1,8,0:0:0:0:
333,132,222894,1,0,0:0:0:0:
333,132,222969,1,8,0:0:0:0:
333,132,223044,1,0,0:0:0:0:
333,132,223119,1,0,0:0:0:0:
333,132,223269,1,8,0:0:0:0:
333,132,223419,1,0,0:0:0:0:
333,132,223494,1,0,0:0:0:0:
333,132,223719,1,8,0:0:0:0:
333,132,223869,1,0,0:0:0:0:
333,132,223944,1,0,0:0:0:0:
333,132,224244,1,8,0:0:0:0:
333,132,224319,1,0,0:0:0:0:
333,132,224394,1,0,0:0:0:0:
333,132,224469,1,8,0:0:0:0:
333,132,224544,1,8,0:0:0:0:
333,132,224619,1,0,0:0:0:0:
333,132,224694,1,8,0:0:0:0:
333,132,224769,1,0,0:0:0:0:
333,132,224844,1,0,0:0:0:0:
333,132,224919,1,8,0:0:0:0:
333,132,224994,1,0,0:0:0:0:
333,132,225069,1,8,0:0:0:0:
333,132,225144,1,0,0:0:0:0:
333,132,225294,1,0,0:0:0:0:
333,132,225369,1,0,0:0:0:0:
333,132,225444,1,8,0:0:0:0:
333,132,225594,1,0,0:0:0:0:
333,132,225744,1,0,0:0:0:0:
333,132,225819,1,0,0:0:0:0:
333,132,225894,1,8,0:0:0:0:
333,132,226044,1,0,0:0:0:0:
333,132,226194,1,0,0:0:0:0:
333,132,226344,1,8,0:0:0:0:
333,132,226494,1,8,0:0:0:0:
333,132,226644,1,8,0:0:0:0:
311,110,226694,1,8,0:0:0:0:
311,110,226744,1,8,0:0:0:0:
311,110,226794,1,0,0:0:0:0:
311,110,226944,1,8,0:0:0:0:
311,110,226994,1,8,0:0:0:0:
311,110,227044,1,8,0:0:0:0:
311,110,227094,1,0,0:0:0:0:
311,110,227244,1,4,0:0:0:0:
257,133,227544,1,4,0:0:0:0:
257,133,227844,1,8,0:0:0:0:
257,133,227994,1,0,0:0:0:0:
257,133,228069,1,0,0:0:0:0:
257,133,228144,1,0,0:0:0:0:
257,133,228219,1,8,0:0:0:0:
257,133,228294,1,8,0:0:0:0:
257,133,228444,1,0,0:0:0:0:
257,133,228594,1,0,0:0:0:0:
257,133,228669,1,8,0:0:0:0:
257,133,228744,1,8,0:0:0:0:
257,133,228894,1,0,0:0:0:0:
256,192,229044,12,0,229569,0:0:0:0:
257,133,229644,5,0,0:0:0:0:
192,215,229794,1,8,0:0:0:0:
192,215,230094,1,0,0:0:0:0:
192,215,230244,1,8,0:0:0:0:
192,215,230319,1,8,0:0:0:0:
192,215,230394,1,8,0:0:0:0:
259,183,230469,1,0,0:0:0:0:
259,183,230544,1,0,0:0:0:0:
259,183,230619,1,8,0:0:0:0:
259,183,230694,1,0,0:0:0:0:
259,183,230769,1,0,0:0:0:0:
259,183,230844,1,8,0:0:0:0:
259,183,230994,1,0,0:0:0:0:
259,183,231069,1,0,0:0:0:0:
259,183,231144,1,8,0:0:0:0:
259,183,231219,1,0,0:0:0:0:
259,183,231369,1,0,0:0:0:0:
259,183,231444,1,8,0:0:0:0:
234,199,231594,1,0,0:0:0:0:
234,199,231669,1,8,0:0:0:0:
234,199,231744,1,8,0:0:0:0:
234,199,231819,1,0,0:0:0:0:
234,199,231894,1,8,0:0:0:0:
234,199,231969,1,8,0:0:0:0:
234,199,232044,1,0,0:0:0:0:
234,199,232194,1,8,0:0:0:0:
234,199,232344,1,0,0:0:0:0:
234,199,232419,1,0,0:0:0:0:
234,199,232494,1,8,0:0:0:0:
234,199,232644,1,8,0:0:0:0:
234,199,232794,1,12,0:0:0:0:
234,199,232944,1,4,0:0:0:0:
234,199,233094,1,8,0:0:0:0:
234,199,233169,1,0,0:0:0:0:
234,199,233244,1,8,0:0:0:0:
234,199,233319,1,0,0:0:0:0:
234,199,233394,1,8,0:0:0:0:
234,199,233544,1,0,0:0:0:0:
234,199,233694,1,8,0:0:0:0:
234,199,233769,1,0,0:0:0:0:
234,199,233919,1,8,0:0:0:0:
234,199,233994,1,0,0:0:0:0:
234,199,234294,1,8,0:0:0:0:
234,199,234444,1,8,0:0:0:0:
234,199,234519,1,8,0:0:0:0:
234,199,234594,1,8,0:0:0:0:
234,199,234669,1,0,0:0:0:0:
234,199,234744,1,8,0:0:0:0:
234,199,235194,1,8,0:0:0:0:
234,199,235644,1,0,0:0:0:0:
234,199,235794,1,8,0:0:0:0:
234,199,235869,1,8,0:0:0:0:
234,199,235944,1,0,0:0:0:0:
234,199,236094,1,0,0:0:0:0:
234,199,236169,1,8,0:0:0:0:
234,199,236244,1,0,0:0:0:0:
234,199,236394,1,8,0:0:0:0:
234,199,236469,1,0,0:0:0:0:
234,199,236544,1,8,0:0:0:0:
234,199,236844,1,0,0:0:0:0:
234,199,236919,1,8,0:0:0:0:
234,199,236994,1,0,0:0:0:0:
234,199,237069,1,0,0:0:0:0:
234,199,237144,1,8,0:0:0:0:
261,187,237294,1,0,0:0:0:0:
261,187,237369,1,8,0:0:0:0:
261,187,237444,1,0,0:0:0:0:
261,187,237519,1,0,0:0:0:0:
261,187,237594,1,0,0:0:0:0:
261,187,237744,1,4,0:0:0:0:
261,187,237894,1,0,0:0:0:0:
261,187,237969,1,8,0:0:0:0:
261,187,238044,1,0,0:0:0:0:
261,187,238194,1,8,0:0:0:0:
261,187,238269,1,0,0:0:0:0:
261,187,238344,1,0,0:0:0:0:
261,187,238419,1,8,0:0:0:0:
261,187,238494,1,8,0:0:0:0:
261,187,238569,1,0,0:0:0:0:
261,187,238644,1,8,0:0:0:0:
261,187,238794,1,8,0:0:0:0:
261,187,238944,1,0,0:0:0:0:
261,187,239094,1,8,0:0:0:0:
261,187,239244,1,8,0:0:0:0:
261,187,239394,1,8,0:0:0:0:
261,187,239544,1,0,0:0:0:0:
261,187,239694,1,0,0:0:0:0:
261,187,239844,1,8,0:0:0:0:
261,187,239994,1,0,0:0:0:0:
261,187,240069,1,8,0:0:0:0:
261,187,240144,1,0,0:0:0:0:
226,180,240219,1,0,0:0:0:0:
226,180,240294,1,8,0:0:0:0:
226,180,240369,1,0,0:0:0:0:
226,180,240444,1,8,0:0:0:0:
226,180,240519,1,0,0:0:0:0:
226,180,240594,1,8,0:0:0:0:
226,180,240669,1,8,0:0:0:0:
226,180,240744,1,0,0:0:0:0:
226,180,240819,1,0,0:0:0:0:
226,180,240894,1,8,0:0:0:0:
226,180,241044,1,8,0:0:0:0:
226,180,241119,1,8,0:0:0:0:
226,180,241194,1,0,0:0:0:0:
226,180,241269,1,0,0:0:0:0:
226,180,241344,1,8,0:0:0:0:
226,180,241569,1,0,0:0:0:0:
226,180,241644,1,8,0:0:0:0:
226,180,241869,1,8,0:0:0:0:
226,180,241944,1,0,0:0:0:0:
226,180,242094,1,8,0:0:0:0:
226,180,242244,1,0,0:0:0:0:
226,180,242394,1,8,0:0:0:0:
226,180,242469,1,0,0:0:0:0:
226,180,242544,1,0,0:0:0:0:
226,180,242619,1,8,0:0:0:0:
226,180,242694,1,0,0:0:0:0:
226,180,242769,1,0,0:0:0:0:
226,180,242844,1,8,0:0:0:0:
226,180,242994,1,0,0:0:0:0:
226,180,243069,1,0,0:0:0:0:
226,180,243144,1,8,0:0:0:0:
301,196,243219,1,8,0:0:0:0:
301,196,243369,1,0,0:0:0:0:
301,196,243444,1,0,0:0:0:0:
301,196,243519,1,0,0:0:0:0:
301,196,243594,1,8,0:0:0:0:
301,196,243669,1,8,0:0:0:0:
301,196,243819,1,0,0:0:0:0:
301,196,243894,1,8,0:0:0:0:
301,196,243969,1,8,0:0:0:0:
301,196,244044,1,0,0:0:0:0:
301,196,244194,1,4,0:0:0:0:
301,196,244344,1,12,0:0:0:0:
301,196,244494,1,4,0:0:0:0:
301,196,244644,1,12,0:0:0:0:
301,196,244794,1,12,0:0:0:0:
301,196,244944,1,4,0:0:0:0:
301,196,245244,1,0,0:0:0:0:
301,196,245319,1,0,0:0:0:0:
301,196,245394,1,8,0:0:0:0:
301,196,245469,1,8,0:0:0:0:
301,196,245544,1,8,0:0:0:0:
301,196,245694,1,0,0:0:0:0:
301,196,245769,1,0,0:0:0:0:
301,196,245844,1,8,0:0:0:0:
301,196,245994,1,0,0:0:0:0:
301,196,246144,1,0,0:0:0:0:
301,196,246219,1,8,0:0:0:0:
301,196,246294,1,8,0:0:0:0:
301,196,246444,1,8,0:0:0:0:
301,196,246519,1,0,0:0:0:0:
301,196,246594,1,0,0:0:0:0:
301,196,246669,1,0,0:0:0:0:
301,196,246819,1,8,0:0:0:0:
301,196,246894,1,0,0:0:0:0:
301,196,246969,1,0,0:0:0:0:
301,196,247044,1,0,0:0:0:0:
301,196,247119,1,0,0:0:0:0:
301,196,247194,1,8,0:0:0:0:
301,196,247344,1,0,0:0:0:0:
301,196,247494,1,8,0:0:0:0:
301,196,247569,1,0,0:0:0:0:
301,196,247644,1,0,0:0:0:0:
301,196,247794,1,8,0:0:0:0:
301,196,247869,1,0,0:0:0:0:
301,196,247944,1,0,0:0:0:0:
301,196,248544,1,0,0:0:0:0:
301,196,248694,1,0,0:0:0:0:
301,196,248844,1,0,0:0:0:0:
301,196,248919,1,8,0:0:0:0:
301,196,248994,1,0,0:0:0:0:
301,196,249069,1,8,0:0:0:0:
301,196,249144,1,8,0:0:0:0:
301,196,249294,1,8,0:0:0:0:
301,196,249444,1,0,0:0:0:0:
301,196,249519,1,8,0:0:0:0:
301,196,249594,1,8,0:0:0:0:
301,196,249669,1,0,0:0:0:0:
301,196,249744,1,0,0:0:0:0:
301,196,249819,1,0,0:0:0:0:
301,196,249894,1,8,0:0:0:0:
301,196,249969,1,0,0:0:0:0:
301,196,250044,1,8,0:0:0:0:
301,196,250194,1,4,0:0:0:0:
301,196,250344,1,8,0:0:0:0:
301,196,250494,1,4,0:0:0:0:
301,196,250644,1,8,0:0:0:0:
301,196,250719,1,0,0:0:0:0:
301,196,250794,1,8,0:0:0:0:
301,196,250944,1,0,0:0:0:0:
301,196,251094,1,0,0:0:0:0:
301,196,251169,1,8,0:0:0:0:
301,196,251244,1,0,0:0:0:0:
301,196,251319,1,8,0:0:0:0:
301,196,251394,1,8,0:0:0:0:
301,196,251469,1,0,0:0:0:0:
301,196,251544,1,0,0:0:0:0:
301,196,251769,1,8,0:0:0:0:
301,196,251844,1,0,0:0:0:0:
301,196,251919,1,0,0:0:0:0:
301,196,251994,1,8,0:0:0:0:
301,196,252069,1,0,0:0:0:0:
301,196,252144,1,8,0:0:0:0:
301,196,252444,1,8,0:0:0:0:
301,196,252519,1,8,0:0:0:0:
301,196,252594,1,8,0:0:0:0:
301,196,252669,1,0,0:0:0:0:
301,196,252744,1,8,0:0:0:0:
301,196,252819,1,8,0:0:0:0:
301,196,252894,1,8,0:0:0:0:
301,196,252969,1,0,0:0:0:0:
301,196,253044,1,8,0:0:0:0:
301,196,253119,1,8,0:0:0:0:
301,196,253194,1,8,0:0:0:0:
301,196,253269,1,0,0:0:0:0:
301,196,253344,1,8,0:0:0:0:
301,196,253419,1,8,0:0:0:0:
301,196,253494,1,8,0:0:0:0:
301,196,253569,1,0,0:0:0:0:
301,196,253644,1,0,0:0:0:0:
301,196,253869,1,4,0:0:0:0:
301,196,254094,1,4,0:0:0:0:
301,196,254319,1,4,0:0:0:0:
301,196,254544,1,4,0:0:0:0:
301,196,254694,1,0,0:0:0:0:
301,196,254769,1,0,0:0:0:0:
301,196,254844,1,8,0:0:0:0:
301,196,254994,1,4,0:0:0:0:
301,196,255144,1,4,0:0:0:0:
301,196,255294,1,0,0:0:0:0:
301,196,255369,1,0,0:0:0:0:
301,196,255444,1,8,0:0:0:0:
301,196,255594,1,4,0:0:0:0:
301,196,255744,1,8,0:0:0:0:
301,196,255819,1,8,0:0:0:0:
301,196,255894,1,8,0:0:0:0:
301,196,255969,1,0,0:0:0:0:
301,196,256044,1,0,0:0:0:0:
301,196,256194,1,0,0:0:0:0:
301,196,256269,1,8,0:0:0:0:
301,196,256344,1,0,0:0:0:0:
301,196,256494,1,12,0:0:0:0:
301,196,256644,1,0,0:0:0:0:
301,196,256794,1,8,0:0:0:0:
301,196,256869,1,8,0:0:0:0:
301,196,256944,1,0,0:0:0:0:
301,196,257019,1,0,0:0:0:0:
301,196,257094,1,8,0:0:0:0:
301,196,257169,1,0,0:0:0:0:
301,196,257244,1,0,0:0:0:0:
301,196,257394,1,4,0:0:0:0:
301,196,257544,1,8,0:0:0:0:
301,196,257694,1,4,0:0:0:0:
301,196,257844,1,0,0:0:0:0:
301,196,257919,1,0,0:0:0:0:
301,196,257994,1,8,0:0:0:0:
301,196,258069,1,8,0:0:0:0:
301,196,258144,1,0,0:0:0:0:
301,196,258219,1,0,0:0:0:0:
301,196,258369,1,0,0:0:0:0:
301,196,258444,1,0,0:0:0:0:
301,196,258519,1,0,0:0:0:0:
301,196,258594,1,8,0:0:0:0:
301,196,258744,1,0,0:0:0:0:
301,196,258819,1,8,0:0:0:0:
301,196,258894,1,0,0:0:0:0:
301,196,258969,1,0,0:0:0:0:
301,196,259044,1,8,0:0:0:0:
273,131,259269,1,8,0:0:0:0:
301,196,259344,1,8,0:0:0:0:
301,196,259419,1,8,0:0:0:0:
301,196,259494,1,0,0:0:0:0:
301,196,259644,1,8,0:0:0:0:
301,196,259719,1,8,0:0:0:0:
301,196,259794,1,0,0:0:0:0:
301,196,259944,1,8,0:0:0:0:
301,196,260019,1,8,0:0:0:0:
301,196,260094,1,8,0:0:0:0:
301,196,260169,1,0,0:0:0:0:
301,196,260244,1,8,0:0:0:0:
301,196,260294,1,0,0:0:0:0:
301,196,260344,1,0,0:0:0:0:
301,196,260394,1,0,0:0:0:0:
301,196,260444,1,0,0:0:0:0:
301,196,260494,1,0,0:0:0:0:
301,196,260544,1,0,0:0:0:0:
301,196,260594,1,0,0:0:0:0:
301,196,260644,1,0,0:0:0:0:
301,196,260694,1,0,0:0:0:0:
301,196,260744,1,0,0:0:0:0:
301,196,260794,1,0,0:0:0:0:
301,196,260844,1,8,0:0:0:0:
301,196,260994,1,8,0:0:0:0:
301,196,261144,1,8,0:0:0:0:
301,196,261294,1,8,0:0:0:0:
301,196,261369,1,0,0:0:0:0:
301,196,261444,1,0,0:0:0:0:
301,196,261594,1,8,0:0:0:0:
301,196,261669,1,0,0:0:0:0:
301,196,261744,1,0,0:0:0:0:
301,196,261894,1,0,0:0:0:0:
301,196,262044,1,8,0:0:0:0:
301,196,262119,1,8,0:0:0:0:
301,196,262194,1,8,0:0:0:0:
301,196,262269,1,0,0:0:0:0:
301,196,262344,1,0,0:0:0:0:
301,196,262644,1,8,0:0:0:0:
301,196,262794,1,0,0:0:0:0:
301,196,262869,1,8,0:0:0:0:
301,196,262944,1,8,0:0:0:0:
301,196,263019,1,0,0:0:0:0:
301,196,263094,1,0,0:0:0:0:
301,196,263169,1,8,0:0:0:0:
301,196,263244,1,0,0:0:0:0:
301,196,263319,1,0,0:0:0:0:
301,196,263394,1,8,0:0:0:0:
301,196,263469,1,0,0:0:0:0:
301,196,263544,1,8,0:0:0:0:
301,196,263619,1,8,0:0:0:0:
301,196,263694,1,0,0:0:0:0:
259,187,263769,1,8,0:0:0:0:
259,187,263844,1,0,0:0:0:0:
259,187,263919,1,8,0:0:0:0:
259,187,263994,1,8,0:0:0:0:
259,187,264069,1,8,0:0:0:0:
259,187,264144,1,0,0:0:0:0:
259,187,264219,1,0,0:0:0:0:
259,187,264294,1,8,0:0:0:0:
259,187,264369,1,0,0:0:0:0:
259,187,264519,1,0,0:0:0:0:
215,168,264594,1,8,0:0:0:0:
259,187,264744,1,4,0:0:0:0:
259,187,264894,1,4,0:0:0:0:
259,187,265044,1,12,0:0:0:0:
259,187,265194,1,12,0:0:0:0:
259,187,265344,1,8,0:0:0:0:
259,187,265419,1,0,0:0:0:0:
259,187,265494,1,0,0:0:0:0:
259,187,265794,1,0,0:0:0:0:
259,187,265869,1,8,0:0:0:0:
259,187,265944,1,8,0:0:0:0:
259,187,266094,1,0,0:0:0:0:
259,187,266244,1,12,0:0:0:0:
259,187,266394,1,8,0:0:0:0:
259,187,266544,1,8,0:0:0:0:
259,187,266619,1,0,0:0:0:0:
259,187,266694,1,8,0:0:0:0:
259,187,266769,1,8,0:0:0:0:
259,187,266844,1,0,0:0:0:0:
259,187,266994,1,8,0:0:0:0:
259,187,267069,1,0,0:0:0:0:
259,187,267144,1,8,0:0:0:0:
259,187,267294,1,4,0:0:0:0:
259,187,267444,1,12,0:0:0:0:
259,187,267594,1,4,0:0:0:0:
259,187,267744,1,12,0:0:0:0:
259,187,267894,1,12,0:0:0:0:
259,187,268044,1,8,0:0:0:0:
259,187,268119,1,8,0:0:0:0:
259,187,268194,1,8,0:0:0:0:
288,201,268344,1,8,0:0:0:0:
288,201,268419,1,8,0:0:0:0:
288,201,268494,1,8,0:0:0:0:
288,201,268569,1,0,0:0:0:0:
288,201,268644,1,0,0:0:0:0:
288,201,268719,1,8,0:0:0:0:
288,201,268794,1,0,0:0:0:0:
288,201,268869,1,8,0:0:0:0:
288,201,268944,1,8,0:0:0:0:
288,201,269019,1,8,0:0:0:0:
288,201,269094,1,0,0:0:0:0:
288,201,269169,1,0,0:0:0:0:
259,187,269244,1,8,0:0:0:0:
