osu file format v9

[General]
AudioFilename: chaosmaid.mp3
AudioLeadIn: 0
PreviewTime: 67983
Countdown: 0
SampleSet: Normal
StackLeniency: 0.7
Mode: 0
LetterboxInBreaks: 0

[Editor]
Bookmarks: 10841,23539,33698,43856,57825,67983,98460,108618
DistanceSpacing: 1
BeatDivisor: 4
GridSize: 4

[Metadata]
Title:chaosmaid (demo)
Artist:Acme Iku
Creator:qilliam
Version:chaosmaid
Source:
Tags:maidloid paraoka vocaloid akume training diary lesjuh mmzz

[Difficulty]
HPDrainRate:7
CircleSize:4
OverallDifficulty:7
ApproachRate:8
SliderMultiplier:1.8
SliderTickRate:2

[Events]
//Background and Video events
0,0,"bg.jpg"
//Break Periods
2,58024,67233
//Storyboard Layer 0 (Background)
//Storyboard Layer 1 (Fail)
//Storyboard Layer 2 (Pass)
//Storyboard Layer 3 (Foreground)
//Storyboard Sound Samples
//Background Colour Transformations
3,100,0,0,0

[TimingPoints]
682,317.460317460317,4,1,1,70,1,0
20999,-100,4,1,0,35,0,0
23539,-100,4,1,1,70,0,0
44967,-100,4,2,0,70,0,0
46237,-100,4,1,1,70,0,0
47507,-100,4,2,0,70,0,0
48936,-100,4,1,1,70,0,0
50047,-100,4,2,0,70,0,0
51317,-100,4,1,1,70,0,0
52587,-100,4,2,0,70,0,0
54015,-100,4,1,1,70,0,0
57825,-100,4,1,1,5,0,0
67983,-100,4,1,1,70,0,1
83221,-100,4,1,1,60,0,0
85444,-100,4,1,1,62,0,0
85523,-100,4,1,1,64,0,0
85602,-100,4,1,1,66,0,0
85682,-100,4,1,1,68,0,0
85761,-100,4,1,1,70,0,1
98142,-100,4,1,1,70,0,0
108618,-100,4,2,0,5,0,0

[Colours]
Combo1 : 244,136,211
Combo2 : 171,29,97
Combo3 : 117,117,255
Combo4 : 37,163,66

[HitObjects]
144,328,10840,2,0,B|131:315|131:315|144:264|199:248,1,90,14|10
248,207,11158,1,2
337,190,11316,1,0
129,310,11475,6,0,B|113:303|113:303|103:251|149:214,1,90,10|0
179,157,11793,1,2
254,106,11951,1,2
116,292,12110,6,0,B|99:292|99:292|69:247|97:196,1,90,8|10
102,131,12428,1,0
150,55,12586,1,2
233,20,12745,5,10
246,20,12824,1,0
259,20,12904,1,2
272,22,12983,1,0
285,25,13062,1,2
297,29,13142,1,0
308,35,13221,1,0
319,42,13301,1,0
327,52,13380,6,0,B|364:92|376:152,1,90,14|10
185,332,13697,2,0,B|148:292|136:232,1,90,2|0
416,96,14015,6,0,B|414:150|381:201,1,90,10|0
96,288,14332,2,0,B|97:233|130:182,1,90,2|2
432,224,14650,6,0,B|383:248|322:243,1,90,8|10
80,160,14967,2,0,B|128:135|189:140,1,90,0|2
256,156,15285,5,10
256,169,15364,1,0
256,182,15443,1,4
256,195,15523,1,0
256,208,15602,1,2
256,221,15682,1,0
256,234,15761,1,2
256,247,15840,1,0
256,260,15920,6,0,B|256:296|256:296|252:300|252:300|260:300|260:300|256:304|256:304|256:352,1,90,14|10
256,338,16237,1,2
256,338,16396,1,0
398,233,16555,6,0,B|412:216|412:216|412:168|412:168|400:152,1,90,10|0
400,152,16872,1,2
400,152,17031,1,2
113,150,17189,6,0,B|100:168|100:168|100:216|100:216|112:232,1,90,8|10
112,232,17507,1,0
112,232,17666,1,2
175,295,17824,5,10
184,304,17904,1,0
193,313,17983,1,2
202,322,18062,1,0
211,331,18142,1,2
224,331,18221,1,0
237,331,18301,1,0
250,331,18380,1,0
263,331,18459,6,0,B|310:331|310:331|344:284,1,90,14|10
381,218,18777,1,2
425,139,18935,1,0
335,296,19094,6,0,B|292:276|292:276|281:219,1,90,10|0
275,142,19412,1,2
268,52,19570,1,2
284,234,19729,6,0,B|330:234|330:234|365:187,1,90,8|10
403,119,20047,1,0
447,41,20205,1,2
356,41,20364,5,10
342,41,20443,1,0
328,41,20523,1,0
314,41,20602,1,0
300,41,20681,1,2
286,41,20761,1,0
272,41,20840,1,2
258,41,20920,1,2
244,41,20999,6,2,B|122:41,1,90,6|2
192,220,21316,2,0,B|70:220,1,90,2|0
362,145,21634,2,2,B|240:145,1,90
448,320,21951,1,0
448,320,22110,6,0,B|344:321,2,90,2|0|2
248,96,22586,2,0,B|348:96,1,90,0|2
168,232,22904,2,2,B|264:232,1,90
36,44,23221,2,0,B|144:44,1,90,2|0
216,44,23539,6,0,B|336:48|372:176,1,180,6|0
388,221,24015,1,2
306,260,24174,2,0,B|335:316|403:313,2,90,2|0|0
266,179,24650,1,0
218,255,24808,6,0,B|198:340,1,90,2|0
140,237,25126,2,0,B|54:217,1,90,2|0
158,159,25443,2,0,B|177:73,1,90,2|0
236,177,25761,2,0,B|321:196,1,90,2|0
410,223,26078,6,0,B|431:264|431:264|409:341|326:355,1,180,2|0
287,278,26555,1,2
102,161,26713,2,0,B|81:120|81:120|103:43|186:29,1,180,2|0
225,106,27189,1,0
304,148,27348,6,0,B|336:176|336:176|412:180|440:104,1,180,2|0
383,32,27824,1,2
208,236,27983,2,0,B|176:208|176:208|100:204|72:280,1,180,2|0
129,352,28459,1,0
212,320,28618,5,2
212,320,28697,1,0
212,320,28777,2,0,B|272:316|294:249,1,90,0|2
204,230,29094,1,0
194,66,29253,1,2
297,194,29412,1,0
139,151,29570,1,2
292,93,29729,1,0
367,142,29888,5,2
410,174,30205,1,0
434,221,30523,1,2
443,274,30840,1,0
443,274,30999,1,0
443,274,31158,6,0,B|448:308|448:308|432:364|372:316|372:316|312:340,1,180,2|0
239,355,31634,1,2
159,308,31793,2,0,B|132:300|132:300|96:260|116:228,1,90,2|0
138,207,32031,1,0
109,172,32110,2,0,B|109:136|109:136|117:116|117:116|117:52,1,90
186,24,32428,6,0,B|198:144|338:102,1,180,2|0
372,40,32904,1,2
283,25,33062,2,0,B|204:128,1,90,2|0
203,134,33301,1,0
228,171,33380,2,0,B|331:250,1,90
372,279,33697,6,0,B|404:298|404:298|468:272|432:212|432:212|448:160,1,180,6|0
474,93,34174,1,2
384,106,34332,2,0,B|379:40|441:8,2,90,2|0|0
442,178,34808,1,0
353,193,34967,6,0,B|304:288,1,90,2|0
188,340,35285,2,0,B|237:245,1,90,2|0
196,124,35602,2,0,B|154:203,1,90,2|0
31,271,35920,2,0,B|72:191,1,90,2|0
133,124,36237,6,0,B|186:91|186:91|206:163|288:138,1,180,2|0
269,51,36713,1,2
379,260,36872,2,0,B|325:292|325:292|305:220|223:245,1,180,2|0
243,333,37348,1,0
160,327,37507,6,0,B|72:328|64:248|64:248|120:220,1,180,2|0
186,201,37983,1,2
352,57,38142,2,0,B|440:56|448:136|448:136|392:164,1,180,2|0
326,183,38618,1,0
251,132,38777,5,2
251,132,38856,1,0
251,132,38935,2,0,B|232:68|152:76,1,90,0|2
164,163,39253,1,0
91,309,39412,1,2
236,232,39570,1,0
74,210,39729,1,2
192,323,39888,1,0
280,308,40047,5,2
329,286,40364,1,0
378,308,40681,1,2
427,286,40999,1,0
427,286,41158,1,0
427,286,41316,6,0,B|427:198,1,90,2|0
85,98,41634,2,0,B|85:186,1,90,2|2
337,106,41951,2,0,B|427:106,1,90,2|0
175,278,42269,2,0,B|85:278,1,90,2|0
320,256,42586,6,0,B|306:213,2,45,2|0|0
192,128,42904,2,0,B|205:170,2,45,2|0|0
328,332,43221,2,0,B|309:347|309:347|248:320,1,90,2|0
184,52,43539,2,0,B|203:37|203:37|263:63,1,90,2|0
336,116,43856,5,2
336,116,44015,1,0
371,198,44174,1,2
427,127,44332,2,0,B|476:176|467:243|408:282,1,180,2|2
176,116,44967,5,2
176,116,45285,1,2
141,198,45443,1,0
85,127,45602,2,0,B|36:176|45:243|104:282,1,180,2|2
272,338,46237,6,0,B|344:316|324:252|324:252|404:232,1,180,2|2
476,216,46713,1,0
411,153,46872,2,0,B|383:115|383:115|390:72,1,90,2|0
478,93,47189,1,2
240,46,47507,6,0,B|168:68|188:132|188:132|108:152,1,180,2|2
36,168,47983,1,0
101,231,48142,2,0,B|128:268|128:268|121:311,1,90,2|0
34,291,48459,1,2
226,100,48935,5,2
347,162,49094,1,0
285,283,49253,1,2
164,221,49412,1,2
256,192,49729,1,2
256,192,50047,5,2
315,74,50364,1,2
124,198,50523,1,0
327,302,50682,1,2
256,192,50999,1,2
76,213,51316,6,0,B|61:183|61:183|88:125|149:153|149:153|184:112,1,180,2|2
236,51,51793,1,0
264,135,51951,2,0,B|193:150|142:105|145:36,1,180,2|2
436,171,52586,6,0,B|450:200|450:200|423:258|362:230|362:230|327:271,1,180,2|2
276,333,53062,1,0
248,249,53221,2,0,B|318:233|369:278|366:347,1,180,2|2
289,87,54015,5,2
150,157,54174,1,0
222,296,54332,1,2
361,226,54491,1,2
256,192,54808,1,2
256,192,55126,12,0,57824
198,88,67983,6,0,B|108:88,2,90
288,88,68459,1,8
243,165,68618,2,0,B|175:185|175:265,1,90,10|8
164,313,68935,1,0
164,313,69094,1,8
164,313,69253,6,0,B|228:308|228:308|276:268|276:268|339:261,1,180,10|2
342,260,69650,1,0
355,257,69729,1,8
368,255,69808,1,0
381,253,69888,2,0,B|428:229|428:229|448:165,1,90,10|8
460,105,70205,1,0
374,132,70364,1,8
390,43,70523,6,0,B|352:32|352:32|268:92|268:92|216:84,1,180,14|0
231,86,70999,1,8
61,59,71158,2,0,B|80:53|80:53|122:83|122:83|141:81,2,90,10|8|0
19,138,71634,1,8
40,225,71793,6,0,B|15:257|15:257|43:337|151:293,1,180,10|2
214,332,72269,2,0,B|240:272|179:216,1,90,8|10
154,171,72586,1,8
150,158,72666,1,0
149,144,72745,1,0
153,131,72824,1,0
160,119,72904,1,8
169,109,72983,1,0
181,102,73062,6,0,B|300:60,1,90,14|0
424,103,73380,2,0,B|353:49,1,90,0|8
321,133,73697,2,0,B|268:228,1,90,10|8
277,211,74015,1,0
277,211,74174,1,8
65,277,74332,6,0,B|122:328|122:328|210:272,1,180,10|2
209,272,74808,1,8
281,326,74967,2,0,B|209:272,1,90,10|8
141,211,75285,1,0
226,183,75443,1,8
297,237,75602,6,0,B|376:244|420:188|388:88,1,180,14|0
353,44,76078,1,8
353,44,76237,2,0,B|252:80,1,90,10|8
92,43,76555,2,8,B|177:74,1,90,0|8
221,152,76872,6,0,B|234:197|234:197|274:211,1,90,10|0
440,217,77189,2,0,B|394:206|394:206|362:235,1,90,2|8
270,371,77507,2,0,B|303:337|303:337|295:295,1,90,10|8
295,295,77745,1,0
295,295,77824,1,0
432,56,78142,5,14
419,60,78221,1,0
406,65,78301,2,0,B|288:112,1,90
238,131,78618,1,8
160,180,78777,2,0,B|128:129|169:62,1,90,10|8
123,260,79094,2,0,B|69:232|69:154,1,90,0|8
42,103,79412,5,10
42,89,79491,1,0
47,76,79570,2,0,B|84:26|84:26|130:34,1,90,0|2
194,68,79888,1,8
279,97,80047,1,10
279,97,80205,1,8
363,67,80364,2,0,B|383:121|329:181,1,90,0|8
265,183,80681,6,0,B|292:236|341:241|341:241|284:312,1,180,14|0
224,365,81158,1,8
135,350,81316,1,10
175,288,81475,1,8
46,332,81634,1,0
128,210,81793,1,8
83,131,81951,6,0,B|86:115|86:115|102:119|102:119|105:103|105:103|121:107|121:107|124:91|124:91|140:95|140:95|144:79|144:79|159:83|159:83|163:67|163:67|178:71|178:71|182:55|182:55|198:59|198:59|201:43,1,180,10|2
272,30,82428,1,8
350,73,82586,2,0,B|404:61|440:112,1,90,10|8
412,269,82904,2,0,B|358:281|322:230,1,90,0|8
256,192,83221,5,10
256,192,83380,1,0
77,164,83697,1,0
154,118,83856,2,0,B|138:95|138:95|160:38,1,90,10|0
321,361,84332,1,0
243,314,84491,2,0,B|230:341|230:341|171:351,1,90,10|0
369,50,84967,1,0
368,140,85126,2,0,B|398:138|398:138|436:185,1,90,10|0
460,272,85443,1,0
460,272,85523,1,0
460,272,85602,1,8
460,272,85681,1,0
460,272,85761,6,0,B|450:286|450:286|430:278|430:278|366:278|366:278|352:272|352:272|282:272,1,180,14|0
199,272,86237,1,8
126,325,86396,1,10
126,325,86475,1,0
126,325,86555,1,8
119,234,86713,2,0,B|127:188|127:188|172:132,1,90,0|8
184,69,87031,6,0,B|231:90|239:135,1,90,10|0
409,148,87348,2,0,B|368:178|325:164,1,90,2|8
228,304,87666,2,0,B|223:253|258:223,1,90,10|8
257,223,87904,1,0
258,223,87983,1,0
120,39,88301,6,0,B|32:147|32:147|56:227,1,180,14|8
164,270,88777,2,0,B|252:162|252:162|228:82,1,180,10|0
212,37,89253,1,0
212,37,89412,1,8
299,56,89570,6,0,B|356:24|432:48|448:120,1,180,10|8
357,130,90047,1,0
284,276,90205,1,10
429,199,90364,1,8
267,177,90523,1,8
385,290,90681,1,8
385,290,90840,6,0,B|288:348|288:348|192:312,1,180,14|8
65,284,91316,2,0,B|162:226|162:226|224:249,1,180,2|0
307,285,91793,1,0
297,195,91951,1,8
225,249,92110,6,0,B|162:226|162:226|132:88,1,180,10|8
202,51,92586,1,0
358,13,92745,1,10
243,127,92904,1,8
399,89,93062,1,8
284,203,93221,1,8
284,203,93380,6,0,B|229:249|155:218|151:146,1,180,14|8
284,203,93856,2,0,B|338:156|412:187|416:259,1,180,10|0
328,280,94332,1,0
256,334,94491,1,8
169,359,94650,6,0,B|168:292|108:284|108:284|160:220,1,180,10|8
215,161,95126,1,0
333,48,95285,1,10
303,209,95443,1,8
233,62,95602,1,8
376,139,95761,1,8
256,192,95920,12,4,98142
101,349,98459,5,12
76,263,98618,1,8
23,190,98777,2,0,B|11:164|11:164|46:70,2,90,2|2|0
113,182,99253,1,8
112,92,99412,2,0,B|116:64|116:64|199:7,2,90,2|2|0
191,134,99888,1,8
240,58,100047,2,0,B|259:38|259:38|360:39,2,90,2|2|0
281,138,100523,1,8
366,104,100681,2,0,B|393:99|393:99|475:157,1,90,2|2
475,219,100999,5,2
421,291,101158,1,0
343,337,101316,1,8
294,165,101475,5,2
349,236,101634,1,0
421,291,101793,1,8
294,165,101951,5,2
217,211,102110,1,0
217,120,102269,1,8
51,192,102428,5,2
130,234,102586,1,0
217,211,102745,1,8
139,48,102904,5,2
68,104,103062,1,0
51,192,103221,1,8
411,349,103539,5,12
436,263,103697,1,8
489,190,103856,2,0,B|501:164|501:164|466:70,2,90,2|2|0
399,182,104332,1,8
400,92,104491,2,0,B|396:64|396:64|313:7,2,90,2|2|0
321,134,104967,1,8
272,58,105126,2,0,B|253:38|253:38|152:39,2,90,2|2|0
231,138,105602,1,8
146,104,105761,2,0,B|119:99|119:99|37:157,1,90,2|2
256,192,106078,12,0,108618
