osu file format v5

[General]
AudioFilename: chaosmaid(demo).mp3
AudioLeadIn: 1004
PreviewTime: -1
Countdown: 0
SampleSet: Normal
StackLeniency: 0.2
Mode: 0
LetterboxInBreaks: 1
EditorDistanceSpacing: 0.800000011920929

[Metadata]
Title:Chaosmaid (demo)
Artist:Acme Iku
Creator:Shinxyn
Version:Hard
Source:Keina Sayaka
Tags:

[Difficulty]
HPDrainRate:4
CircleSize:4
OverallDifficulty:7
SliderMultiplier:1.4
SliderTickRate:2

[Events]
//Background and Video events
1,-256,"Dance Fight Paradise.avi"
0,0,"vlcsnap-189578.png"
//Break Periods
2,58025,62005
//Storyboard Layer 0 (Background)
//Storyboard Layer 1 (Failing)
//Storyboard Layer 2 (Passing)
//Storyboard Layer 3 (Foreground)
//Storyboard Sound Samples
//Background Colour Transformations
3,100,163,162,255

[TimingPoints]
683,317.460317460317,4,1,0,80,1,0

[Colours]
Combo1 : 255,242,242
Combo2 : 37,223,243
Combo3 : 92,92,252
Combo4 : 237,241,69
Combo5 : 255,170,43

[HitObjects]
400,256,5444,5,0
400,144,5762,2,0,B|288:216,2,70,2|0|2
288,112,6397,2,0,B|392:48,2,70,0|2|2
288,112,7032,1,0
200,176,7349,6,0,B|120:176,1,70,2|0
72,176,7667,1,2
72,64,7984,6,0,B|232:64,1,140,2|2
320,64,8619,1,0
320,64,8778,1,2
320,120,8936,1,0
320,120,9095,1,2
320,176,9254,2,0,B|208:72|136:104,1,140,2|2
96,160,9889,6,0,B|192:160,2,70,2|2|2
80,216,10365,2,0,B|168:216,2,70,2|0|0
96,272,10841,5,0
176,192,11159,1,0
256,120,11476,1,0
368,144,11794,1,0
472,184,12111,1,0
384,256,12429,2,0,B|312:240,1,70
272,272,12746,2,0,B|208:336|120:232,1,140
96,160,13381,5,0
200,120,13698,1,0
312,112,14016,1,0
248,200,14333,1,0
152,264,14651,1,0
248,312,14968,2,0,B|432:224|448:104|216:24,1,420
64,176,16556,5,0
288,176,17190,1,0
512,176,17825,2,0,B|424:200|384:168|264:128,1,210
256,120,18460,2,0,B|176:96|120:120|64:144|48:192,1,210
32,216,19095,2,0,B|8:296|64:352|152:336,1,210
200,320,19730,2,0,B|264:312|272:264,5,70,0|0|0|0|0|0
216,264,20682,1,0
256,160,21000,5,0
448,264,21635,1,0
256,376,22270,1,0
64,264,22905,1,0
192,80,23540,6,0,B|264:24|336:96,1,140
352,120,24016,1,0
320,168,24175,2,0,B|304:264|296:288|240:288|192:312|192:176|192:136,1,280
160,120,24968,1,0
104,280,25444,6,0,B|32:280,2,70,0|0|0
160,280,25921,2,0,B|248:280,1,70
208,104,26556,1,0
208,104,26714,1,0
384,184,27349,1,0
280,48,27825,1,0
280,104,27984,1,0
136,272,28619,6,0,B|112:192,1,70
192,128,29095,2,0,B|216:224,2,70
176,72,29571,1,0
272,128,29889,5,0
384,128,30206,2,0,B|256:224,1,140
56,280,31159,5,0
224,280,31635,1,0
168,280,31794,1,0
40,168,32270,5,0
40,168,32429,1,0
40,168,32587,1,0
128,232,32905,1,0
168,192,33063,1,0
368,296,33698,5,0
496,192,34175,1,0
488,248,34333,1,0
392,184,34651,1,0
404,129,34809,1,0
415,74,34968,1,0
272,160,35444,5,0
216,192,35603,1,0
328,192,35921,1,0
216,192,36238,1,0
160,192,36397,1,0
264,192,36714,5,0
264,192,36873,1,0
264,24,37349,1,0
216,56,37508,1,0
88,168,37984,1,0
128,136,38143,1,0
256,296,38778,5,0
256,184,39254,1,0
256,128,39413,1,0
256,128,39571,1,0
256,72,39730,1,0
256,184,40048,5,0
312,280,40365,1,0
200,296,40682,1,0
88,312,41000,1,0
88,192,41317,5,0
168,112,41635,1,0
184,160,41794,1,0
200,208,41952,1,0
272,120,42270,1,0
376,72,42587,5,0
368,184,42905,1,0
352,296,43222,1,0
256,344,43540,1,0
152,296,43857,6,0,B|64:304|56:248|120:224|120:184|0:192,1,210,2|0
24,192,44651,1,4
136,192,44968,6,0,B|272:160|280:128|264:80|104:72,1,280,2|0
40,136,45921,1,4
40,248,46238,5,2
152,248,46556,2,0,B|360:248,1,140
400,248,47190,5,4
400,248,47508,2,0,B|408:152|392:56|192:56,1,280,2|0
136,56,48460,5,4
136,56,48778,2,0,B|64:152|56:264|168:304,1,280,2|0
256,336,49730,5,4
256,224,50048,1,2
256,112,50365,5,0
256,112,50524,1,0
256,112,50683,1,0
368,112,51000,1,4
256,112,51317,6,0,B|176:112,4,70,2|0|0|0|0
176,192,52270,1,4
264,256,52587,6,0,B|352:248|328:152,1,140,2|0
280,136,53063,2,0,B|200:144|168:96,1,70
104,64,53540,6,0,B|176:32|272:72,1,140,4|0
288,80,54016,2,0,B|392:120,2,70,2|0|0
240,112,54492,1,0
344,152,54809,1,4
256,192,55127,12,0,57825
64,264,62905,5,0
288,264,63540,1,0
112,120,64175,1,0
248,16,64651,1,0
264,72,64809,1,0
248,128,64968,1,0
376,16,65444,5,0
224,176,66079,1,0
32,296,66714,2,0,B|136:232,3,70,2|0|2|0
144,296,67349,2,0,B|224:344,3,70,2|2|2|2
256,336,67984,6,0,B|432:320|384:184,1,210
368,160,68619,2,0,B|304:88|232:168|160:88,1,210
136,96,69254,2,0,B|128:200|160:280|64:296,1,210
72,232,69889,1,0
72,176,70048,1,0
72,120,70206,2,0,B|56:16|184:32,1,140
272,144,71000,5,0
272,144,71159,1,0
312,176,71317,1,0
312,176,71476,1,0
352,208,71635,1,0
352,208,71794,1,0
192,368,72429,2,0,B|296:384|392:368|392:232,1,280,0|0
328,24,73698,5,0
256,96,74016,1,0
328,184,74333,1,2
302,234,74492,1,2
270,187,74651,1,2
240,234,74809,1,0
216,184,74968,1,2
32,32,75603,5,0
480,352,76238,1,0
32,352,76873,6,2,L|72:336|48:296|80:312|56:272|112:288|80:256|128:256|104:224,1,350
152,192,77825,1,2
208,96,78143,6,0,B|280:96,1,70,2|0
360,168,78619,2,0,B|288:168,1,70,2|2
208,248,79095,2,0,B|208:344,2,70,2|0|2
288,328,79730,1,0
368,248,80048,2,0,B|368:96,1,140,2|0
336,216,80682,6,2,B|424:216,1,70,2|2
336,128,81159,2,0,B|424:128,2,70,2|0|2
224,128,81794,1,0
168,128,81952,2,0,B|88:112|64:208,3,140,0|6|0|2
168,192,83222,5,4
400,192,83857,1,2
344,192,84016,1,4
256,48,84492,1,2
256,104,84651,1,4
112,192,85127,1,0
168,192,85286,1,6
256,328,85762,2,0,B|288:240|344:192|432:280,1,210,0|2
416,312,86397,5,0
304,312,86714,1,2
192,312,87032,2,0,B|112:296|128:192,1,140,0|2
152,96,87667,1,0
256,128,87984,2,0,B|312:168|312:248,1,70,2|2
256,192,88302,12,0,90841
24,336,92111,6,0,B|128:240,1,140
208,168,92746,2,0,B|408:168,2,140,0|0|0
320,112,94492,5,0
376,112,94651,1,0
264,112,94968,1,0
320,112,95127,1,0
376,112,95286,1,0
264,112,95603,1,0
256,192,95921,12,0,98460
88,192,98778,5,0
136,208,98936,1,0
304,192,99413,5,0
248,208,99571,1,0
96,128,100048,5,0
144,152,100206,1,0
280,256,100682,5,0
336,240,100841,1,0
344,128,101159,6,0,B|416:128,3,70
416,72,101794,2,0,B|320:72,5,70
256,144,102905,6,0,B|256:8,1,70
104,144,103540,1,0
184,224,103857,1,0
224,264,104016,1,0
344,144,104492,1,0
304,184,104651,1,0
448,264,105127,1,0
400,224,105286,1,4
256,192,106079,12,4,108302
