osu file format v9

[General]
AudioFilename: 02 - do what you wanna do.mp3
AudioLeadIn: 0
PreviewTime: 36276
Countdown: 1
SampleSet: Soft
StackLeniency: 0.7
Mode: 0
LetterboxInBreaks: 1

[Editor]
DistanceSpacing: 1
BeatDivisor: 4
GridSize: 8

[Metadata]
Title:Do What You Wanna Do
Artist:Acid House Kings
Creator:gyt
Version:Normal
Source:
Tags:indie twee Sing Along with Labrador Records

[Difficulty]
HPDrainRate:4
CircleSize:4
OverallDifficulty:4
ApproachRate:4
SliderMultiplier:1
SliderTickRate:1

[Events]
//Background and Video events
0,0,"acid.jpg"
//Break Periods
2,59783,65648
2,137322,139494
2,144937,146187
//Storyboard Layer 0 (Background)
//Storyboard Layer 1 (Fail)
//Storyboard Layer 2 (Pass)
//Storyboard Layer 3 (Foreground)
//Storyboard Sound Samples
//Background Colour Transformations
3,100,163,162,255

[TimingPoints]
507,461.538461538462,4,2,1,70,1,0
37430,-100,4,1,0,70,0,1
41122,-100,4,1,0,65,0,1
42045,-100,4,1,0,60,0,1
43891,-100,4,1,0,55,0,1
44814,-100,4,1,0,70,0,1
48737,-100,4,1,0,65,0,1
49430,-100,4,1,0,60,0,1
51276,-100,4,1,0,55,0,1
52199,-100,4,1,0,50,0,1
55891,-100,4,1,0,45,0,1
59583,-100,4,2,1,60,0,0
66968,-100,4,2,1,70,0,0
96506,-100,4,1,0,70,0,1
100199,-100,4,1,0,65,0,1
101122,-100,4,1,0,60,0,1
102968,-100,4,1,0,55,0,1
103891,-100,4,1,0,70,0,1
107814,-100,4,1,0,65,0,1
108507,-100,4,1,0,60,0,1
110353,-100,4,1,0,55,0,1
111276,-100,4,1,0,50,0,1
114968,-100,4,1,0,45,0,1
118660,-100,4,2,1,70,0,0
148199,-100,4,2,2,90,0,1
151891,-100,4,2,2,80,0,1
155583,-100,4,2,2,70,0,0
170353,-100,4,2,2,80,0,0
174045,-100,4,2,2,90,0,0
178199,-100,4,2,0,85,0,0
178660,-100,4,2,0,75,0,0
179122,-100,4,2,0,65,0,0
179583,-100,4,2,0,55,0,0
180045,-100,4,2,0,45,0,0
180507,-100,4,2,0,35,0,0
180968,-100,4,2,0,25,0,0
181430,-100,4,2,0,5,0,0

[Colours]
Combo1 : 222,206,116
Combo2 : 133,197,243
Combo3 : 128,128,192
Combo4 : 218,132,103

[HitObjects]
104,288,7891,1,4
200,264,8353,2,0,B|185:211|136:193,1,100,0|2
88,184,9045,1,0
16,112,9507,2,0,B|79:54|152:104,1,150,2|0
256,96,10660,6,0,B|262:50|309:70|317:24,2,100,0|2|4
312,184,12045,2,0,B|297:236|248:254,1,100,0|2
200,264,12737,1,0
128,336,13199,2,0,B|191:394|264:344,1,150,2|0
360,312,14353,6,0,B|336:264,1,50,0|2
376,232,14814,2,0,B|400:184,1,50,0|2
376,142,15276,1,8
408,48,15737,1,8
312,64,16199,2,0,B|265:66|277:16|230:16,2,100,0|2|4
120,128,18045,1,0
56,208,18507,1,2
157,220,18968,5,0
224,296,19430,2,0,B|256:336|256:336|304:320,1,100,2|0
400,328,20353,2,0,B|415:281|415:281|375:249,1,100,2|0
384,152,21276,2,0,B|337:136|337:136|305:176,1,100,2|0
256,192,21968,2,0,B|216:160,1,50,2|0
200,112,22430,2,0,B|216:64,1,50,2|4
120,32,23122,5,8
64,120,23583,2,0,B|104:152,1,50,0|8
64,264,24276,2,0,B|104:232,1,50,0|2
192,192,24968,1,2
272,256,25430,1,0
272,256,25660,1,2
296,352,26122,6,0,B|378:323|368:236,1,150,0|8
313,148,27275,2,0,B|353:116,1,50,0|8
248,56,27968,2,0,B|160:45|131:127,1,150,0|2
64,200,29122,5,2
107,224,29353,1,0
156,224,29583,2,0,B|213:253|180:320,1,100,2|8
264,248,30507,1,8
336,320,30968,2,0,B|363:358|395:318|424:355,2,100,0|2|4
416,136,32814,1,0
344,64,33276,1,2
320,160,33737,5,8
392,232,34199,1,8
296,256,34660,2,0,B|224:328,1,100,0|2
125,326,35583,2,0,B|78:326|56:291|50:250|86:220,1,150
120,184,36507,2,0,B|160:144,1,50,2|2
205,148,36968,2,0,B|245:188,1,50,2|2
290,183,37430,6,2,B|348:181|352:120,1,100,4|0
304,32,38353,1,0
400,32,38814,1,2
352,120,39276,6,2,B|356:182|414:184,1,100,4|0
503,135,40199,1,0
503,231,40660,1,2
416,272,41122,6,2,B|320:312,1,100,2|8
336,208,42045,2,2,B|352:104,1,100,2|8
256,72,42968,2,2,B|160:32,1,100,2|8
63,33,43891,1,2
63,33,44122,1,8
112,120,44583,1,8
144,160,44814,6,2,B|165:213|224:196,1,100,4|0
289,120,45737,1,0
322,210,46198,1,2
223,195,46660,6,2,B|166:219|184:275,1,100,4|0
261,342,47583,1,0
170,375,48044,1,2
40,304,48737,6,2,B|134:269,1,100,2|2
133,218,49430,2,2,B|39:183,1,100,2|8
120,120,50353,2,2,B|155:26,1,100,2|8
256,24,51276,1,2
256,24,51507,1,8
232,120,51968,1,8
280,120,52199,5,4
382,245,52891,2,0,B|405:244|439:230|435:195|424:176,2,100,0|8|0
299,188,54276,2,0,B|254:147|210:187,1,100
168,217,54968,1,2
158,316,55430,1,2
256,336,55891,5,4
358,226,56583,2,0,B|346:246|342:281|376:295|400:296,2,100,0|8|0
328,128,57968,2,0,B|309:70|252:83,1,100
200,87,58660,1,2
141,168,59122,1,2
216,234,59583,1,4
432,104,66968,5,4
352,48,67430,2,0,B|348:109|291:112,1,100,0|2
240,120,68122,1,0
272,216,68584,2,0,B|192:184|141:255,1,150,2|0
227,305,69737,6,0,B|236:351|282:327|294:372,2,100,0|2|4
141,256,71122,2,0,B|80:252|77:195,1,100,0|2
72,144,71814,1,0
112,112,72045,1,0
160,128,72276,2,0,B|239:161|290:90,1,150,2|0
368,24,73430,6,0,B|418:41,1,50,0|2
414,92,73891,2,0,B|430:143,1,50,0|2
477,156,74353,1,8
420,238,74814,1,8
496,304,75276,2,0,B|486:350|440:326|428:371,2,100,0|2|4
304,240,77122,1,0
360,157,77584,1,2
264,152,78045,6,0,B|239:107|239:107|192:104,1,100,2|2
144,120,78737,2,0,B|108:129|74:154|62:194|65:231,1,150,2|0
160,272,79891,6,0,B|168:221|168:221|211:202,2,100,2|2|0
176,320,81045,2,0,B|208:360,1,50,2|0
256,344,81507,2,0,B|304:360,1,50,0|4
376,288,82199,5,8
376,184,82660,2,0,B|336:216,1,50,0|8
240,192,83353,2,0,B|279:160,1,50,0|2
360,96,84045,1,2
264,72,84507,1,0
264,72,84737,1,2
184,128,85199,6,0,B|113:178|47:120,1,150,0|8
64,216,86352,2,0,B|72:264,1,50,0|8
48,360,87045,2,0,B|113:301|184:352,1,150,0|2
280,384,88199,5,2
280,333,88430,1,0
256,288,88660,2,0,B|239:226|167:244,1,100,2|8
112,168,89584,1,8
208,144,90045,2,0,B|246:117|206:85|243:56,2,100,0|2|4
408,128,91891,1,0
312,152,92353,1,2
384,224,92814,5,8
456,296,93276,1,8
480,200,93737,2,0,B|531:165|506:114,1,100,0|2
440,40,94660,2,0,B|425:77|389:99|347:97|316:73,1,150
272,45,95584,2,0,B|224:80,1,50,2|2
232,126,96045,2,0,B|260:169,1,50,2|2
222,201,96507,6,2,B|164:203|160:264,1,100,4|0
208,352,97430,1,0
112,352,97891,1,2
160,264,98353,6,2,B|156:202|98:200,1,100,4|0
9,249,99276,1,0
9,153,99737,1,2
96,112,100199,6,2,B|192:72,1,100,2|8
176,176,101122,2,2,B|160:280,1,100,2|8
256,312,102045,2,2,B|352:352,1,100,2|8
449,351,102968,1,2
449,351,103199,1,8
400,264,103660,1,8
368,224,103891,6,2,B|347:171|288:188,1,100,4|0
223,264,104814,1,0
190,174,105275,1,2
289,189,105737,6,2,B|346:165|328:109,1,100,4|0
251,42,106660,1,0
342,9,107121,1,2
472,80,107814,6,2,B|378:115,1,100,2|2
379,166,108507,2,2,B|473:201,1,100,2|8
392,264,109430,2,2,B|357:358,1,100,2|8
256,360,110353,1,2
256,360,110584,1,8
280,264,111045,1,8
232,264,111276,5,4
130,139,111968,2,0,B|107:140|73:154|77:189|88:208,2,100,0|8|0
213,196,113353,2,0,B|258:237|302:197,1,100
344,167,114045,1,2
354,68,114507,1,2
256,48,114968,5,4
154,158,115660,2,0,B|166:138|170:103|136:89|112:88,2,100,0|8|0
184,256,117045,2,0,B|203:314|260:301,1,100
312,297,117737,1,2
371,216,118199,1,2
296,150,118660,5,4
352,64,119122,1,2
256,64,119583,2,0,B|207:28|168:72,1,100,0|2
80,120,120507,1,0
168,168,120968,1,2
80,216,121430,2,0,B|44:265|88:304,2,100,0|2|4
168,168,122814,5,2
160,368,123737,1,2
336,264,124660,1,2
320,112,125353,2,0,B|352:72,1,50,0|2
401,72,125814,2,0,B|433:112,1,50,2|4
376,192,126507,6,0,B|428:218|437:276|414:329|357:342,1,200,2|2
280,280,127891,2,0,B|263:336|204:328,1,100,0|2
128,264,128814,2,0,B|88:224,1,50,0|2
92,178,129276,2,0,B|132:138,1,50,0|2
176,128,129737,6,0,B|232:111|224:52,1,100,0|2
320,24,130660,1,0
309,121,131122,1,2
400,80,131583,2,0,B|392:139|448:155,1,100,0|2
472,256,132507,2,0,B|421:284,1,50,0|2
376,275,132969,2,0,B|330:239,1,50,0|2
296,216,133430,5,4
256,184,133660,2,0,B|234:154|200:128|157:133|124:148,1,150,0|2
168,240,134814,1,2
248,299,135276,5,4
288,331,135506,2,0,B|309:360|343:386|386:381|419:366,1,150,0|2
376,275,136660,1,2
440,200,137122,1,4
197,152,140814,5,4
165,192,141044,2,0,B|135:213|109:247|114:290|129:323,1,150,0|2
221,280,142198,1,2
280,200,142660,5,4
312,160,142890,2,0,B|341:138|367:104|362:61|347:28,1,150,0|2
256,72,144044,1,2
256,72,144737,1,2
200,144,147507,6,0,B|208:192,1,50,8|0
256,208,147968,2,0,B|248:256,1,50,8|4
184,336,148660,2,0,B|126:331|117:275,1,100,8|0
106,225,149353,1,0
112,176,149583,2,0,B|123:120|73:93,1,100,8|0
32,64,150276,1,2
120,16,150737,1,2
216,48,151199,2,0,B|184:96,1,50,2|8
208,136,151660,6,0,B|235:94,1,50,2|4
328,48,152353,2,0,B|386:53|395:109,1,100,8|0
406,159,153046,1,0
400,208,153276,2,0,B|389:264|439:291,1,100,8|0
480,320,153969,1,2
392,368,154430,1,2
296,336,154891,2,0,B|328:288,1,50,2|8
304,248,155352,6,0,B|277:290,1,50,2|4
208,216,156045,1,2
128,280,156507,2,0,B|85:241|110:191,1,100,0|2
152,96,157430,1,0
240,48,157891,1,2
328,96,158353,2,0,B|376:120,1,50,2|2
408,152,158814,2,0,B|432:200,1,50,0|2
440,248,159276,6,0,B|429:288|392:294|392:294|385:321,1,100,0|2
288,304,160199,2,0,B|248:293|242:256|242:256|215:249,1,100,0|2
128,192,161122,2,0,B|139:152|176:146|176:146|183:119,2,100,0|2|2
111,239,162276,1,0
120,288,162507,1,2
213,248,162968,5,4
272,168,163430,2,0,B|303:124|362:112|414:144|429:195,1,200,2|2
339,247,164814,2,0,B|337:306|281:316,1,100,0|2
184,288,165737,2,0,B|136:264,1,50,0|2
104,232,166198,2,0,B|80:184,1,50,0|2
72,136,166660,6,0,B|83:96|120:90|120:90|127:63,1,100,0|2
224,80,167583,2,0,B|264:91|270:128|270:128|297:135,1,100,0|2
384,192,168506,2,0,B|373:232|336:238|336:238|329:265,2,100,0|2|2
401,145,169660,1,0
392,96,169891,1,2
298,135,170353,5,4
240,216,170814,2,0,B|210:264|154:248|154:248|179:300|137:338,1,200,8|8
80,256,172199,1,0
144,176,172660,1,8
208,40,173353,2,8,B|263:65|234:120,1,100
233,121,174045,5,4
272,216,174507,2,0,B|301:264|357:248|357:248|332:300|374:338,1,200,8|8
432,256,175892,1,0
368,176,176353,1,8
304,40,177045,2,8,B|248:65|277:120,1,100
278,121,177737,1,4
256,192,177853,12,0,181430
