osu file format v14

[General]
AudioFilename: 05 .mp3
AudioLeadIn: 0
PreviewTime: 42848
Countdown: 0
SampleSet: Soft
StackLeniency: 0.7
Mode: 0
LetterboxInBreaks: 0
WidescreenStoryboard: 1

[Editor]
Bookmarks: 26111,37164,45059,47269
DistanceSpacing: 1.8
BeatDivisor: 4
GridSize: 4
TimelineZoom: 2.4

[Metadata]
Title:Na mo naki ka no chi e
TitleUnicode:名もなきかの地へ
Artist:Achiwa Daisuke
ArtistUnicode:阿知波大輔
Creator:khy200610140
Version:Hard
Source:Atelier Escha & Logy~Alchemists of the Dusk sky~
Tags:Gust A15 Rakuen IamKwaN
BeatmapID:475687
BeatmapSetID:200768

[Difficulty]
HPDrainRate:5
CircleSize:3.5
OverallDifficulty:5
ApproachRate:7
SliderMultiplier:1.8
SliderTickRate:1

[Events]
//Background and Video events
0,0,"TVCAM_20130819_202203.312.jpg",0,0
//Break Periods
//Storyboard Layer 0 (Background)
//Storyboard Layer 1 (Fail)
//Storyboard Layer 2 (Pass)
//Storyboard Layer 3 (Foreground)
//Storyboard Sound Samples

[TimingPoints]
533,631.578947368421,4,2,1,30,1,0
2427,-100,4,2,1,40,0,0
42848,-83.3333333333333,4,2,1,40,0,0
43480,-83.3333333333333,4,2,88,80,0,1
63059,-100,4,2,1,60,0,0
103480,-100,4,2,1,40,0,0
111690,-100,4,2,1,25,0,0
112954,-100,4,2,1,15,0,0
113585,-100,4,2,1,5,0,0

[Colours]
Combo1 : 255,128,255
Combo2 : 128,255,128
Combo3 : 128,0,64

[HitObjects]
40,280,533,6,0,P|80:258|100:219,1,90,2|0,0:0|0:0,0:0:0:0:
157,156,1006,2,0,L|253:156,1,90,2|0,0:0|0:0,0:0:0:0:
316,206,1480,1,2,0:0:0:0:
428,77,1796,1,2,0:0:0:0:
316,206,2427,5,8,0:0:0:0:
428,77,2743,1,2,0:0:0:0:
316,206,3059,2,0,L|424:206,1,90,8|2,0:0|0:0,0:0:0:0:
449,280,3533,1,0,0:0:0:0:
364,289,3690,2,0,L|268:289,1,90,8|2,0:0|0:0,0:0:0:0:
241,363,4164,1,0,0:0:0:0:
183,299,4322,6,0,P|187:247|167:203,1,90,8|2,0:0|0:0,0:0:0:0:
124,48,4954,2,0,L|96:152,1,90,8|2,0:0|0:0,0:0:0:0:
77,217,5427,1,0,0:0:0:0:
190,132,5585,2,0,B|226:120|226:120|290:136,1,90,8|2,0:0|0:0,0:0:0:0:
436,195,6217,1,8,0:0:0:0:
240,288,6533,6,0,L|286:287,1,45,2|0,0:0|0:0,0:0:0:0:
335,348,6848,2,0,L|424:347,1,90,8|2,0:0|0:0,0:0:0:0:
436,195,7480,6,0,P|436:171|456:143,1,45,8|0,0:0|0:0,0:0:0:0:
504,90,7796,2,0,P|505:61|495:39,1,45
365,126,8111,2,0,L|275:126,1,90,8|2,0:0|0:0,0:0:0:0:
148,32,8743,2,0,P|100:52|72:96,1,90,8|2,0:0|0:0,0:0:0:0:
175,205,9375,2,0,L|150:101,1,90,8|2,0:0|0:0,0:0:0:0:
64,256,10006,6,0,L|50:298,1,45,8|0,0:0|0:0,0:0:0:0:
106,363,10322,1,2,0:0:0:0:
249,296,10638,2,0,L|343:311,1,90,8|2,0:0|0:0,0:0:0:0:
485,212,11269,2,0,L|378:227,1,90,8|2,0:0|0:0,0:0:0:0:
260,134,11901,1,8,0:0:0:0:
404,53,12217,1,2,0:0:0:0:
395,224,12532,6,0,P|391:264|347:320,2,90,8|2|10,0:0|0:0|0:0,0:0:0:0:
292,324,13480,1,2,0:0:0:0:
292,324,13638,1,0,0:0:0:0:
292,324,13796,2,0,B|336:336|368:385,2,90,8|2|8,0:0|0:0|0:0,0:0:0:0:
344,144,14743,1,2,0:0:0:0:
224,220,15059,6,0,L|120:220,1,90,8|2,0:0|0:0,0:0:0:0:
76,156,15532,1,0,0:0:0:0:
57,69,15690,2,0,P|126:88|165:143,1,135,12|0,0:0|0:0,0:0:0:0:
129,215,16322,2,0,P|185:167|257:159,1,135,12|0,0:0|0:0,0:0:0:0:
232,76,16954,2,0,P|289:93|325:166,1,135,4|0,0:0|0:0,0:0:0:0:
285,231,17585,5,8,0:0:0:0:
169,350,17901,2,0,P|141:342|125:318,1,45,2|0,0:0|0:0,0:0:0:0:
160,248,18217,2,0,L|63:266,1,90,12|2,0:0|0:0,0:0:0:0:
8,308,18690,1,0,0:0:0:0:
8,308,18848,2,0,L|24:208,1,90,8|2,0:0|0:0,0:0:0:0:
88,168,19322,1,0,0:0:0:0:
168,160,19480,6,0,P|220:156|266:127,1,90,8|2,0:0|0:0,0:0:0:0:
252,228,19954,2,0,P|252:284|280:324,1,90
336,252,20427,1,2,0:0:0:0:
360,112,20743,6,0,L|403:99,2,45,8|0|0,0:0|0:0|0:0,0:0:0:0:
186,144,21375,2,0,L|242:160,2,45,8|0|2,0:0|0:0|0:0,0:0:0:0:
58,30,22006,1,8,0:0:0:0:
368,140,22638,6,0,P|439:130|470:144,1,90,8|2,0:0|0:0,0:0:0:0:
412,210,23111,1,0,0:0:0:0:
311,248,23269,2,0,L|327:64,1,180,4|8,0:0|0:0,0:0:0:0:
412,210,24217,6,0,L|408:266,1,45
487,270,24533,2,0,P|468:310|432:336,1,90,8|2,0:0|0:0,0:0:0:0:
352,324,25006,1,0,0:0:0:0:
311,248,25164,2,0,L|191:248,1,90,8|2,0:0|0:0,0:0:0:0:
144,248,25638,1,0,0:0:0:0:
116,160,25796,6,0,B|63:207|63:207|59:323,1,180,8|8,0:0|0:0,0:0:0:0:
220,292,26743,2,0,P|222:336|211:380,2,90,2|8|2,0:0|0:0|0:0,0:0:0:0:
360,208,27690,6,0,L|448:192,1,90,8|2,0:0|0:0,0:0:0:0:
308,96,28322,2,0,L|218:86,1,90,8|2,0:0|0:0,0:0:0:0:
360,208,28954,1,8,0:0:0:0:
472,44,29269,5,2,0:0:0:0:
308,96,29585,2,0,L|215:86,1,90,8|2,0:0|0:0,0:0:0:0:
135,81,30059,1,0,0:0:0:0:
168,164,30217,2,0,L|72:156,1,90,8|2,0:0|0:0,0:0:0:0:
244,124,30848,2,0,P|250:174|236:217,1,90,8|2,0:0|0:0,0:0:0:0:
128,320,31480,2,0,P|133:278|160:236,1,90,8|2,0:0|0:0,0:0:0:0:
304,296,32111,2,0,B|214:296,1,90,8|2,0:0|0:0,0:0:0:0:
352,196,32743,6,0,L|442:196,1,90,8|2,0:0|0:0,0:0:0:0:
268,216,33375,2,0,P|263:171|241:132,1,90,8|0,0:0|0:0,0:0:0:0:
84,104,34006,1,8,0:0:0:0:
232,52,34322,2,0,L|292:52,1,45,2|0,0:0|0:0,0:0:0:0:
356,16,34638,2,0,B|357:80|357:80|332:120,1,90,8|2,0:0|0:0,0:0:0:0:
164,144,35269,2,0,L|60:144,1,90,8|2,0:0|0:0,0:0:0:0:
144,56,35743,1,0,0:0:0:0:
228,76,35901,6,0,P|247:139|230:204,1,135,8|0,0:0|0:0,0:0:0:0:
312,216,36533,2,0,P|378:209|444:225,1,135,8|0,0:0|0:0,0:0:0:0:
256,280,37164,2,0,P|184:280|120:252,1,135,8|0,0:0|0:0,0:0:0:0:
76,192,37796,1,4,0:0:0:0:
36,348,38111,1,2,0:0:0:0:
76,192,38427,6,0,P|108:156|116:108,1,90,8|2,0:0|0:0,0:0:0:0:
184,72,38901,1,0,0:0:0:0:
204,152,39059,2,0,P|228:208|260:228,1,90,8|2,0:0|0:0,0:0:0:0:
292,152,39533,1,0,0:0:0:0:
336,224,39690,2,0,P|404:231|469:281,2,135,8|2|2,0:0|0:0|0:0,0:0:0:0:
172,324,40954,2,0,P|183:280|178:236,1,90,8|2,0:0|0:0,0:0:0:0:
24,208,41585,2,0,P|52:186|74:132,1,90
188,64,42217,1,8,0:0:0:0:
188,64,42848,6,0,P|256:44|288:0,2,107.999996704102,2|2|0,0:0|0:0|0:0,0:0:0:0:
92,64,43638,1,0,0:0:0:0:
92,64,43796,2,0,L|80:128,1,53.9999983520508,2|0,0:0|0:0,0:0:0:0:
168,144,44111,2,0,B|196:176|260:136|260:136|336:148,1,161.999995056153,8|0,0:0|0:0,0:0:0:0:
408,168,44743,1,8,0:0:0:0:
464,368,45059,6,0,P|480:344|472:304,1,53.9999983520508,2|0,0:0|0:0,0:0:0:0:
508,244,45375,2,0,B|464:232|464:232|424:260|388:244,1,107.999996704102,8|2,0:0|0:0,0:0:0:0:
224,168,46006,2,0,L|278:168,1,53.9999983520508,2|0,0:0|0:0,0:0:0:0:
324,96,46322,2,0,L|378:96,1,53.9999983520508,8|0,0:0|0:0,0:0:0:0:
420,24,46638,2,0,P|456:62|464:115,1,107.999996704102,8|2,0:0|0:0,0:0:0:0:
396,184,47111,1,0,0:0:0:0:
396,184,47269,2,0,B|336:168|336:168|272:184,1,107.999996704102,8|2,0:0|0:0,0:0:0:0:
40,200,47901,6,0,B|88:188|88:188|134:137,1,107.999996704102,8|2,0:0|0:0,0:0:0:0:
124,56,48375,1,0,0:0:0:0:
208,88,48533,2,0,L|212:208,1,107.999996704102,8|2,0:0|0:0,0:0:0:0:
144,272,49006,1,0,0:0:0:0:
74,335,49164,1,8,0:0:0:0:
336,352,49480,6,0,L|268:352,1,53.9999983520508,2|0,0:0|0:0,0:0:0:0:
316,272,49796,2,0,B|380:272|380:272|476:320,1,161.999995056153,8|0,0:0|0:0,0:0:0:0:
492,240,50427,6,0,B|452:220|452:220|436:140,1,107.999996704102,8|2,0:0|0:0,0:0:0:0:
304,32,51059,2,0,L|376:60,1,53.9999983520508,8|0,0:0|0:0,0:0:0:0:
224,124,51375,2,0,L|160:124,1,53.9999983520508,2|0,0:0|0:0,0:0:0:0:
88,124,51690,1,8,0:0:0:0:
88,124,52006,2,0,L|72:180,1,53.9999983520508,2|0,0:0|0:0,0:0:0:0:
36,212,52322,2,8,P|88:200|144:216,1,107.999996704102,8|10,0:0|0:0,0:0:0:0:
236,376,52954,6,0,P|240:316|208:268,2,107.999996704102,8|2|8,0:0|0:0|0:0,0:0:0:0:
160,336,53743,1,0,0:0:0:0:
159,335,53901,2,0,L|100:336,1,53.9999983520508,2|0,0:0|0:0,0:0:0:0:
144,252,54217,2,0,P|240:260|316:232,1,161.999995056153
384,192,54848,1,8,0:0:0:0:
384,192,55164,6,0,L|384:128,1,53.9999983520508,2|0,0:0|0:0,0:0:0:0:
336,88,55480,2,0,L|443:74,1,107.999996704102,8|2,0:0|0:0,0:0:0:0:
504,192,56111,1,10,0:0:0:0:
424,224,56269,1,0,0:0:0:0:
340,252,56427,2,0,L|299:218,1,53.9999983520508,2|0,0:0|0:0,0:0:0:0:
184,136,56743,2,0,L|220:268,1,107.999996704102,2|2,0:0|0:0,0:0:0:0:
136,300,57217,1,0,0:0:0:0:
108,216,57375,2,0,L|0:216,1,107.999996704102,8|2,0:0|0:0,0:0:0:0:
130,131,58006,6,0,P|176:160|192:212,1,107.999996704102,8|2,0:0|0:0,0:0:0:0:
136,300,58480,1,0,0:0:0:0:
136,300,58638,2,0,L|188:289,1,53.9999983520508,8|2,0:0|0:0,0:0:0:0:
252,352,58954,2,0,L|312:340,1,53.9999983520508,2|0,0:0|0:0,0:0:0:0:
396,320,59269,1,10,0:0:0:0:
395,319,59585,6,0,P|378:297|372:272,1,53.9999983520508,2|0,0:0|0:0,0:0:0:0:
440,200,59901,2,0,L|333:191,1,107.999996704102,8|2,0:0|0:0,0:0:0:0:
408,112,60375,1,0,0:0:0:0:
324,108,60533,2,0,L|196:96,1,107.999996704102,8|2,0:0|0:0,0:0:0:0:
88,256,61164,5,8,0:0:0:0:
88,256,61322,1,0,0:0:0:0:
88,256,61480,1,2,0:0:0:0:
88,256,61638,1,0,0:0:0:0:
88,256,61796,2,0,P|152:244|208:264,2,107.999996704102,8|2|8,0:0|0:0|0:0,0:0:0:0:
464,292,63059,6,0,L|416:200,1,90,8|2,0:0|0:0,0:0:0:0:
352,32,63690,2,0,P|340:76|288:112,1,90,8|2,0:0|0:0,0:0:0:0:
216,128,64164,1,0,0:0:0:0:
216,128,64322,2,0,P|172:136|112:120,1,90,8|2,0:0|0:0,0:0:0:0:
48,132,64796,1,0,0:0:0:0:
24,216,64954,2,0,L|124:204,1,90,8|2,0:0|0:0,0:0:0:0:
272,240,65585,2,0,P|252:288|264:332,1,90,8|2,0:0|0:0,0:0:0:0:
344,296,66059,1,0,0:0:0:0:
344,296,66217,6,0,P|400:284|368:332,1,135,8|2,0:0|0:0,0:0:0:0:
308,384,66848,1,12,0:0:0:0:
88,368,67164,2,0,L|76:308,1,45,2|0,0:0|0:0,0:0:0:0:
160,312,67480,2,0,L|144:212,1,90,8|2,0:0|0:0,0:0:0:0:
208,40,68111,5,8,0:0:0:0:
28,180,68427,2,0,L|84:196,1,45,2|0,0:0|0:0,0:0:0:0:
104,156,68743,2,0,L|208:144,1,90,8|2,0:0|0:0,0:0:0:0:
408,64,69375,2,0,L|312:76,1,90,8|2,0:0|0:0,0:0:0:0:
276,144,69848,1,0,0:0:0:0:
368,152,70006,2,0,P|342:188|339:232,1,90,8|2,0:0|0:0,0:0:0:0:
164,340,70638,6,0,P|187:301|187:257,1,90,8|2,0:0|0:0,0:0:0:0:
36,160,71269,2,0,P|40:108|76:72,1,90,8|2,0:0|0:0,0:0:0:0:
204,160,71901,2,0,P|148:160|116:140,1,90,8|2,0:0|0:0,0:0:0:0:
208,8,72532,2,0,P|208:44|176:84,1,90,8|2,0:0|0:0,0:0:0:0:
344,124,73164,6,0,P|392:120|436:136,2,90,8|2|8,0:0|0:0|0:0,0:0:0:0:
248,264,74111,2,0,P|220:244|192:240,1,45,2|0,0:0|0:0,0:0:0:0:
160,236,74427,2,0,P|115:237|72:222,1,90,8|2,0:0|0:0,0:0:0:0:
128,152,74901,1,0,0:0:0:0:
196,208,75059,2,0,L|220:308,1,90,8|2,0:0|0:0,0:0:0:0:
304,188,75690,6,0,L|330:101,1,90,8|2,0:0|0:0,0:0:0:0:
320,20,76164,1,0,0:0:0:0:
400,52,76322,2,0,L|420:200,1,135,12|0,0:0|0:0,0:0:0:0:
496,212,76954,2,0,L|352:248,1,135,8|0,0:0|0:0,0:0:0:0:
292,276,77585,2,0,L|426:286,1,135,8|0,0:0|0:0,0:0:0:0:
508,296,78217,5,4,0:0:0:0:
368,204,78532,1,2,0:0:0:0:
504,128,78848,2,0,P|504:88|476:32,1,90,8|2,0:0|0:0,0:0:0:0:
368,204,79480,2,0,P|372:260|360:300,1,90,8|2,0:0|0:0,0:0:0:0:
296,240,79954,1,0,0:0:0:0:
296,240,80111,6,0,P|252:248|196:236,1,90,8|2,0:0|0:0,0:0:0:0:
300,160,80585,2,0,P|295:115|315:76,1,90
400,40,81059,1,2,0:0:0:0:
363,292,81375,6,0,L|451:278,1,90,8|2,0:0|0:0,0:0:0:0:
164,292,82006,2,0,L|68:280,1,90,8|2,0:0|0:0,0:0:0:0:
74,280,82638,1,8,0:0:0:0:
336,68,83269,5,8,0:0:0:0:
412,228,83585,1,2,0:0:0:0:
464,160,83901,2,0,P|408:148|328:180,1,135,8|0,0:0|0:0,0:0:0:0:
280,244,84532,1,4,0:0:0:0:
336,68,84848,1,2,0:0:0:0:
204,184,85164,2,0,L|114:192,1,90,8|2,0:0|0:0,0:0:0:0:
12,156,85796,6,0,P|64:156|108:136,1,90,8|2,0:0|0:0,0:0:0:0:
228,64,86427,2,0,P|231:130|274:180,1,135,8|0,0:0|0:0,0:0:0:0:
400,24,87059,2,0,P|338:47|306:105,1,135,8|0,0:0|0:0,0:0:0:0:
512,128,87690,2,0,P|468:104|380:112,1,135,8|0,0:0|0:0,0:0:0:0:
328,192,88322,5,4,0:0:0:0:
132,252,88638,1,2,0:0:0:0:
68,200,88954,2,0,L|196:216,1,112.5,8|0,0:0|0:0,0:0:0:0:
320,232,89585,1,4,0:0:0:0:
88,84,89901,5,2,0:0:0:0:
168,192,90217,2,0,P|176:244|144:304,1,90,8|2,0:0|0:0,0:0:0:0:
128,320,90690,2,0,P|176:304|216:312,1,90
292,352,91164,1,2,0:0:0:0:
472,256,91480,6,0,P|428:216|420:156,1,90,8|2,0:0|0:0,0:0:0:0:
388,28,92111,1,8,0:0:0:0:
136,160,92427,1,2,0:0:0:0:
436,52,92743,1,8,0:0:0:0:
182,186,93375,5,8,0:0:0:0:
320,184,93690,1,2,0:0:0:0:
407,158,94006,2,0,L|303:190,1,90,8|2,0:0|0:0,0:0:0:0:
96,160,94638,2,0,L|200:192,1,90,8|2,0:0|0:0,0:0:0:0:
456,148,95269,2,0,L|352:180,1,90,8|2,0:0|0:0,0:0:0:0:
56,148,95901,2,0,L|160:180,1,90,8|2,0:0|0:0,0:0:0:0:
344,260,96532,5,8,0:0:0:0:
142,174,96848,1,2,0:0:0:0:
40,344,97164,1,8,0:0:0:0:
240,224,97480,1,2,0:0:0:0:
36,120,97796,1,8,0:0:0:0:
144,284,98111,1,2,0:0:0:0:
284,204,98427,5,8,0:0:0:0:
336,136,98585,1,0,0:0:0:0:
392,64,98743,1,2,0:0:0:0:
392,64,98901,1,0,0:0:0:0:
392,64,99059,2,0,L|496:40,1,90,8|2,0:0|0:0,0:0:0:0:
272,144,99690,2,0,L|160:100,1,90,8|2,0:0|0:0,0:0:0:0:
48,52,100322,1,8,0:0:0:0:
108,192,100638,1,2,0:0:0:0:
272,144,100954,6,0,L|376:116,1,90,8|2,0:0|0:0,0:0:0:0:
504,72,101585,1,8,0:0:0:0:
464,232,101901,1,2,0:0:0:0:
324,36,102217,1,8,0:0:0:0:
444,280,102532,1,2,0:0:0:0:
268,44,102848,1,8,0:0:0:0:
232,248,103480,6,0,P|216:304|184:328,1,90,8|2,0:0|0:0,0:0:0:0:
144,260,103954,1,0,0:0:0:0:
144,260,104111,2,0,L|16:228,1,90,8|2,0:0|0:0,0:0:0:0:
44,72,104743,1,8,0:0:0:0:
176,180,105059,2,0,P|169:158|171:136,1,45,2|0,0:0|0:0,0:0:0:0:
208,96,105375,2,0,L|308:64,1,90,8|2,0:0|0:0,0:0:0:0:
380,184,106006,2,0,L|295:215,1,90,8|2,0:0|0:0,0:0:0:0:
220,248,106480,1,0,0:0:0:0:
136,264,106638,6,0,P|80:208|88:104,1,180,8|8,0:0|0:0,0:0:0:0:
168,88,107585,2,0,P|172:108|168:140,1,45,2|0,0:0|0:0,0:0:0:0:
160,168,107901,2,0,L|264:168,1,90,8|2,0:0|0:0,0:0:0:0:
80,264,108532,5,8,0:0:0:0:
0,136,108848,1,2,0:0:0:0:
160,168,109164,2,0,B|176:128|236:116,1,90,8|2,0:0|0:0,0:0:0:0:
264,188,109638,1,0,0:0:0:0:
288,105,109796,2,0,B|232:93|220:52,1,90,8|2,0:0|0:0,0:0:0:0:
316,24,110269,1,0,0:0:0:0:
372,88,110427,2,0,P|372:140|332:180,1,90
168,216,111059,1,8,0:0:0:0:
320,320,111375,2,0,L|376:308,1,45,2|0,0:0|0:0,0:0:0:0:
448,300,111690,6,0,L|396:208,1,90,8|2,0:0|0:0,0:0:0:0:
408,60,112322,2,0,L|464:156,1,90,8|2,0:0|0:0,0:0:0:0:
300,140,112954,2,0,P|256:148|188:132,1,90
56,56,113585,5,8,0:0:0:0:
212,142,113901,1,2,0:0:0:0:
156,268,114217,1,8,0:0:0:0:
256,192,114296,12,0,116743,0:0:0:0:
