osu file format v12

[General]
AudioFilename: 25 - Berserkr.mp3
AudioLeadIn: 0
PreviewTime: 62008
Countdown: 0
SampleSet: Soft
StackLeniency: 0.7
Mode: 0
LetterboxInBreaks: 0
WidescreenStoryboard: 0

[Editor]
DistanceSpacing: 1
BeatDivisor: 4
GridSize: 8

[Metadata]
Title:Berserkr
TitleUnicode:Berserkr
Artist:Achiwa Daisuke
ArtistUnicode:阿知波 大輔
Creator:Dusty
Version:Calm
Source:Ar tonelico
Tags:Melody of Elemia Gust Sekai no Owari de Utai Tsuzukeru Shoujo
BeatmapID:204422
BeatmapSetID:71292

[Difficulty]
HPDrainRate:3
CircleSize:3
OverallDifficulty:3
ApproachRate:4
SliderMultiplier:1
SliderTickRate:2

[Events]
//Background and Video events
0,0,"tyria_temple.png",0,0
//Break Periods
//Storyboard Layer 0 (Background)
//Storyboard Layer 1 (Fail)
//Storyboard Layer 2 (Pass)
//Storyboard Layer 3 (Foreground)
//Storyboard Sound Samples
//Background Colour Transformations
3,100,163,162,255

[TimingPoints]
294,428.571428571429,4,2,0,80,1,0
62008,-100,4,2,0,100,0,1
92865,-100,4,2,0,100,0,0

[HitObjects]
192,320,7151,2,4,P|-22:192|192:64,1,600,4|0,0:0|0:0,0:0:0:0:
128,144,10151,1,0,0:0:0:0:
216,192,10579,6,0,B|384:192,2,150,2|2|0,0:0|0:0|0:0,0:0:0:0:
152,272,12294,2,0,B|272:272,2,100,2|0|2,0:0|0:0|0:0,0:0:0:0:
224,352,13579,1,0,0:0:0:0:
320,320,14008,2,4,P|534:192|320:64,1,600,4|0,0:0|0:0,0:0:0:0:
384,144,17008,1,0,0:0:0:0:
296,192,17436,6,0,B|128:192,2,150,2|2|0,0:0|0:0|0:0,0:0:0:0:
360,272,19151,2,0,B|240:272,2,100,2|0|2,0:0|0:0|0:0,0:0:0:0:
288,352,20436,1,0,0:0:0:0:
192,352,20865,6,0,P|88:352|48:304,2,150,4|2|2,0:0|0:0|0:0,0:0:0:0:
144,264,22579,2,0,P|248:264|288:312,2,150,0|2|2,0:0|0:0|0:0,0:0:0:0:
56,216,24294,1,0,0:0:0:0:
104,72,24936,1,0,0:0:0:0:
104,72,25151,1,2,0:0:0:0:
280,312,26008,5,0,0:0:0:0:
304,216,26436,1,0,0:0:0:0:
208,168,26865,1,0,0:0:0:0:
232,72,27294,1,0,0:0:0:0:
320,32,27722,6,0,P|424:32|464:80,2,150,4|2|2,0:0|0:0|0:0,0:0:0:0:
368,120,29436,2,0,P|264:120|224:72,2,150,0|2|2,0:0|0:0|0:0,0:0:0:0:
432,200,31151,2,0,P|440:288|352:352,2,200,0|2|0,0:0|0:0|0:0,0:0:0:0:
352,256,33294,5,0,0:0:0:0:
256,256,33722,1,0,0:0:0:0:
160,256,34151,1,0,0:0:0:0:
112,344,34579,6,0,B|24:336|0:232,1,150,4|2,0:0|0:0,0:0:0:0:
48,80,35865,1,2,0:0:0:0:
48,80,36294,2,0,B|136:88|160:192,1,150,0|2,0:0|0:0,0:0:0:0:
304,168,37579,1,2,0:0:0:0:
304,168,38008,1,0,0:0:0:0:
224,280,38651,1,0,0:0:0:0:
224,280,38865,1,2,0:0:0:0:
400,336,39722,5,0,0:0:0:0:
480,272,40151,1,0,0:0:0:0:
480,176,40579,1,0,0:0:0:0:
440,88,41008,1,0,0:0:0:0:
344,72,41436,6,0,B|288:144|336:216,1,150,4|2,0:0|0:0,0:0:0:0:
200,288,42722,1,2,0:0:0:0:
200,288,43151,2,0,B|256:216|208:144,1,150,0|2,0:0|0:0,0:0:0:0:
80,80,44436,1,2,0:0:0:0:
80,80,44865,2,0,B|5:175|69:270,2,200,0|0|4,0:0|0:0|0:0,0:0:0:0:
480,344,48294,6,0,B|480:184,2,150,4|2|2,0:0|0:0|0:0,0:0:0:0:
400,280,50008,2,0,B|400:120,2,150,4|2|2,0:0|0:0|0:0,0:0:0:0:
320,216,51722,2,0,B|320:56,2,150,4|2|2,0:0|0:0|0:0,0:0:0:0:
320,320,53436,5,0,0:0:0:0:
224,352,53865,1,0,0:0:0:0:
128,336,54294,1,0,0:0:0:0:
56,264,54722,1,0,0:0:0:0:
128,192,55151,6,0,B|128:32,2,150,4|2|2,0:0|0:0|0:0,0:0:0:0:
216,232,56865,2,0,B|216:72,2,150,4|0|2,0:0|0:0|0:0,0:0:0:0:
304,272,58579,2,4,L|304:56,1,200,4|0,0:0|0:0,0:0:0:0:
115,309,60294,5,4,0:0:0:0:
24,272,60722,1,2,0:0:0:0:
96,200,61151,1,2,0:0:0:0:
184,160,61579,1,2,0:0:0:0:
128,72,62008,6,0,B|40:72|-8:152,2,150,4|2|2,0:0|0:0|0:0,0:0:0:0:
184,160,63722,2,0,B|96:160|48:240,2,150,4|2|2,0:0|0:0|0:0,0:0:0:0:
192,256,65436,2,0,B|219:368|348:364,1,200,4|2,0:0|0:0,0:0:0:0:
240,152,67151,5,0,0:0:0:0:
144,152,67579,1,0,0:0:0:0:
192,64,68008,1,0,0:0:0:0:
288,64,68436,1,0,0:0:0:0:
384,72,68865,6,0,B|472:72|520:152,2,150,4|2|2,0:0|0:0|0:0,0:0:0:0:
328,160,70579,2,0,B|416:160|464:240,2,150,4|2|2,0:0|0:0|0:0,0:0:0:0:
320,256,72294,2,0,B|292:368|163:364,1,200,4|2,0:0|0:0,0:0:0:0:
256,144,74008,5,0,0:0:0:0:
352,144,74436,1,0,0:0:0:0:
304,56,74865,1,0,0:0:0:0:
208,56,75293,1,0,0:0:0:0:
160,144,75722,6,0,B|52:251,2,150,4|2|2,0:0|0:0|0:0,0:0:0:0:
208,232,77436,2,0,B|315:339,2,150,4|2|2,0:0|0:0|0:0,0:0:0:0:
304,208,79151,2,0,B|445:349,2,200,4|2|0,0:0|0:0|0:0,0:0:0:0:
312,112,81294,5,0,0:0:0:0:
256,32,81722,1,0,0:0:0:0:
200,112,82151,1,0,0:0:0:0:
104,136,82579,6,0,B|8:208,1,100,2|4,0:0|0:0,0:0:0:0:
103,246,83436,2,0,B|75:362,1,100,0|4,0:0|0:0,0:0:0:0:
184,304,84294,2,0,B|256:400,1,100,0|4,0:0|0:0,0:0:0:0:
294,304,85151,2,0,B|410:331,1,100,0|4,0:0|0:0,0:0:0:0:
408,248,86008,6,4,B|504:176,1,100
408,137,86865,2,4,B|435:20,1,100
328,80,87723,2,4,B|256:-16,1,100
218,80,88580,2,4,B|101:52,2,100,4|2|4,0:0|0:0|0:0,0:0:0:0:
256,192,89651,12,4,92865,0:0:0:0:
