osu file format v5

[General]
AudioFilename: Ace_-_Power_of_Sound.mp3
AudioLeadIn: 0
PreviewTime: -1
Countdown: 1
SampleSet: Normal
StackLeniency: 0.7
Mode: 0
LetterboxInBreaks: 1
EditorBookmarks: -11,2145,13457,14208,28359,42035,66888,79290,92035,106055,129731,142084,154829,167084,181310,191948
EditorDistanceSpacing: 1

[Metadata]
Title:Power of Sound
Artist:Ace
Creator:Malar
Version:Hard
Source:
Tags:

[Difficulty]
HPDrainRate:7
CircleSize:5
OverallDifficulty:7
SliderMultiplier:1.6
SliderTickRate:0.5

[Events]
//Background and Video events
0,0,"yohko_1_1024.jpg"
//Break Periods
2,3020,3972
2,6157,7110
2,9294,10247
2,165381,168203
2,184010,184675
2,187147,187812
//Storyboard Layer 0 (Background)
//Storyboard Layer 1 (Failing)
//Storyboard Layer 2 (Passing)
//Storyboard Layer 3 (Foreground)
//Storyboard Sound Samples
//Background Colour Transformations
3,100,0,0,0

[TimingPoints]
2816,392.186862745098,4,1,1,70,1,0
42820,-100,4,1,1,0,0,0
43604,-100,4,2,1,100,0,0
48310,-100,4,1,1,0,0,0
49878,-100,4,1,1,70,0,0
50663,-100,4,2,1,100,0,0
54584,-100,4,1,1,0,0,0
56153,-100,4,1,1,70,0,0
56937,-100,4,2,1,100,0,0
58702,-100,4,1,1,0,0,0
60074,-100,4,2,1,100,0,0
61839,-100,4,1,1,0,0,0
63212,-100,4,2,1,100,0,0
67133,-100,4,1,1,71,0,0
92234,-100,4,1,1,71,0,1
92283,-100,4,1,1,71,0,0
92822,-100,4,1,1,71,0,1
92869,-100,4,1,1,71,0,0
93411,-100,4,1,1,71,0,1
93460,-100,4,1,1,71,0,0
93803,-100,4,1,1,71,0,1
105957,-100,4,2,1,100,0,0
111055,-100,4,1,1,0,0,0
112623,-100,4,1,1,70,0,0
113412,-100,4,2,1,100,0,0
117329,-100,4,1,1,0,0,0
118898,-100,4,1,1,71,0,0
119687,-100,4,2,1,100,0,0
121447,-100,4,1,1,0,0,0
122819,-100,4,2,1,100,0,0
124584,-100,4,1,1,0,0,0
125957,-100,4,2,1,100,0,0
129878,-100,4,1,1,71,0,0
167534,-100,4,1,1,71,0,1
167583,-100,4,1,1,71,0,0
168122,-100,4,1,1,71,0,1
168171,-100,4,1,1,71,0,0
168711,-100,4,1,1,71,0,1
168760,-100,4,1,1,71,0,0
169103,-100,4,1,1,71,0,1
181113,-100,4,1,1,71,0,0
182437,-100,4,2,1,100,0,0
192634,-100,4,1,1,70,0,0
192683,-100,4,1,1,70,0,1
193222,-100,4,1,1,70,0,0
193271,-100,4,1,1,70,0,1
193811,-100,4,1,1,70,0,0
193860,-100,4,1,1,70,0,1
194203,-50,4,1,1,70,0,1

[Colours]
Combo1 : 0,128,128
Combo2 : 0,128,255
Combo3 : 0,82,121

[HitObjects]
256,192,2817,1,4
480,32,5169,5,4
256,192,5561,1,4
32,352,5953,1,4
32,32,8306,5,4
256,192,8698,1,4
480,352,9090,1,4
256,360,11444,5,4
256,192,11836,1,4
256,32,12228,1,4
224,304,13797,6,4,L|56:120,1,240
296,72,14973,1,4
136,72,15365,1,4
264,160,15758,5,0
104,160,16150,1,4
240,240,16542,1,0
80,240,16934,2,0,L|80:320|160:320,3,160,4|0|4|0
320,312,18503,5,4
480,312,18895,1,0
344,232,19287,1,4
184,232,19680,1,0
328,160,20072,1,4
488,160,20464,1,0
344,88,20856,2,0,L|264:88|264:168,3,160,4|0|4|0
432,160,22425,5,4
280,224,22817,1,0
432,280,23209,1,4
280,320,23601,1,0
120,328,23994,2,0,L|40:328|40:248,2,160,4|0|4
216,200,25170,5,0
56,200,25562,1,4
192,120,25955,1,0
256,192,26347,6,4,B|256:200|256:216|264:232|280:232|296:232|320:224|328:208|328:192|328:184|320:176|304:160|296:152|288:136|272:128|264:128|256:128|248:136|240:144|240:152|240:160|256:184,1,240
368,192,27523,1,4
144,192,27915,1,4
32,32,29484,5,4
160,232,30072,5,4
296,32,30661,5,4
408,144,31053,5,0
408,144,31249,1,0
328,144,31445,1,0
328,144,31641,1,0
248,144,31837,1,0
248,144,32033,1,0
168,144,32230,2,0,B|80:144,1,80
88,64,32622,5,0
168,64,32818,1,0
128,136,33014,1,0
208,136,33210,1,0
176,208,33406,1,0
256,208,33602,1,0
224,280,33798,1,0
304,280,33994,1,0
368,320,34190,6,0,B|368:232,1,80
304,184,34583,2,0,B|304:272,1,80
232,232,34975,2,0,B|232:144,1,80
160,112,35367,2,0,B|160:200,1,80
80,152,35759,5,0
112,224,35955,1,0
160,288,36151,1,0
224,328,36347,1,0
304,328,36544,1,0
368,288,36740,1,0
424,232,36936,1,0
472,168,37132,1,0
392,152,37328,6,0,B|344:152,12,40,0|0|8|8|0|0|8|8|0|0|8|8|4
232,152,38897,5,0
232,152,38995,1,0
232,152,39093,1,8
232,152,39191,1,8
232,152,39289,1,0
232,152,39387,1,0
232,152,39485,1,8
232,152,39583,1,8
232,152,39681,1,0
232,152,39779,1,0
232,152,39877,1,8
232,152,39975,1,8
232,152,40073,1,4
72,168,40465,5,0
104,144,40563,1,0
136,168,40662,1,8
168,144,40760,1,8
192,168,40858,1,0
224,144,40956,1,0
256,168,41054,1,8
288,144,41152,1,8
320,168,41250,1,0
352,144,41348,1,0
384,168,41446,1,8
416,144,41544,1,8
440,168,41642,1,4
256,192,42819,5,0
256,192,43015,5,0
256,192,43603,1,0
416,192,43995,1,0
288,88,44387,2,0,L|200:88,1,80
208,88,44976,1,0
208,88,45368,1,0
208,88,45760,2,0,L|208:256,1,160
224,264,46544,1,0
224,264,46937,2,0,L|312:264,1,80
368,144,48309,5,0
288,144,48505,1,0
288,144,48897,5,0
368,144,49290,5,0
368,144,49486,1,0
208,144,49878,5,4
464,336,50662,5,0
464,336,50858,1,0
304,336,51251,2,0,L|128:336,1,160
32,256,51986,1,0
32,256,52427,1,0
32,96,52819,2,0,L|200:96,1,160
192,96,53408,1,0
392,112,54584,5,0
208,264,55172,1,0
240,104,55565,1,0
416,272,56153,5,4
112,160,56937,5,0
112,160,57133,1,0
272,160,57526,2,0,L|368:160|368:224,1,160
368,224,58310,1,0
208,224,58702,5,0
320,112,59094,1,0
104,112,60075,5,0
104,112,60271,1,0
104,112,60663,2,0,L|200:112|200:192,1,160
200,176,61447,1,0
360,192,61840,5,0
256,312,62232,1,0
224,192,63212,6,0,L|136:192,1,80
224,192,63801,2,0,L|384:192,1,160
384,192,64585,2,0,L|384:32,1,160
384,32,65369,2,0,L|208:32,1,160
224,32,65958,1,0
224,32,66154,2,0,B|184:32|136:40|96:72|80:112|80:144|80:168|88:192|88:200,1,240
32,352,67134,5,4
256,32,67722,5,4
480,360,68311,5,4
256,192,68703,5,4
256,192,68899,1,0
184,232,69095,1,0
184,232,69291,1,0
120,176,69487,1,0
120,176,69585,1,0
120,176,69683,1,0
176,120,69879,2,0,L|240:80|240:96,1,80
320,80,70272,5,0
320,80,70664,1,0
320,80,70860,2,0,L|408:80|408:168,1,160
408,152,71644,2,0,L|408:248|344:248,1,160
144,112,72625,5,0
216,144,72821,1,0
264,208,73017,1,0
304,272,73213,1,0
224,296,73409,2,0,L|152:296|152:280,3,80
88,144,74390,1,0
240,88,74782,1,0
400,88,75174,2,0,L|480:88|480:168,1,160
360,272,75958,5,0
200,272,76351,1,0
184,192,76547,1,0
184,192,76645,1,0
184,192,76743,1,0
184,192,76841,1,0
184,192,76939,1,0
184,192,77037,1,0
184,192,77135,6,0,L|288:192|288:264,1,160
288,248,77919,1,0
416,152,78311,1,0
344,112,78508,2,0,L|424:160,1,80
344,112,78900,1,0
416,152,79096,1,0
256,32,79684,5,4
32,352,80272,5,4
480,352,80861,5,4
256,192,81253,5,4
256,192,81449,5,0
184,232,81645,5,0
128,176,81841,1,0
72,240,82037,1,0
72,280,82135,1,0
72,320,82233,1,0
152,320,82429,1,0
232,320,82626,1,0
312,320,82822,6,0,L|312:240,1,80
232,240,83214,2,0,L|312:240,1,80
392,232,83606,1,0
392,192,83704,1,0
392,152,83802,1,0
312,128,83998,2,0,L|224:128,1,80
176,72,84390,5,0
120,128,84586,1,0
176,72,84783,1,0
120,128,84979,1,0
192,152,85175,1,0
192,152,85273,1,0
192,152,85371,1,0
136,208,85567,2,0,L|88:248|104:264,1,80
176,288,85959,5,0
232,232,86155,1,0
288,288,86351,1,0
232,232,86547,1,0
272,160,86743,1,0
232,160,86842,1,0
192,160,86940,1,0
112,160,87136,2,0,L|112:96|128:96,1,80
208,88,87528,5,0
264,32,87724,1,0
312,88,87920,1,0
360,24,88116,1,0
408,88,88312,1,0
408,128,88410,1,0
408,168,88508,1,0
408,88,88704,2,0,L|408:168,1,80
408,248,89097,6,0,L|336:248|336:224,3,80
256,248,89881,2,0,L|232:248|232:232,2,40
296,176,90273,2,0,L|224:128,1,80
152,128,90665,6,0,L|152:208,1,80
88,160,91058,2,0,L|88:240,1,80
160,280,91450,2,0,L|192:280|192:264,2,40
176,200,91842,2,0,L|240:144,1,80
256,32,92234,5,4
32,192,92822,5,4
256,360,93411,5,4
480,192,93803,5,4
360,192,93999,1,0
456,256,94195,1,0
336,256,94391,1,0
432,320,94587,5,0
312,320,94783,1,0
192,320,94979,1,0
72,320,95176,1,0
176,256,95372,5,0
56,256,95568,1,0
160,192,95764,1,0
40,192,95960,1,0
96,88,96156,6,0,L|152:64|168:88,1,80
162,79,96548,2,0,L|208:128|224:112,1,80
217,118,96940,6,0,L|280:120|288:144,1,80
285,136,97333,2,0,L|256:192|272:200,1,80
271,199,97725,6,0,L|344:184|344:208,1,80
344,189,98117,2,0,L|384:240|376:256,1,80
264,304,98509,5,0
264,304,98705,1,0
152,264,98901,1,0
152,264,99097,1,0
104,152,99293,5,0
104,152,99490,1,0
208,88,99686,1,0
208,88,99882,1,0
328,72,100078,5,0
328,72,100176,1,0
328,72,100274,1,8
448,72,100470,5,0
448,72,100568,1,0
448,72,100666,1,8
368,160,100862,5,0
368,160,100960,1,0
368,160,101058,1,8
488,160,101254,5,4
488,320,101647,5,0
488,320,101745,1,0
488,320,101843,1,8
368,320,102039,5,0
368,320,102137,1,0
368,320,102235,1,8
456,240,102431,5,0
456,240,102529,1,0
456,240,102627,1,8
328,240,102823,5,4
200,248,103215,5,0
200,248,103313,1,0
200,248,103411,1,8
80,248,103608,5,0
80,248,103706,1,0
80,248,103804,1,8
176,312,104000,5,0
176,312,104098,1,0
176,312,104196,1,8
56,312,104392,5,4
72,144,104784,2,0,L|72:112|88:112,2,40,0|0|8
184,112,105176,2,0,L|184:144|168:144,2,40,0|0|8
264,200,105568,5,4
264,200,105765,5,4
464,336,106353,5,0
464,176,106745,1,0
328,256,107137,2,0,L|256:256|256:240,1,80
256,248,107725,1,0
256,248,108118,1,0
256,248,108510,2,0,L|256:184|160:184,1,160
176,200,109294,1,0
176,200,109686,2,0,L|176:288,1,80
184,128,111059,5,0
184,128,111255,1,0
256,272,111647,5,0
320,128,112040,5,0
320,128,112236,1,0
256,192,112628,5,4
72,72,113412,6,0,L|144:72|144:96,1,80
144,80,114000,1,0
144,80,114393,1,0
144,80,114785,2,0,L|144:240,1,160
160,256,115569,1,0
160,256,115961,2,0,L|232:256|232:240,1,80
184,192,117334,6,0,B|184:104|256:104|328:104|328:200,1,240
184,192,118315,5,0
327,195,118903,5,4
48,344,119687,5,0
48,344,119883,1,0
48,344,120275,2,0,L|168:256|160:248,2,160
256,344,121452,5,0
256,40,121844,5,0
256,192,122825,6,0,L|192:144,1,80
256,192,123413,2,0,L|376:80,1,160
256,192,124197,1,0
96,192,124590,5,0
416,192,124982,5,0
416,56,125962,5,0
416,56,126158,1,0
416,56,126550,2,0,L|280:56|264:56|264:80,1,160
264,64,127335,2,0,L|264:216|248:216,1,160
256,216,128119,2,0,L|112:216|112:232,1,160
112,232,128707,1,0
112,232,128904,1,0
32,352,129884,5,4
256,32,130472,5,4
480,360,131061,5,4
256,192,131453,5,4
192,144,131649,5,0
128,192,131845,1,0
64,144,132041,1,0
0,192,132237,1,0
64,144,132433,1,0
128,192,132629,1,0
192,144,132825,1,0
256,192,133022,5,0
256,192,133414,2,0,L|328:192|328:176,1,80
328,184,134002,2,0,L|328:152|344:152|344:128|360:128|360:112|376:112|376:88,1,160
376,72,134786,1,0
136,112,135375,5,0
200,160,135571,1,0
136,112,135767,1,0
136,112,135963,1,0
200,160,136159,6,0,L|152:208|136:192,2,80
200,160,136747,1,0
112,296,137140,1,0
272,312,137532,2,0,L|424:280|416:264,1,160
392,120,138316,1,0
240,56,138708,1,0
104,144,139100,1,0
112,224,139297,5,0
144,200,139395,1,0
176,176,139493,1,0
208,160,139591,1,0
248,160,139689,1,0
288,168,139787,1,0
320,192,139885,6,0,L|360:232|320:264|368:312,1,160
356,300,140669,1,0
356,300,141061,2,0,L|416:256|408:240,4,80
32,360,142434,5,4
256,32,143022,5,4
480,360,143611,5,4
256,192,144003,5,4
192,136,144199,5,0
136,192,144395,5,0
88,256,144591,1,0
80,336,144787,1,0
80,336,144885,1,0
80,336,144983,1,0
160,336,145179,1,0
224,288,145375,1,0
296,264,145572,6,0,L|344:312|360:296,1,80
416,256,145964,2,0,L|368:208|352:224,1,80
352,296,146356,1,0
352,256,146454,1,0
352,216,146552,1,0
312,144,146748,2,0,L|248:88,1,80
184,136,147140,5,0
104,136,147336,1,0
144,64,147532,1,0
64,64,147729,1,0
24,128,147925,1,0
40,160,148023,1,0
56,192,148121,1,0
96,264,148317,2,0,L|144:312|160:296,1,80
184,232,148709,5,0
224,160,148905,1,0
272,96,149101,1,0
344,64,149297,1,0
368,136,149493,1,0
368,136,149591,1,0
368,136,149689,1,0
352,216,149886,2,0,L|328:280|312:272,1,80
248,304,150278,5,0
168,296,150474,2,0,L|104:256|120:248,1,80
160,192,150866,1,0
240,208,151062,2,0,L|272:208|272:192,2,40
224,128,151454,2,0,L|200:64|176:72,1,80
120,104,151847,6,0,L|48:144,3,80
56,224,152631,2,0,L|48:248|64:248,2,40
128,256,153023,1,0
208,264,153219,1,0
288,280,153415,6,0,L|360:232,1,80
360,312,153807,2,0,L|432:264,1,80
432,184,154200,1,0
400,160,154298,1,0
368,136,154396,1,0
368,136,154592,2,0,L|432:184,1,80
256,192,154984,5,4
56,56,155572,5,4
200,240,156161,5,4
328,328,156553,6,4,B|368:304|392:288|400:272|416:248|432:216|432:176|432:136|416:112|392:80|376:64|344:48|320:40|296:32|272:40|240:40|216:48|184:64|168:72|144:88|128:104|112:128|96:152|88:168|88:176|80:192,1,640
160,320,159298,5,4
160,320,159690,2,4,B|184:328|224:336|256:328|288:320|336:296|368:272|400:232|416:184|416:160,1,320
120,56,161259,6,4,B|96:64|72:96|64:136|72:160|72:184|88:200|96:232|112:248|144:272,1,240
131,261,162436,1,4
131,261,162828,2,4,B|152:280|184:304|208:304|232:312|248:312|288:312|320:304|344:296|368:280|408:264|432:240|448:208|456:184|464:152|456:120|440:88|424:64|400:48|368:32|336:32|312:32|288:32|256:32|232:32|192:40|160:48|120:72|104:88|80:112|72:128|64:144|48:176|48:200|48:256,1,960
384,136,169103,5,0
400,256,169299,2,0,L|400:344,1,80
288,296,169691,1,0
200,216,169887,1,0
320,216,170083,2,0,L|400:192,1,80
312,104,170475,1,0
312,104,170672,5,0
192,104,170868,2,0,L|112:104,1,80
64,216,171260,1,0
64,216,171456,1,0
152,296,171652,2,0,L|232:296,1,80
272,184,172044,1,0
344,88,172240,6,0,L|400:24,2,80
272,184,172829,1,0
192,272,173025,2,0,L|128:336,2,80
272,184,173613,1,0
272,184,173809,5,0
184,104,174005,1,0
64,136,174201,2,0,L|16:192|32:208,1,80
88,296,174593,1,0
200,328,174789,1,0
304,272,174986,1,0
192,224,175182,2,0,L|136:184|144:176,1,80
232,96,175574,5,0
232,96,175770,1,0
352,96,175966,1,0
352,96,176162,1,0
424,192,176358,2,0,L|448:248|424:264,1,80
312,240,176750,1,0
208,184,176946,5,0
208,184,177143,2,0,L|128:136,1,80
139,142,177535,1,0
72,240,177731,1,0
160,320,177927,2,0,L|160:256|176:256,1,80
176,256,178319,1,0
280,320,178515,5,0
280,320,178711,1,0
280,320,178907,1,0
360,232,179103,2,0,L|368:184|336:176,1,80
337,176,179496,2,0,L|320:224|352:232,1,80
348,231,179888,1,0
224,224,180084,6,0,L|144:224,1,80
144,104,180476,2,0,L|224:104,1,80
256,192,180868,5,4
256,192,181064,5,4
256,192,181653,5,4
392,112,182437,5,0
392,144,182633,1,0
392,208,183025,2,0,L|392:280|304:280,1,160
240,280,183810,1,0
48,64,185575,5,0
80,64,185771,1,0
144,64,186163,2,0,L|312:64,2,160
136,352,188712,5,0
168,352,188908,1,0
216,304,189300,1,0
160,272,189693,1,0
208,232,190085,1,0
160,272,190477,1,0
96,272,190869,1,0
32,272,191261,1,0
32,240,191457,1,0
32,272,191653,1,0
256,32,192634,5,4
480,360,193222,5,4
256,32,193811,5,4
32,352,194203,5,4
152,248,194399,2,0,L|64:104,1,160
216,48,194791,2,0,L|384:48,1,160
448,192,195183,2,0,L|320:304,1,160
184,224,195575,6,0,L|336:144,1,160
325,149,195968,1,0
176,88,196164,2,0,L|80:88|80:160,1,160
80,312,196556,1,0
240,320,196752,2,0,L|344:304|328:248,1,160
168,224,197144,5,0
32,144,197340,1,0
168,64,197536,2,0,L|272:40|312:88,1,160
448,152,197928,2,0,L|392:32|360:48,1,160
248,152,198321,2,0,L|304:32|328:44,1,160
216,152,198713,6,0,L|160:32|128:48,1,160
16,152,199106,2,0,L|72:32|96:44,1,160
128,200,199497,1,0
256,296,199693,1,0
128,200,199889,1,0
256,296,200085,1,0
384,200,200282,6,0,L|464:48,1,160
296,48,200674,2,0,L|216:192,1,160
72,264,201066,2,0,L|224:264|224:248,1,160
96,160,201458,2,0,L|248:160|248:144,1,160
120,56,201850,6,0,L|272:56|272:40,1,160
256,208,202243,1,0
376,104,202439,1,0
256,208,202635,1,0
384,328,202831,1,0
256,208,203027,6,0,L|128:104,1,160
256,208,203419,6,0,L|88:208,1,160
256,208,203811,6,0,L|128:320,1,160
256,208,204203,6,0,L|368:336,1,160
256,208,204596,6,0,L|424:208,1,160
256,208,204988,6,0,L|376:88,1,160,0|4
32,32,205772,5,4
256,192,206360,5,4
480,352,206753,5,4
