osu file format v9

[General]
AudioFilename: Acchi Kocchi de.mp3
AudioLeadIn: 0
PreviewTime: 58754
Countdown: 1
SampleSet: Normal
StackLeniency: 0.7
Mode: 1
LetterboxInBreaks: 1

[Editor]
DistanceSpacing: 1.4
BeatDivisor: 2
GridSize: 8

[Metadata]
Title:Acchi de Kocchi de (TV size)
Artist:Acchi Kocchi Cast
Creator:Sushi
Version:Taiko Nyan Oni
Source:
Tags:

[Difficulty]
HPDrainRate:8
CircleSize:5
OverallDifficulty:6
ApproachRate:5
SliderMultiplier:1.4
SliderTickRate:1

[Events]
//Background and Video events
0,0,"BG.png"
//Break Periods
//Storyboard Layer 0 (Background)
//Storyboard Layer 1 (Fail)
//Storyboard Layer 2 (Pass)
//Storyboard Layer 3 (Foreground)
//Storyboard Sound Samples
//Background Colour Transformations
3,100,128,255,255

[TimingPoints]
1612,285.714285714286,4,1,0,100,1,0
38183,-133.333333333333,4,1,0,100,0,0
47326,-117.647058823529,4,1,0,100,0,0
56469,-111.111111111111,4,1,0,100,0,0
58183,-100,4,1,0,100,0,0
58754,-100,4,1,0,100,0,1
77040,-100,4,1,0,100,0,0

[Colours]
Combo1 : 253,222,2
Combo2 : 255,0,0
Combo3 : 0,230,255
Combo4 : 255,0,0
Combo5 : 0,230,255

[HitObjects]
256,192,1612,1,4
256,192,2183,5,8
256,192,2754,1,8
256,192,3326,1,8
256,192,3516,5,0
256,192,3612,1,0
256,192,3897,1,4
256,192,4469,53,8
256,192,5040,1,8
256,192,5516,5,0
256,192,5612,5,8
256,192,5802,53,0
256,192,5897,5,8
256,192,6183,21,4
248,128,6659,1,0
256,192,6754,5,8
256,192,7040,5,4
256,192,7516,1,0
256,192,7612,5,8
256,192,7897,1,8
256,192,8183,1,8
256,192,8469,21,0
256,192,8659,1,0
256,192,8945,5,8
256,192,9231,5,0
256,192,9516,1,0
256,192,9612,22,8,B|464:192,1,210
256,192,10183,21,8
256,192,10254,1,8
256,192,10326,5,0
256,192,10397,1,0
256,192,10469,5,8
256,192,10540,21,0
256,192,10612,1,0
256,192,10683,5,8
256,192,10754,5,0
256,192,10897,1,8
256,192,11040,1,0
256,192,11183,1,8
256,192,11326,1,0
256,192,11469,1,8
256,192,11540,1,8
256,192,11612,1,0
256,192,11754,1,8
256,192,11897,1,0
256,192,12040,1,0
256,192,12183,1,0
256,192,12326,1,8
256,192,12397,1,8
256,192,12469,1,0
256,192,12540,1,0
256,192,12612,1,8
256,192,12754,1,0
256,192,12897,1,8
256,192,13040,1,0
256,192,13183,1,8
256,192,13326,1,0
256,192,13469,1,8
256,192,13540,1,8
256,192,13612,1,0
256,192,13754,1,0
256,192,13826,1,0
256,192,13897,1,8
256,192,14040,1,0
256,192,14183,1,0
256,192,14326,1,8
256,192,14469,1,0
256,192,14612,1,8
256,192,14683,1,8
256,192,14754,1,0
256,192,14897,1,0
256,192,15040,1,8
256,192,15183,1,0
256,192,15326,1,0
256,192,15397,1,0
256,192,15469,1,8
256,192,15540,1,8
256,192,15612,1,0
256,192,15683,1,0
256,192,15754,1,0
256,192,15826,1,8
256,192,15897,1,0
256,192,16040,1,0
256,192,16183,1,0
256,192,16326,1,8
256,192,16469,1,0
256,192,16540,1,0
256,192,16612,1,0
256,192,16683,1,0
256,192,16754,1,0
256,192,16897,1,0
256,192,17040,1,8
256,192,17183,1,0
256,192,17254,1,0
256,192,17326,1,8
256,192,17397,1,0
256,192,17469,1,8
256,192,17612,1,4
256,192,17754,1,4
256,192,17897,1,4
256,192,18040,1,4
256,192,18326,1,4
256,192,18612,1,4
256,192,18754,12,0,19754
256,192,19897,5,4
256,192,20040,1,0
256,192,20183,1,8
256,192,20326,1,0
256,192,20469,1,0
256,192,20612,1,8
256,192,20754,1,0
256,192,20897,1,4
256,192,21183,1,0
256,192,21326,1,8
256,192,21469,1,0
256,192,21540,1,0
256,192,21612,1,0
256,192,21754,1,0
256,192,21897,1,8
256,192,22040,1,0
256,192,22112,1,0
256,192,22183,1,0
256,192,22469,1,8
256,192,22612,1,0
256,192,22754,1,0
256,192,23040,1,12
256,192,23469,1,0
256,192,23612,1,8
256,192,23754,1,0
256,192,23897,1,0
256,200,24040,1,0
256,200,24112,1,0
256,200,24183,1,8
256,192,24326,1,8
256,192,24469,1,4
256,192,24612,1,0
256,192,24754,1,8
256,192,24897,1,0
256,192,25040,1,0
256,192,25183,1,8
256,192,25326,1,0
256,192,25469,1,4
256,200,25754,1,0
256,192,25826,1,0
256,192,25897,1,8
256,192,26040,1,0
256,192,26183,1,0
256,192,26326,1,8
256,192,26397,1,8
256,192,26469,1,0
256,192,26540,1,0
256,192,26612,1,8
256,192,26754,1,4
256,192,27040,1,8
256,200,27326,1,8
256,192,27612,1,8
256,192,27897,1,8
256,192,28183,1,12
256,192,28469,2,0,B|464:192,1,210
256,192,29040,1,0
256,192,29183,1,0
256,192,29326,1,8
256,192,29469,1,0
256,192,29540,1,0
256,192,29612,1,0
256,192,29754,1,8
256,192,29897,1,0
256,192,30040,1,4
256,192,30326,1,0
256,192,30469,1,8
256,192,30612,1,8
256,192,30683,1,8
256,192,30754,1,0
256,192,30826,1,0
256,192,30897,1,0
256,192,31040,1,8
256,192,31183,1,0
256,192,31326,1,4
256,192,31612,1,12
256,192,31897,1,4
256,192,32183,1,12
256,192,32612,1,0
256,192,32754,1,8
256,192,32897,1,0
256,192,33040,1,0
256,192,33183,1,0
256,192,33254,1,0
256,192,33326,1,8
256,192,33469,1,0
256,192,33612,1,4
256,192,33754,1,0
256,192,33826,1,0
256,192,33897,1,8
256,192,34040,1,0
256,192,34183,1,0
256,192,34326,1,8
288,192,34397,1,8
256,192,34469,1,0
256,192,34612,1,4
256,192,34897,1,0
256,192,35040,1,8
256,192,35183,1,0
256,192,35254,1,0
256,192,35326,1,0
256,192,35469,1,0
256,192,35612,1,8
256,192,35754,1,0
256,192,35897,1,4
256,192,36040,1,4
256,192,36183,1,12
256,192,36326,1,4
256,192,36469,1,4
256,192,36612,1,12
256,192,36897,1,4
240,120,38183,1,0
240,120,38469,1,8
240,120,38754,1,0
240,120,39040,1,8
240,120,39183,1,0
240,120,39469,1,0
240,120,39612,1,8
240,120,39754,1,8
240,120,39897,1,0
240,120,40040,1,8
240,120,40183,1,0
240,120,40326,1,8
240,120,40469,1,0
240,120,40754,1,8
240,120,41040,1,0
240,120,41326,1,8
240,120,41469,1,0
240,120,41754,1,0
240,120,41897,1,8
240,120,42039,1,8
240,120,42182,1,0
240,120,42325,1,8
240,120,42468,1,0
240,120,42611,1,8
240,120,42754,1,0
336,224,43040,1,0
336,224,43326,1,0
336,224,43612,1,8
336,224,43897,1,0
336,224,44183,1,0
336,224,44469,1,0
336,224,44754,1,8
240,216,45040,1,12
240,216,45612,1,12
240,216,46183,1,12
240,216,46754,1,12
240,216,47326,1,8
240,216,47612,1,8
240,216,47897,1,8
240,216,48183,1,8
240,216,48469,1,8
240,216,48754,1,8
240,216,49040,1,4
240,216,49326,1,4
240,216,49612,1,8
240,216,49897,1,8
240,216,50183,1,8
240,216,50469,1,8
240,216,50754,1,8
240,216,51040,1,8
240,216,51326,1,4
240,216,51516,1,8
240,216,51612,1,0
240,216,51897,1,0
240,216,52373,1,0
240,216,52469,1,8
240,216,52945,1,8
240,216,53040,1,0
240,216,53231,1,8
240,216,53516,1,0
240,216,53612,1,0
240,216,53897,1,8
240,216,54183,1,0
240,216,54469,1,0
240,216,54754,1,8
240,216,55040,1,0
240,216,55326,1,8
240,216,55469,1,8
240,216,55612,1,0
240,216,55754,1,8
240,216,55897,1,8
240,216,56040,1,0
240,216,56183,1,8
240,216,56326,1,8
240,216,56469,1,12
240,216,56754,1,4
240,216,56897,1,4
240,216,57040,1,12
240,216,57326,1,4
216,248,57612,1,12
240,216,58183,1,8
240,216,58254,1,0
240,216,58326,1,8
240,216,58397,1,8
240,216,58469,1,0
240,216,58540,1,8
240,216,58612,1,8
240,216,58683,1,0
240,216,58754,1,0
240,216,58897,1,8
240,216,59040,1,0
240,216,59183,1,8
240,216,59254,1,8
240,216,59326,1,0
240,216,59469,1,0
240,216,59612,1,8
240,216,59754,1,0
240,216,59897,1,0
240,216,59969,1,0
240,216,60040,1,8
240,216,60112,1,8
240,216,60183,1,0
240,216,60326,1,8
240,216,60397,1,8
240,216,60469,1,0
240,216,60540,1,8
240,216,60683,1,8
240,216,60754,1,0
240,216,60897,1,8
240,216,61040,1,0
240,216,61183,1,8
240,216,61326,1,0
240,216,61469,1,8
240,216,61612,1,0
240,216,61683,1,0
240,216,61754,1,8
240,216,61897,1,0
240,216,62040,1,8
240,216,62112,1,8
240,216,62183,1,0
240,216,62326,1,0
240,216,62469,1,0
240,216,62612,1,0
240,216,62683,1,0
240,216,62754,1,0
240,208,62897,1,0
240,208,62969,1,0
240,208,63040,1,8
240,208,63183,1,8
240,208,63326,1,0
240,208,63469,1,0
240,208,63612,1,8
240,208,63754,1,0
240,208,63826,1,0
240,208,63897,1,0
240,208,64040,1,8
240,216,64183,1,0
240,216,64326,1,0
240,208,64469,1,0
240,208,64612,1,8
240,208,64683,1,8
240,208,64754,1,0
240,208,64826,1,0
240,208,64897,1,8
240,208,65040,1,0
240,208,65183,1,8
240,208,65326,1,0
240,208,65469,1,0
240,208,65612,1,0
240,216,65754,1,8
240,216,65897,1,0
240,208,65969,1,0
240,208,66040,1,8
240,208,66183,1,0
240,208,66326,1,8
240,208,66469,1,0
240,208,66612,1,0
256,192,66754,5,8
256,192,66897,1,0
256,192,66969,1,0
256,192,67040,1,8
256,192,67183,1,8
256,192,67326,1,0
256,192,67397,1,0
256,192,67469,1,8
256,192,67540,1,0
256,192,67612,1,8
256,192,67754,1,8
256,192,67897,1,4
240,216,68040,1,8
240,216,68183,1,0
240,216,68326,1,8
240,216,68397,1,8
240,216,68469,1,0
240,216,68612,1,0
240,216,68755,1,8
240,216,68897,1,0
240,216,69040,1,0
240,216,69112,1,0
240,216,69183,1,8
240,216,69255,1,8
240,216,69326,1,0
240,216,69469,1,8
240,216,69540,1,8
240,216,69612,1,0
240,216,69683,1,8
240,216,69826,1,8
240,216,69897,1,0
240,216,70040,1,8
240,216,70183,1,0
240,216,70326,1,0
240,216,70469,1,8
240,216,70612,1,8
240,216,70755,1,0
240,216,70826,1,0
240,216,70897,1,8
240,216,70969,1,8
240,216,71040,1,0
240,216,71183,1,8
240,216,71326,1,0
240,216,71397,1,0
240,216,71469,1,8
240,216,71612,1,0
240,216,71755,1,0
240,216,71826,1,0
240,216,71897,1,0
240,208,72040,1,0
240,208,72112,1,0
240,208,72183,1,8
240,208,72326,1,8
240,216,72469,1,0
240,216,72612,1,8
240,216,72754,1,0
240,216,72897,1,8
240,216,72969,1,8
240,216,73040,1,0
240,216,73183,1,8
240,216,73326,1,0
240,216,73469,1,8
240,208,73612,1,0
240,208,73754,1,0
240,208,73897,1,8
240,208,74183,1,0
240,208,74326,1,0
240,208,74469,1,8
240,208,74754,1,0
240,208,74897,1,0
240,208,75040,1,8
240,208,75183,1,0
240,208,75326,1,0
240,208,75469,1,0
240,208,75612,1,8
240,208,75754,1,0
240,208,75897,1,8
240,208,76040,1,0
240,208,76112,1,0
240,208,76183,1,8
240,208,76326,1,0
240,208,76397,1,0
240,208,76469,1,8
240,208,76612,1,0
240,208,76683,1,0
240,208,76754,1,8
240,208,76826,1,8
240,208,76897,1,8
240,208,76969,1,8
240,208,77040,1,0
256,192,77183,12,0,78469
248,192,78754,5,8
248,192,78826,1,0
248,192,78897,1,0
248,192,78969,1,0
248,192,79040,1,8
248,192,79326,1,0
248,192,79612,1,8
248,192,79897,1,0
248,192,80040,1,0
248,192,80183,1,8
248,192,80469,1,0
248,192,80540,1,0
248,192,80612,1,0
248,192,80754,1,8
248,192,81040,1,0
248,192,81112,1,0
248,192,81183,1,0
248,192,81254,1,0
248,192,81326,1,8
248,192,81612,1,4
248,192,81897,1,4
248,192,82183,1,12
248,192,82469,1,12
248,192,82754,1,8
248,192,82826,1,8
248,192,82897,1,0
248,192,82969,1,0
248,192,83040,1,8
248,192,83112,1,0
248,192,83183,1,8
248,192,83326,1,8
248,192,83469,1,8
248,192,83540,1,8
248,192,83612,1,0
248,192,83683,1,0
248,192,83754,1,0
248,192,83826,1,0
248,192,83897,1,0
248,192,84040,1,0
248,192,84183,1,4
248,192,84326,1,0
248,192,84397,1,0
248,192,84469,1,0
248,192,84612,1,0
248,192,84754,1,4
248,192,84897,1,0
248,192,84969,1,0
248,192,85040,1,0
248,192,85183,1,0
248,192,85326,1,8
248,192,85469,1,0
248,192,85540,1,0
248,192,85612,1,8
248,192,85754,1,0
248,192,85826,1,0
248,192,85897,1,0
248,192,86040,1,0
248,192,86183,1,4
248,192,86326,1,4
248,192,86469,1,8
248,192,86754,1,4
248,192,86897,1,4
248,192,87040,1,8
248,192,87326,1,4
248,192,87469,1,4
248,192,87612,1,4
248,192,87754,1,4
248,192,88040,1,8
248,192,88183,1,8
