osu file format v7

[General]
AudioFilename: Code Geass 3rd OP.mp3
AudioLeadIn: 0
PreviewTime: 37703
Countdown: 0
SampleSet: Normal
StackLeniency: 0.7
Mode: 0
LetterboxInBreaks: 1

[Editor]
DistanceSpacing: 1
BeatDivisor: 4
GridSize: 8

[Metadata]
Title:Hitomi no Tsubasa (TV Size)
Artist:Access
Creator:jericho2442
Version:Normal+
Source:Code Geass 3rd OP
Tags:Hangyaku no Lelouch Anime J-Pop Beuchi-chan Ztrot

[Difficulty]
HPDrainRate:5
CircleSize:4
OverallDifficulty:5
SliderMultiplier:1.4
SliderTickRate:2

[Events]
//Background and Video events
Video,-80,"Code+Geass+OP3.avi"
0,0,"Code Geass wallpaper.jpg"
//Break Periods
2,18319,19836
2,24986,26503
2,75376,79810
//Storyboard Layer 0 (Background)
//Storyboard Layer 1 (Fail)
//Storyboard Layer 2 (Pass)
//Storyboard Layer 3 (Foreground)
//Storyboard Sound Samples
//Background Colour Transformations
3,100,0,0,0

[TimingPoints]
2703,416.666666666667,4,1,1,100,1,0
51010,416.666666666667,4,1,1,100,1,0
51027,-100,4,1,1,100,0,1
74343,-100,4,1,1,100,0,0
80596,-100,4,1,1,0,0,0

[Colours]
Combo1 : 128,0,128
Combo2 : 0,0,255

[HitObjects]
112,160,7703,2,0,B|64:192|136:232,2,70,0|0|8
176,192,8328,1,0
208,128,8536,2,0,B|280:176|216:264,1,140,0|8
368,248,9369,2,0,B|422:174|350:126,1,140,0|0
208,128,10202,2,0,B|280:176|216:264,1,140,0|8
128,352,11036,5,0
56,352,11244,1,0
56,280,11452,1,8
56,208,11661,1,0
56,136,11869,2,0,B|128:136|128:136|128:208,1,140,0|8
272,208,12702,2,0,B|272:128|272:128|208:128,1,140
328,208,13536,2,0,B|328:128|328:128|400:128,1,140,0|8
480,240,14369,5,0
432,288,14577,1,0
384,240,14786,1,8
336,288,14994,1,0
288,240,15202,1,0
240,288,15411,1,0
184,240,15619,6,0,B|96:240,1,70,8|0
32,128,16244,1,0
136,32,16661,1,8
272,32,17077,1,0
376,128,17494,1,0
376,272,17911,2,0,B|376:192,1,70,8|0
160,352,21036,6,0,B|72:352,1,70
120,288,21453,2,0,B|192:288,1,70,8|0
152,224,21869,2,0,B|80:224,1,70
120,160,22286,2,0,B|200:160,1,70,8|0
328,160,22911,1,0
328,16,23328,1,0
328,160,23744,1,8
464,160,24161,1,0
464,296,24578,1,8
392,296,24786,1,0
32,352,27703,6,0,B|248:352,1,210
440,288,28953,2,0,B|224:288,1,210,0|8
24,240,30203,2,0,B|176:240,1,140,0|8
288,176,31036,6,0,B|48:176,1,210
280,112,32286,2,0,B|136:112,1,140,0|8
352,112,33328,6,0,B|352:240|352:240|264:240,1,210,0|8
128,240,34369,1,0
128,168,34578,1,8
248,96,34994,1,0
248,168,35203,1,8
360,256,35619,1,0
464,352,36036,5,0
392,352,36244,2,0,B|392:296,2,35,0|0|8
320,352,36661,1,0
248,352,36869,2,0,B|248:304,2,35,0|0|8
176,352,37286,1,0
40,328,37703,1,4
32,192,38119,6,0,B|96:256|168:184,1,140
280,192,38953,2,0,B|216:256|144:184,1,140,0|8
160,72,39786,2,0,B|96:136|168:208,1,140,0|0
160,320,40619,6,0,B|96:256|168:184,1,140,0|8
296,200,41452,2,0,B|296:128,1,70
416,200,42077,2,0,B|416:280,1,70,0|8
296,200,42702,1,0
72,32,43536,5,0
72,176,43952,1,0
72,320,44369,1,8
208,320,44786,2,0,B|208:240,1,70,0|8
328,320,45411,2,0,B|328:240,1,70,0|8
448,320,46036,5,0
448,184,46452,2,0,B|368:184,1,70,0|8
448,64,47077,2,0,B|376:64,1,70,0|8
240,64,47702,5,0
104,64,48119,2,0,B|104:144,2,70,0|0|8
104,208,48952,1,0
104,344,49369,1,4
384,352,50202,5,0
384,280,50411,1,0
320,312,50619,1,8
320,240,50827,2,0,B|232:240,1,70,0|4
472,224,51426,6,0,B|408:288|344:216,1,140
472,144,52259,2,0,B|408:80|344:152,1,140,0|8
472,224,53093,2,0,B|408:288|344:216,1,140
208,224,53926,1,0
64,224,54343,6,0,B|64:144,1,70,8|0
64,224,54759,2,0,B|64:304,1,70
184,224,55384,2,0,B|184:144,1,70,0|8
304,224,56009,1,0
480,104,56843,5,0
344,104,57259,1,8
200,104,57676,2,0,B|152:48,1,70
154,50,58093,2,0,B|96:120,1,70,8|0
112,248,58718,2,0,B|168:304,1,70,0|8
304,296,59343,5,0
440,248,59759,2,0,B|368:248,1,70,0|8
232,208,60384,2,0,B|312:208,1,70,0|8
440,176,61009,1,0
200,32,61843,1,0
32,192,62676,5,0
120,304,63093,1,0
200,192,63509,1,8
280,304,63926,1,0
200,192,64343,1,4
32,184,64759,6,0,B|32:264,1,70
104,256,65176,2,0,B|104:176,1,70,8|0
104,112,65593,2,0,B|104:40,1,70
176,48,66009,2,0,B|176:128,1,70,8|0
176,184,66426,2,0,B|176:264,1,70
248,256,66843,2,0,B|248:176,1,70,8|0
248,120,67259,2,0,B|248:48,1,70
320,56,67676,1,8
448,112,68093,5,0
448,184,68301,1,8
368,296,68718,1,0
368,224,68926,1,8
248,296,69343,1,0
112,296,69759,1,0
112,224,69968,1,8
32,112,70384,1,0
32,184,70593,1,8
32,328,71009,5,0
168,328,71426,2,0,B|88:328,1,70,0|8
168,208,72051,2,0,B|264:208,1,70,0|8
168,88,72676,1,0
376,88,73301,6,0,B|448:88|448:88|448:160|448:160|368:160,1,210,0|8
240,160,74343,1,0
32,352,75176,1,4
256,192,81010,12,4,84343
