osu file format v7

[General]
AudioFilename: Code Geass 3rd OP.mp3
AudioLeadIn: 0
PreviewTime: 37703
Countdown: 0
SampleSet: Normal
StackLeniency: 0.7
Mode: 0
LetterboxInBreaks: 1

[Editor]
DistanceSpacing: 0.800000011920929
BeatDivisor: 4
GridSize: 8

[Metadata]
Title:Hitomi no Tsubasa (TV Size)
Artist:Access
Creator:jericho2442
Version:Insane
Source:Code Geass 3rd OP
Tags:Hangyaku no Lelouch Anime J-Pop Beuchi-chan Ztrot

[Difficulty]
HPDrainRate:7
CircleSize:5
OverallDifficulty:8
SliderMultiplier:1.4
SliderTickRate:2

[Events]
//Background and Video events
Video,-80,"Code+Geass+OP3.avi"
0,0,"Code Geass wallpaper.jpg"
//Break Periods
2,6236,6953
//Storyboard Layer 0 (Background)
//Storyboard Layer 1 (Fail)
//Storyboard Layer 2 (Pass)
//Storyboard Layer 3 (Foreground)
//Storyboard Sound Samples
//Background Colour Transformations
3,100,0,0,0

[TimingPoints]
2703,416.666666666667,4,1,1,100,1,0
51010,416.666666666667,4,1,1,100,1,0
51027,-100,4,1,1,100,0,1
74343,-100,4,1,1,100,0,0
81429,-100,4,2,0,100,0,0

[Colours]
Combo1 : 128,0,128
Combo2 : 0,0,255

[HitObjects]
480,192,2702,1,8
256,32,3015,1,0
480,192,3327,1,8
256,352,3640,1,0
480,192,3952,2,0,B|400:192|400:192,1,70,8|0
256,192,4369,5,0
152,192,4577,2,0,B|152:136|152:136,2,35,0|0|8
48,192,4994,2,0,B|48:264|48:264,1,70
152,264,5411,2,0,B|152:320|152:320,2,35,0|0|8
256,264,5828,1,0
360,264,6036,1,4
32,32,7703,6,0,B|32:120,1,70
112,104,8119,2,0,B|112:184,1,70,8|0
200,176,8536,2,0,B|200:256,1,70
280,248,8953,2,8,B|280:320,1,70
360,320,9369,5,0
440,320,9578,1,0
440,280,9682,1,0
440,240,9786,1,8
440,200,9890,1,0
440,160,9994,1,0
360,160,10202,2,0,B|272:160,1,70
288,80,10619,2,8,B|368:80,1,70
360,160,11036,5,0
280,160,11244,1,0
280,200,11348,1,0
280,240,11452,1,8
240,224,11557,1,0
240,184,11661,1,0
160,184,11869,6,0,B|160:256,1,70
72,256,12286,2,8,B|72:176,1,70
72,104,12702,5,0
152,104,12911,2,0,B|152:48,1,35
200,104,13119,2,0,B|200:64,1,35,8|0
248,104,13327,1,0
328,104,13536,2,0,B|328:176,1,70
376,104,13952,2,8,B|376:176,1,70
376,280,14369,5,0
296,352,14577,1,0
224,280,14786,1,8
144,352,14994,1,0
64,280,15202,1,0
64,280,15411,2,0,B|64:208,1,70,0|8
64,104,15827,1,0
168,104,16036,1,0
248,32,16244,1,0
248,88,16348,1,0
248,144,16452,1,8
248,200,16557,1,0
248,256,16661,1,0
240,360,16869,6,0,B|320:360,1,70
312,256,17286,2,0,B|392:256,1,70,8|0
312,56,17911,1,0
312,56,18119,1,8
72,192,18536,5,0
176,192,18744,2,0,B|176:144,2,35,0|0|8
280,192,19161,1,0
384,192,19369,2,0,B|384:264,1,70
464,192,19786,1,8
464,88,19994,1,0
360,88,20203,2,0,B|360:40,2,35
256,88,20619,1,8
152,88,20828,1,0
152,192,21036,5,0
152,296,21244,1,0
64,240,21453,1,8
152,192,21661,1,0
64,136,21869,1,0
152,88,22078,1,0
248,136,22286,1,8
248,240,22494,1,0
248,344,22703,5,0
352,344,22911,1,0
408,344,23015,1,0
464,344,23119,1,8
464,288,23223,1,0
464,232,23328,1,0
360,232,23536,1,0
256,232,23744,1,0
256,176,23848,1,0
256,120,23953,1,8
312,120,24057,1,0
368,120,24161,1,0
472,120,24369,5,0
472,16,24578,2,0,B|392:16,1,70,0|8
296,16,24994,2,0,B|216:16,1,70
120,16,25411,2,0,B|40:16,1,70,0|8
24,120,25828,1,0
24,224,26036,1,0
48,328,26244,2,0,B|120:328,1,70,0|8
224,328,26661,2,0,B|296:328,1,70
400,328,27078,2,0,B|480:328,1,70,0|8
488,224,27494,1,0
488,120,27703,6,0,B|520:80|480:48,1,70
392,88,28119,1,8
288,88,28328,2,0,B|288:48,2,35
320,192,28744,2,0,B|288:216|240:192,1,70,0|8
152,160,29161,2,0,B|128:200|152:232,1,70
184,328,29578,2,0,B|152:360|104:320,1,70,0|8
16,360,29994,2,0,B|-8:320|24:288,1,70
16,192,30411,1,0
16,88,30619,1,8
104,136,30828,1,0
208,136,31036,5,0
296,80,31244,1,0
296,136,31348,1,0
296,192,31453,1,8
296,248,31557,1,0
296,304,31661,1,0
392,264,31869,1,0
488,304,32078,1,0
488,248,32182,1,0
488,192,32286,1,8
488,136,32390,1,0
488,80,32494,1,0
392,112,32703,5,0
328,32,32911,1,0
272,32,33015,1,0
216,32,33119,1,8
160,32,33223,1,0
104,32,33328,1,0
104,136,33536,1,0
288,240,33953,1,8
104,344,34369,1,0
256,192,34578,12,4,36036
256,192,36244,12,4,37703
24,40,38119,6,0,B|104:40,1,70,8|0
184,96,38536,2,0,B|104:96,1,70
24,152,38953,2,8,B|104:152,1,70
184,208,39369,2,0,B|112:208,1,70
24,264,39786,2,0,B|96:264,1,70,8|0
184,320,40202,1,0
288,288,40411,1,0
320,192,40619,1,8
320,88,40827,1,8
424,88,41036,5,0
320,88,41244,1,0
264,88,41348,1,0
208,88,41452,1,8
104,88,41661,1,0
104,192,41869,1,0
208,192,42077,1,0
264,192,42182,1,0
320,192,42286,1,8
424,192,42494,1,8
424,296,42702,1,0
224,360,43119,5,8
224,256,43327,1,0
224,152,43536,1,0
224,48,43744,1,0
224,152,43952,1,8
328,152,44161,1,8
432,152,44369,5,0
376,240,44577,1,0
336,200,44682,1,0
296,160,44786,1,8
208,216,44994,1,0
280,296,45202,1,0
200,368,45411,1,0
160,328,45515,1,0
120,288,45619,1,8
208,216,45827,1,8
136,144,46036,1,0
312,32,46452,6,0,B|312:104,1,70,8|0
312,102,46869,2,0,B|312:176,1,70
312,172,47286,2,8,B|312:256,1,70
312,242,47702,1,0
104,232,48119,5,8
176,160,48327,1,0
248,232,48536,1,0
176,304,48744,1,0
104,232,48952,1,8
176,160,49161,1,8
176,232,49369,1,0
352,352,49786,5,8
432,280,49994,1,0
432,176,50202,1,0
360,104,50411,1,0
432,176,50619,1,8
432,280,50827,1,8
352,352,51010,1,0
24,104,51426,6,0,B|24:176,1,70,8|0
80,264,51843,2,0,B|80:184,1,70
136,104,52259,2,8,B|136:184,1,70
192,264,52676,2,0,B|192:184,1,70
248,104,53093,2,0,B|248:176,1,70,8|0
304,264,53509,1,0
304,160,53718,1,0
304,264,53926,1,8
408,264,54134,1,8
304,264,54343,5,0
96,24,54968,2,0,B|96:96,1,70
200,96,55384,1,0
304,96,55593,1,8
304,152,55697,1,0
304,208,55801,1,8
200,208,56009,5,0
480,352,56634,1,0
480,40,57259,5,8
272,40,57676,1,0
184,104,57884,2,0,B|144:144|144:144,2,35,0|0|8
112,176,58301,1,0
40,248,58509,1,0
144,248,58718,1,0
200,248,58822,1,0
168,208,58926,1,8
96,128,59134,1,8
128,32,59343,5,0
232,32,59551,2,0,B|312:32,1,70,0|8
264,128,59968,2,0,B|328:72,1,70
408,136,60384,2,0,B|352:80,1,70,0|8
448,32,60801,6,0,B|368:32,1,70,8|0
272,32,61218,1,0
168,32,61426,1,8
64,32,61634,1,0
64,88,61739,1,0
64,144,61843,1,0
168,144,62051,1,0
168,248,62259,1,8
344,360,62676,5,0
448,360,62884,1,0
448,304,62989,1,0
448,248,63093,1,8
344,248,63301,2,0,B|344:176,1,70
240,176,63718,2,0,B|240:104,1,70,0|8
24,192,64759,5,8
256,360,65176,1,0
488,192,65593,1,8
256,24,66009,1,0
24,192,66426,1,8
256,360,66843,5,0
256,256,67051,2,0,B|256:312,2,35,0|0|8
256,152,67468,1,8
256,48,67676,1,0
152,48,67884,2,0,B|152:88,2,35,0|0|8
48,48,68301,1,8
48,152,68509,1,0
48,256,68718,2,0,B|96:256,2,35,0|0|8
48,360,69134,1,8
152,360,69343,1,0
256,360,69551,6,0,B|256:304|256:304,2,35,0|0|8
256,256,69968,1,0
360,256,70176,1,4
488,288,70593,6,0,B|488:360,1,70
487,218,71009,2,0,B|487:290,1,70
487,148,71426,2,8,B|487:221,1,70
487,78,71843,2,0,B|487:149,1,70
408,77,72259,1,8
200,80,72676,1,0
96,256,73093,6,0,B|24:256,1,70
166,257,73510,2,8,B|86:257,1,70
236,258,73926,2,0,B|156:258,1,70,0|0
306,256,74343,5,0
408,256,74551,2,0,B|408:312,2,35,0|0|8
408,48,75176,5,0
304,48,75385,1,0
304,48,75489,1,0
304,48,75593,1,8
200,48,75801,1,8
96,48,76010,1,0
96,256,76426,1,4
304,256,76843,5,0
408,256,77051,1,0
408,256,77155,1,0
408,256,77260,1,8
408,152,77468,1,8
408,48,77676,1,0
200,48,78093,1,4
48,192,78510,5,0
48,296,78718,1,0
88,328,78822,1,0
128,360,78926,1,8
232,360,79135,1,8
336,360,79343,1,0
464,192,79760,1,4
256,192,80176,1,4
176,104,81843,5,2
152,96,81947,1,0
128,88,82051,1,0
104,88,82155,1,0
80,96,82260,1,2
56,112,82364,1,0
48,136,82468,1,0
48,160,82572,1,0
48,184,82676,5,2
48,208,82780,1,0
56,232,82885,1,0
72,256,82989,1,0
96,272,83093,1,2
120,272,83197,1,0
144,272,83301,1,0
168,264,83405,1,0
192,248,83510,1,2
272,272,83718,5,0
408,272,83926,6,0,B|352:288|336:224|336:224,1,70
347,249,84343,2,0,B|301:212|345:162|345:162,1,70
331,186,84760,2,0,B|324:128|390:123|390:123,1,70
363,130,85176,2,0,B|403:88|448:137|448:137,1,70
427,121,85593,1,0
