osu file format v7

[General]
AudioFilename: Code Geass 3rd OP.mp3
AudioLeadIn: 0
PreviewTime: 37703
Countdown: 0
SampleSet: Normal
StackLeniency: 0.7
Mode: 0
LetterboxInBreaks: 1

[Editor]
DistanceSpacing: 0.699999988079071
BeatDivisor: 4
GridSize: 8

[Metadata]
Title:Hitomi no Tsubasa (TV Size)
Artist:Access
Creator:jericho2442
Version:Easy
Source:Code Geass 3rd OP
Tags:Hangyaku no Lelouch Anime J-Pop Beuchi-chan Ztrot

[Difficulty]
HPDrainRate:2
CircleSize:3
OverallDifficulty:3
SliderMultiplier:1
SliderTickRate:1

[Events]
//Background and Video events
Video,-80,"Code+Geass+OP3.avi"
0,0,"Code Geass wallpaper.jpg"
//Break Periods
2,34569,36679
2,48736,49986
2,75376,79570
//Storyboard Layer 0 (Background)
//Storyboard Layer 1 (Fail)
//Storyboard Layer 2 (Pass)
//Storyboard Layer 3 (Foreground)
//Storyboard Sound Samples
//Background Colour Transformations
3,100,0,0,0

[TimingPoints]
2703,416.666666666667,4,1,1,100,1,0
51010,416.666666666667,4,1,1,100,1,0
51027,-100,4,1,1,100,0,1
74343,-100,4,1,1,100,0,0
80596,-100,4,1,1,0,0,0

[Colours]
Combo1 : 128,0,128
Combo2 : 0,0,255

[HitObjects]
176,88,7703,2,0,B|264:0|360:96,1,200
352,232,9369,2,0,B|264:320|168:224,1,200,0|8
40,192,11036,6,0,B|72:312|96:32|176:208,1,200
291,193,12702,2,0,B|259:313|235:33|155:209,1,200,0|8
160,328,14369,5,0
296,328,15202,1,0
432,296,16036,2,0,B|432:224|360:216,1,100
360,288,16869,1,8
360,144,17702,5,0
240,72,18536,1,0
216,208,19369,2,0,B|152:224|128:152,1,100
200,136,20203,1,8
344,136,21036,6,0,B|392:248|424:40|504:176,1,200,0|8
496,232,22286,1,0
496,304,22703,6,0,B|448:416|416:208|336:344,1,200,0|8
272,336,23953,1,0
200,336,24369,5,0
200,192,25203,1,8
104,96,26036,1,0
200,192,26869,1,8
296,296,27703,6,0,B|296:80,1,200,0|8
368,96,28953,1,0
440,96,29369,2,0,B|440:304,1,200,0|8
368,296,30619,1,0
368,224,31036,6,0,B|152:224,1,200,0|8
168,296,32286,1,0
96,296,32703,2,0,B|96:80,1,200,0|8
168,96,33953,1,0
240,96,34369,1,0
40,40,38119,6,0,B|40:152,1,100,0|8
112,136,38953,2,0,B|112:24,1,100
184,40,39786,2,0,B|184:144,1,100,0|8
256,136,40619,6,0,B|256:16,1,100
360,40,41661,1,0
360,144,42286,1,0
360,216,42702,1,8
200,344,43952,6,0,B|88:344,1,100,0|8
104,240,44994,1,0
208,240,45619,2,0,B|208:136,1,100,0|8
312,136,46661,6,0,B|312:288,1,150
384,288,47702,1,8
384,144,48536,1,0
40,192,51426,6,0,B|80:136|120:192,1,100
120,264,52259,2,0,B|160:320|200:264,1,100,0|8
200,192,53093,2,0,B|240:136|280:192,1,100
280,264,53926,6,0,B|320:320|360:264,1,100,0|8
432,192,54968,2,0,B|504:120|416:48,1,150
360,64,56009,1,8
360,264,57259,6,0,B|256:264,1,100,0|8
184,192,58301,2,0,B|336:192,1,150
360,128,59343,1,8
296,40,59968,6,0,B|136:40,1,150
72,40,61009,2,0,B|72:192,1,150,0|8
72,224,61843,5,0
176,320,62676,1,0
272,224,63509,1,8
176,120,64343,1,0
248,120,64759,6,0,B|368:120,1,100,0|8
416,120,65593,2,0,B|416:232,1,100
416,288,66426,2,0,B|312:288,1,100,0|8
320,216,67259,6,0,B|320:160|320:160|264:160,1,100
168,160,68301,1,0
64,160,68926,1,0
64,232,69343,1,8
240,352,70593,5,0
312,352,71009,1,8
416,352,71634,1,0
416,248,72259,5,0
416,176,72676,1,8
416,72,73301,1,0
312,72,73926,5,0
240,72,74343,1,8
96,72,75176,1,0
256,192,81010,12,0,84343
