osu file format v5

[General]
AudioFilename: grayman.mp3
AudioLeadIn: 0
PreviewTime: -1
Countdown: 0
SampleSet: Normal
EditorBookmarks: 17353,23546,29740,35933,49482,65353,71546

[Metadata]
Title:Doubt & Trust
Artist:Access
Creator:Hitoshirenu Shourai
Version:Normal

[Difficulty]
HPDrainRate:3
CircleSize:4
OverallDifficulty:3
SliderMultiplier:1
SliderTickRate:2

[Events]
//Background and Video events
1,24,"gray.avi"
//Break Periods
2,42738,49080
//Storyboard Layer 0 (Background)
//Storyboard Layer 1 (Failing)
//Storyboard Layer 2 (Passing)
//Storyboard Layer 3 (Foreground)
//Storyboard Sound Samples
//Background Colour Transformations
3,100,0,0,0

[TimingPoints]
8520,387.096774193548,4,1,0,100

[HitObjects]
224,160,17810,1,0
296,160,18197,1,0
296,232,18584,1,0
224,232,18971,1,0
152,232,19358,5,0
96,192,19745,1,0
152,152,20132,1,0
256,240,20907,5,0
256,312,21294,1,0
184,312,21681,1,0
112,312,22068,1,0
152,256,22455,5,0
152,184,22842,1,0
80,184,23229,1,0
216,184,24003,6,0,B|136:104,1,100
208,88,24778,2,0,B|279:159,1,100
296,224,25552,2,0,B|376:232|406:157|344:72,1,200
392,216,27100,6,0,B|456:248|400:312,1,100
344,304,27874,2,0,B|296:262|260:316,1,100
232,248,28649,2,0,B|232:120|96:120,1,200
56,248,30197,5,0
96,304,30584,1,0
144,248,30971,1,0
104,192,31358,1,0
104,120,31745,5,0
176,120,32132,1,0
176,192,32519,1,0
256,304,33294,5,0
328,304,33681,1,0
328,232,34068,1,0
328,160,34455,1,0
256,160,34842,5,0
224,96,35229,1,0
192,160,35616,1,0
120,40,36390,6,0,B|144:88|80:128,1,100
96,192,37165,2,0,B|48:232|72:296,1,100
128,256,37939,2,0,B|160:216,1,50
184,232,38326,2,0,B|144:280,1,50
176,288,38713,2,0,B|208:248,1,50
232,272,39100,2,0,B|192:320,1,50
224,328,39487,6,0,B|280:336|320:280,1,100
368,248,40261,2,0,B|400:196|464:216,1,100
408,160,41036,2,0,B|392:168,8,12.5
336,152,41810,2,0,B|320:168,16,12.5
296,160,50326,6,0,B|256:128|136:168,2,150
256,216,51874,2,0,B|264:288|144:312,1,150
120,312,52649,1,0
40,200,53423,1,0
104,176,53810,5,0
104,104,54197,1,0
152,48,54584,1,0
224,48,54971,1,0
360,56,55745,6,0,B|304:72|352:96,4,50
416,144,57100,2,0,B|448:192,1,50
432,216,57487,2,0,B|392:280,1,50
368,256,57874,1,0
368,216,58068,6,0,B|304:224|304:288|320:352,1,150
280,336,58842,1,0
176,336,59423,2,0,B|104:336,1,50
112,264,60003,1,0
72,200,60390,5,0
56,128,60778,1,0
96,72,61165,2,0,B|152:144|232:128,1,150
224,96,61939,1,0
352,40,62713,6,0,B|384:136|304:128|296:136|320:192,2,150
312,96,64261,2,0,B|314:128|328:166|256:232,1,150
288,248,65036,1,0
360,320,65616,6,0,B|312:360,1,50
288,288,66197,1,0
232,328,66584,1,0
176,288,66971,1,0
128,232,67358,1,0
40,72,68132,6,0,B|96:64,2,50
80,96,68713,2,0,B|128:112,1,50
216,24,69487,2,0,B|248:72|224:88,3,50
240,112,70261,1,0
272,144,70455,2,0,B|232:96|272:40|328:56|344:80,1,150
352,112,71229,1,0
416,200,71810,5,0
416,200,72003,1,0
352,224,72390,2,0,B|280:232|272:152,1,100
288,240,73165,2,0,B|328:288|288:336,1,100
112,328,74520,5,0
96,296,74713,1,0
80,264,74907,1,0
64,232,75100,2,0,B|104:264|152:224,1,75
176,200,75681,5,0
208,192,75874,2,0,B|256:208|288:168,1,75
320,144,76455,1,0
320,104,76649,1,0
256,192,77229,12,0,79745
