osu file format v5

[General]
AudioFilename: grayman.mp3
AudioLeadIn: 0
PreviewTime: -1
Countdown: 0
SampleSet: Normal
EditorBookmarks: 17353,23546,29933,35933,42320,49869,56062,62256

[Metadata]
Title:Doubt & Trust
Artist:Access
Creator:Hitoshirenu Shourai
Version:Easy

[Difficulty]
HPDrainRate:1
CircleSize:3
OverallDifficulty:1
SliderMultiplier:0.8
SliderTickRate:2

[Events]
//Background and Video events
1,24,"gray.avi"
//Break Periods
2,48157,48840
//Storyboard Layer 0 (Background)
//Storyboard Layer 1 (Failing)
//Storyboard Layer 2 (Passing)
//Storyboard Layer 3 (Foreground)
//Storyboard Sound Samples
//Background Colour Transformations
3,100,0,0,0

[TimingPoints]
8520,387.096774193548,4,1,0,100

[HitObjects]
256,112,17810,1,0
184,192,18584,1,0
256,280,19358,1,0
328,192,20132,1,0
272,288,20907,5,0
272,176,21681,1,0
344,88,22455,1,0
456,88,23229,1,0
416,192,24003,6,0,B|288:320,1,160
192,304,25552,2,0,B|79:191,1,160
88,80,27100,6,0,B|264:80,1,160
248,136,28261,2,0,B|72:136,1,160
120,184,29423,1,0
176,184,29810,1,0
232,184,30197,5,0
344,184,30971,1,0
344,296,31745,1,0
232,296,32519,1,0
120,296,33294,5,0
64,192,34068,1,0
64,80,34842,1,0
176,80,35616,1,0
248,168,36390,6,0,B|280:216|232:248,1,80
243,240,37165,2,0,B|281:281|233:313,1,80
296,304,37939,5,0
352,304,38326,1,0
400,272,38713,1,0
400,216,39100,1,0
344,200,39487,6,0,B|342:89|222:72|216:200,1,240
160,200,41036,2,0,B|80:152,1,80
88,104,41810,2,0,B|168:152,1,80
208,168,42584,5,0
288,88,43358,1,0
288,200,44132,1,0
224,288,44907,1,0
128,344,45681,5,0
40,272,46455,1,0
40,160,47229,1,0
152,160,48003,1,0
320,128,50326,6,0,B|336:192|416:192|448:128,1,160
352,200,51874,2,0,B|272:216|272:280|288:328,1,160
176,328,53423,2,0,B|224:264|192:200|128:200,1,160
184,96,54971,2,0,B|88:96|72:144|40:160,1,160
72,264,56519,5,0
128,264,56907,1,0
168,224,57294,1,0
232,136,58068,5,0
264,176,58455,1,0
264,232,58842,1,0
320,136,59616,6,0,B|352:104|400:136,1,80
424,176,60390,2,0,B|456:208|424:256,1,80
368,256,61165,2,0,B|368:304|336:336|272:368|256:336,1,160
152,312,62713,6,0,B|184:264|184:200|120:168,1,160
96,280,64261,2,0,B|41:252|41:188|73:140,1,160
152,64,65810,2,0,B|184:32|232:64,1,80
280,72,66584,2,0,B|312:40|360:72,1,80
368,120,67358,5,0
368,232,68132,1,0
288,312,68907,1,0
224,216,69681,5,0
168,312,70455,1,0
112,216,71229,1,0
200,144,72003,6,0,B|200:16|184:16|88:80|88:96|104:96|280:80,1,320
80,216,75100,5,0
184,248,75874,1,0
288,280,76649,1,0
256,192,77423,12,0,79745
