osu file format v12

[General]
AudioFilename: ed-unfinshed.mp3
AudioLeadIn: 0
PreviewTime: -1
Countdown: 1
SampleSet: Soft
StackLeniency: 0.7
Mode: 0
LetterboxInBreaks: 1

[Editor]
DistanceSpacing: 1
BeatDivisor: 6
GridSize: 8

[Metadata]
Title:Unfinished
TitleUnicode:Unfinished
Artist:Accel World
ArtistUnicode:Accel World
Creator:Ikarous
Version:crazy pop
Source:
Tags:
BeatmapID:269289
BeatmapSetID:101707

[Difficulty]
HPDrainRate:9
CircleSize:5
OverallDifficulty:8
ApproachRate:10
SliderMultiplier:1.6
SliderTickRate:1

[Events]
//Background and Video events
0,0,"320993_321905067909488_389510785_n.jpg",0,0
//Break Periods
2,33864,39722
2,100646,114200
2,168180,181502
2,197358,204037
//Storyboard Layer 0 (Background)
//Storyboard Layer 1 (Fail)
//Storyboard Layer 2 (Pass)
//Storyboard Layer 3 (Foreground)
//Storyboard Sound Samples
//Background Colour Transformations
3,100,163,162,255

[TimingPoints]
1542,410.958904109589,4,2,1,70,1,0
3929,-100,4,2,1,50,0,1
33778,-100,4,2,1,70,0,0
39782,-133.333333333333,4,2,1,70,0,0
46225,-66.6666666666667,4,2,1,70,0,0
74501,-100,4,2,1,70,0,1
87209,-100,4,2,1,70,0,1
100031,-100,4,2,1,70,0,0
114650,-133.333333333333,4,2,1,70,0,0
126756,-66.6666666666667,4,2,1,70,0,0
141593,-100,4,2,1,70,0,1
155098,-100,4,2,1,70,0,1
181884,-133.333333333333,4,2,1,70,0,0
204350,-100,4,2,1,70,0,0
211058,-66.6666666666667,4,1,1,100,0,1
224007,-66.6666666666667,4,1,1,100,0,1

[Colours]
Combo1 : 192,192,192
Combo2 : 0,0,0
Combo3 : 0,0,255
Combo4 : 0,255,128

[HitObjects]
256,192,1542,12,0,4109,0:0:0:0:
184,144,4244,5,8,0:0:0:0:
296,160,4418,2,0,L|208:200,1,80
224,192,4785,2,2,L|232:320,1,120
232,312,5309,1,0,0:0:0:0:
440,64,5788,5,0,0:0:0:0:
416,96,5925,1,8,0:0:0:0:
400,120,6062,2,0,L|368:104,1,26.6666666666667
376,112,6131,2,2,P|344:160|384:240,1,133.333333333333
376,216,6610,1,8,0:0:0:0:
360,224,6678,2,2,P|432:237|512:189,1,160
176,120,7420,5,8,0:0:0:0:
80,168,7690,1,0,0:0:0:0:
80,168,7774,2,2,B|152:152|160:88|160:80,1,120
152,56,8322,1,8,0:0:0:0:
192,56,8459,1,0,0:0:0:0:
163,85,8704,2,2,L|256:112,1,93.3333333333333
224,88,9281,5,0,0:0:0:0:
252,111,9379,1,8,0:0:0:0:
232,152,9447,5,8,0:0:0:0:
232,176,9650,2,2,L|368:280,1,160
360,272,10172,2,2,P|281:297|201:249,1,160
160,224,10663,6,2,L|320:224,1,160
320,224,11199,1,8,0:0:0:0:
320,224,11336,1,2,0:0:0:0:
320,224,11541,2,0,L|320:96,1,120
320,104,12158,2,2,L|160:104,1,160
160,104,12774,1,8,0:0:0:0:
160,104,13096,1,2,0:0:0:0:
160,104,13163,2,0,L|160:232,1,120
160,224,13906,5,8,0:0:0:0:
200,232,14007,1,0,0:0:0:0:
232,232,14109,1,8,0:0:0:0:
312,240,14244,2,2,L|400:240,2,80
312,240,14829,1,8,0:0:0:0:
312,240,15123,2,2,L|312:200,1,40
312,160,15528,5,8,0:0:0:0:
272,160,15731,1,0,0:0:0:0:
216,168,15933,1,4,0:0:0:0:
256,192,16271,12,0,18906,0:0:0:0:
288,240,20103,6,0,L|288:200,5,26.6666666666667
128,120,20731,5,4,0:0:0:0:
128,120,20788,1,0,0:0:0:0:
128,120,20933,2,0,L|208:120,1,80
208,120,21268,1,0,0:0:0:0:
208,120,21405,1,0,0:0:0:0:
208,120,21406,1,0,0:0:0:0:
200,144,21541,1,8,0:0:0:0:
248,144,21744,6,2,L|368:136,2,120
352,64,22500,2,2,P|400:160|376:224,1,160
336,240,23048,1,8,0:0:0:0:
336,240,23254,1,8,0:0:0:0:
280,272,23528,2,0,P|184:280|128:240,1,160
96,184,24041,5,8,0:0:0:0:
96,184,24244,2,2,L|264:184,1,160
256,184,24898,1,8,0:0:0:0:
304,192,25103,1,8,0:0:0:0:
352,200,25377,1,8,0:0:0:0:
352,240,25446,2,2,L|296:296,1,80
80,88,25866,5,0,0:0:0:0:
136,80,26069,1,8,0:0:0:0:
176,96,26136,1,0,0:0:0:0:
160,128,26268,2,2,L|72:216,1,106.666666666667
88,200,26678,5,0,0:0:0:0:
136,216,26815,1,8,0:0:0:0:
168,216,27089,1,0,0:0:0:0:
288,168,27690,6,2,L|424:168,1,133.333333333333
421,168,28117,1,8,0:0:0:0:
421,168,28433,2,2,L|424:256,1,80
424,248,28802,2,0,L|424:288,1,40,4|2,0:0|0:0,0:0:0:0:
224,312,29213,2,2,P|120:256|112:208,1,160
112,208,29761,1,0,0:0:0:0:
304,152,29920,5,0,0:0:0:0:
304,152,30123,1,8,0:0:0:0:
304,152,30393,2,4,L|352:152,1,40
352,184,30788,2,0,P|408:224|408:288,1,133.333333333333
288,256,31473,6,2,L|152:264,2,133.333333333333
288,256,32432,1,4,0:0:0:0:
288,256,32774,1,4,0:0:0:0:
288,256,32911,1,4,0:0:0:0:
288,256,32980,1,4,0:0:0:0:
288,256,33048,1,4,0:0:0:0:
288,256,33117,5,2,0:0:0:0:
288,256,33185,1,2,0:0:0:0:
288,256,33254,1,2,0:0:0:0:
288,256,33322,1,6,0:0:0:0:
256,232,33459,6,6,L|256:192,3,26.6666666666667
144,168,40172,5,0,0:0:0:0:
144,168,40393,5,8,0:0:0:0:
144,168,40446,6,2,L|288:168,1,133.333333333333,0|2,0:0|0:0,0:0:0:0:
277,168,41062,1,8,0:0:0:0:
304,168,41199,2,0,P|336:168|344:176,1,40.000001525879
352,176,41473,1,0,0:0:0:0:
352,176,41542,2,2,L|355:264,2,80,0|2|0,0:0|0:0|0:0,0:0:0:0:
376,200,42295,1,8,0:0:0:0:
384,168,42432,2,2,P|392:96|320:80,1,160.000006103516
320,168,43366,6,2,L|232:168,1,80
240,208,43733,1,8,0:0:0:0:
240,168,43839,2,2,L|136:168,1,93.3333333333333
146,168,44447,1,0,0:0:0:0:
146,168,44582,1,0,0:0:0:0:
146,168,44717,2,0,L|144:120,3,40
104,144,45240,2,2,L|144:144,2,40.000001525879
144,112,45663,5,8,0:0:0:0:
200,120,45933,1,0,0:0:0:0:
240,120,46199,2,2,B|304:112|368:160|352:144,1,120.000004577637
354,146,46747,1,0,0:0:0:0:
354,146,46815,1,8,0:0:0:0:
354,146,46884,1,0,0:0:0:0:
352,144,47150,6,2,L|352:224,1,80
352,224,47690,1,0,0:0:0:0:
352,224,47774,1,0,0:0:0:0:
352,224,47911,2,0,L|184:224,1,160,6|2,0:0|0:0,0:0:0:0:
192,224,48322,1,8,0:0:0:0:
224,240,48528,2,2,L|376:304,1,160.000006103516
371,302,48870,2,0,L|432:248,1,80.0000030517579
432,248,49213,2,2,P|408:144|296:128,1,200.000007629395
176,152,49829,5,8,0:0:0:0:
320,152,50103,1,0,0:0:0:0:
256,264,50325,1,0,0:0:0:0:
256,264,50460,2,2,L|256:96,1,160
256,104,51062,5,8,0:0:0:0:
256,104,51199,2,2,L|256:24,1,80.0000030517579
176,104,51542,1,2,0:0:0:0:
256,104,51747,1,2,0:0:0:0:
336,104,51952,1,2,0:0:0:0:
424,200,52226,6,2,L|288:184,1,120.000004577637
304,185,52569,1,2,0:0:0:0:
304,185,52706,1,8,0:0:0:0:
304,185,52980,2,2,L|304:48,1,120.000004577637
248,144,53433,5,2,0:0:0:0:
248,224,53636,1,8,0:0:0:0:
176,184,53771,1,0,0:0:0:0:
176,184,53974,2,2,L|256:184,1,80
256,184,54582,1,0,0:0:0:0:
256,184,54785,6,2,L|344:184,1,80
336,184,55172,1,8,0:0:0:0:
224,96,56677,5,8,0:0:0:0:
224,256,56879,1,0,0:0:0:0:
224,176,57082,1,0,0:0:0:0:
224,176,57420,2,2,L|312:176,1,80
304,176,58028,1,0,0:0:0:0:
304,240,58231,1,8,0:0:0:0:
296,296,58433,1,0,0:0:0:0:
296,336,58665,6,0,L|336:336,6,40.000001525879
80,128,59555,1,0,0:0:0:0:
136,136,59717,6,2,L|224:136,1,80
216,136,60103,1,8,0:0:0:0:
216,136,60377,2,2,L|216:304,1,160.000006103516
216,136,61136,2,2,L|384:136,1,160
376,136,61610,1,0,0:0:0:0:
376,136,62014,1,0,0:0:0:0:
384,208,62217,1,8,0:0:0:0:
96,272,62893,5,8,0:0:0:0:
176,264,63163,1,0,0:0:0:0:
176,264,63231,2,2,L|336:264,1,160
336,264,63665,2,2,L|336:136,1,120.000004577637
336,216,64379,5,8,0:0:0:0:
256,200,64650,1,0,0:0:0:0:
312,144,64852,1,8,0:0:0:0:
312,144,65123,2,2,L|224:144,1,80
232,144,65446,1,0,0:0:0:0:
232,144,65514,1,0,0:0:0:0:
232,144,65663,2,2,L|136:144,1,93.3333333333333
138,144,66204,2,2,L|96:144,1,40
192,240,66747,5,8,0:0:0:0:
192,240,66812,1,0,0:0:0:0:
288,248,66947,1,0,0:0:0:0:
232,296,67021,2,2,L|232:56,1,240.000009155274
368,120,68231,5,8,0:0:0:0:
288,136,68501,1,0,0:0:0:0:
288,136,68665,2,2,L|288:304|288:296,1,160.000006103516
288,296,69007,2,2,L|144:296,2,120.000004577637
288,296,69717,1,0,0:0:0:0:
320,296,69852,1,0,0:0:0:0:
352,296,70055,1,0,0:0:0:0:
352,296,70258,5,8,0:0:0:0:
352,296,70528,1,8,0:0:0:0:
352,296,70731,1,8,0:0:0:0:
352,296,70925,1,0,0:0:0:0:
352,296,71136,1,8,0:0:0:0:
352,296,71406,1,8,0:0:0:0:
352,296,71609,1,4,0:0:0:0:
72,112,72082,5,2,0:0:0:0:
344,120,72352,1,2,0:0:0:0:
64,272,72623,1,2,0:0:0:0:
336,264,72893,1,2,0:0:0:0:
248,192,73163,1,4,0:0:0:0:
248,192,73231,1,4,0:0:0:0:
96,96,74785,5,0,0:0:0:0:
96,96,75055,5,8,0:0:0:0:
232,96,75258,1,0,0:0:0:0:
168,184,75528,1,0,0:0:0:0:
168,184,75596,2,0,L|248:184,1,80
248,184,76069,1,0,0:0:0:0:
280,192,76199,5,0,0:0:0:0:
376,192,76473,1,0,0:0:0:0:
328,192,76747,1,8,0:0:0:0:
328,192,76879,2,0,L|328:144,2,40
328,192,77295,1,0,0:0:0:0:
328,192,77432,2,2,L|168:128,1,160
136,96,78028,5,8,0:0:0:0:
232,96,78231,1,0,0:0:0:0:
184,168,78322,1,0,0:0:0:0:
184,168,78459,2,2,L|184:312,1,133.333333333333
184,304,78870,2,2,L|264:304,1,80
264,304,79177,1,0,0:0:0:0:
264,288,79379,1,0,0:0:0:0:
392,264,79650,5,8,0:0:0:0:
392,264,79852,1,0,0:0:0:0:
392,184,80123,2,2,L|320:184,1,66.6666666666667
325,184,80528,1,0,0:0:0:0:
288,184,80798,1,0,0:0:0:0:
288,184,80866,1,0,0:0:0:0:
288,184,80933,1,0,0:0:0:0:
128,88,81406,5,8,0:0:0:0:
208,88,81474,1,0,0:0:0:0:
208,88,81541,2,2,L|120:88,1,80
128,88,82014,1,0,0:0:0:0:
112,176,82217,5,0,0:0:0:0:
112,176,82420,1,0,0:0:0:0:
192,176,82487,1,0,0:0:0:0:
192,176,82690,1,0,0:0:0:0:
288,88,82960,6,2,L|288:248,1,160
288,248,83839,1,0,0:0:0:0:
288,248,84041,1,0,0:0:0:0:
360,280,84244,1,8,0:0:0:0:
224,288,84717,5,8,0:0:0:0:
224,216,84920,1,0,0:0:0:0:
168,256,85035,2,0,L|32:256,1,133.333333333333
34,256,85514,1,0,0:0:0:0:
34,256,85651,2,2,L|96:176,1,80
83,192,85925,2,2,L|136:192,1,53.3333333333333
112,152,86131,5,8,0:0:0:0:
192,152,86271,1,0,0:0:0:0:
272,152,86474,1,8,0:0:0:0:
352,152,86677,1,4,0:0:0:0:
352,200,86815,1,0,0:0:0:0:
352,200,86884,5,0,0:0:0:0:
352,200,86952,1,0,0:0:0:0:
352,200,87021,1,0,0:0:0:0:
248,72,87893,5,0,0:0:0:0:
248,72,88028,6,0,L|248:152,1,80
248,152,88391,2,2,L|320:152,1,53.3333333333333
248,152,88636,1,0,0:0:0:0:
328,152,88839,1,0,0:0:0:0:
328,152,89041,1,0,0:0:0:0:
104,256,89312,2,4,L|192:256,1,80
184,256,89692,1,0,0:0:0:0:
184,256,89829,2,2,L|272:256,1,80
288,256,90123,5,0,0:0:0:0:
328,256,90325,1,0,0:0:0:0:
376,256,90528,1,0,0:0:0:0:
328,256,90731,1,8,0:0:0:0:
168,128,91136,6,2,L|256:128,1,80
248,128,91542,1,8,0:0:0:0:
248,128,91747,2,2,L|336:128,1,80
328,128,92226,1,8,0:0:0:0:
328,128,92500,2,2,L|328:216,1,80
328,208,93048,1,8,0:0:0:0:
328,208,93254,6,2,L|248:208,1,80
248,208,93802,2,4,L|248:256,1,40
112,96,94514,6,2,L|184:96,1,66.6666666666667
178,96,94987,1,8,0:0:0:0:
178,96,95190,1,0,0:0:0:0:
178,96,95460,1,8,0:0:0:0:
178,96,95663,1,0,0:0:0:0:
288,136,96271,6,0,L|288:184,1,40
288,176,96677,1,8,0:0:0:0:
288,176,96879,1,0,0:0:0:0:
288,176,97082,1,8,0:0:0:0:
288,176,97285,1,0,0:0:0:0:
248,256,97529,1,8,0:0:0:0:
168,112,97825,5,0,0:0:0:0:
168,112,97960,1,8,0:0:0:0:
328,120,98254,1,0,0:0:0:0:
328,120,98366,1,0,0:0:0:0:
168,112,98771,1,0,0:0:0:0:
184,264,99041,5,0,0:0:0:0:
328,272,99244,1,8,0:0:0:0:
328,272,99418,1,0,0:0:0:0:
184,264,99650,1,8,0:0:0:0:
256,192,99852,1,4,0:0:0:0:
296,184,100035,5,0,0:0:0:0:
296,184,100103,1,0,0:0:0:0:
296,184,100172,1,0,0:0:0:0:
296,184,100240,1,0,0:0:0:0:
296,184,100309,1,0,0:0:0:0:
296,184,100377,1,0,0:0:0:0:
296,184,100446,1,0,0:0:0:0:
256,192,114650,5,8,0:0:0:0:
256,192,114898,1,0,0:0:0:0:
256,192,114966,2,2,L|320:192,1,60.0000022888185
316,192,115240,1,0,0:0:0:0:
312,192,115309,2,0,P|308:240|300:248,1,60.0000022888185
316,192,115651,2,2,L|320:64,1,120.000004577637
316,192,116473,6,0,P|256:200|224:144,1,120.000004577637
272,112,117295,5,8,0:0:0:0:
272,112,117500,2,2,L|144:112,1,120.000004577637
128,96,118048,2,2,P|80:128|80:96,1,120.000004577637
120,144,118596,1,8,0:0:0:0:
128,96,118733,2,2,L|128:240,1,140.000005340576
160,184,119829,6,0,P|240:184|352:96,1,220.000008392334
336,96,120994,6,0,L|280:96,1,50.0000019073487
286,96,121473,1,8,0:0:0:0:
286,96,121678,2,0,L|288:120,1,20.0000007629395
287,115,122021,2,0,L|288:144,1,20.0000007629395
280,168,122226,2,0,L|280:192,3,20.0000007629395
280,188,122706,5,8,0:0:0:0:
280,188,122774,2,2,P|176:192|128:160,1,160.000006103516
152,144,123459,2,2,L|200:88,1,60.0000022888185
208,72,123939,5,8,0:0:0:0:
128,64,124076,1,0,0:0:0:0:
152,144,124213,1,8,0:0:0:0:
152,144,124418,2,2,L|264:144,1,110.000004196167
262,144,124966,1,0,0:0:0:0:
288,160,125240,1,0,0:0:0:0:
296,200,125583,5,0,0:0:0:0:
296,128,125651,1,0,0:0:0:0:
328,160,125857,5,8,0:0:0:0:
328,160,125994,2,2,L|368:160,2,40.000001525879
328,160,126473,1,0,0:0:0:0:
328,160,126610,1,0,0:0:0:0:
192,80,127021,5,2,0:0:0:0:
312,80,127158,1,2,0:0:0:0:
256,80,127295,2,2,L|256:152,1,66.6666666666667
256,146,127569,2,0,L|256:256,1,80.0000030517579
256,146,127911,1,0,0:0:0:0:
128,56,128528,5,8,0:0:0:0:
216,64,128665,1,0,0:0:0:0:
176,136,128802,1,0,0:0:0:0:
176,136,128939,2,2,L|224:136,3,40
256,146,129350,2,2,B|328:184|360:160|376:160,1,120.000004577637
400,152,129692,2,2,L|328:80,1,80.0000030517579
328,80,130035,2,2,L|272:80,1,40.000001525879
328,80,130240,1,8,0:0:0:0:
336,80,130446,2,2,L|384:80,1,40
381,80,130788,2,8,L|384:104,1,13.3333333333333
381,80,130925,2,0,L|376:56,1,13.3333333333333
176,72,131610,6,0,L|176:152,1,80
176,152,132158,1,8,0:0:0:0:
224,160,132363,1,0,0:0:0:0:
360,176,132500,5,0,0:0:0:0:
248,272,132637,1,0,0:0:0:0:
248,272,132843,1,0,0:0:0:0:
248,272,133048,1,8,0:0:0:0:
248,272,133117,2,0,L|184:272,1,53.3333333333333
194,272,133322,2,2,L|200:104,1,160.000006103516
176,160,133939,5,0,0:0:0:0:
176,160,134144,1,8,0:0:0:0:
176,160,134418,1,0,0:0:0:0:
320,160,134487,2,2,L|240:160,1,80
208,160,134761,2,2,L|328:160,1,120.000004577637
264,72,135583,5,0,0:0:0:0:
264,72,135788,1,8,0:0:0:0:
264,72,135994,1,0,0:0:0:0:
264,72,136131,2,0,L|200:72,1,40.000001525879,2|0,0:0|0:0,0:0:0:0:
264,72,136336,2,2,L|168:72,1,80.0000030517579
264,72,137089,2,2,L|256:136,1,53.3333333333333
257,124,137363,1,0,0:0:0:0:
288,128,137637,1,0,0:0:0:0:
264,160,137774,1,0,0:0:0:0:
360,144,137843,6,2,L|360:104,1,40
408,104,138117,2,2,L|408:152,1,40
464,96,138391,2,2,L|464:152,1,53.3333333333333
464,149,138870,2,0,L|464:176,1,26.6666666666667
264,96,139487,5,2,0:0:0:0:
160,160,139692,1,2,0:0:0:0:
368,168,139829,1,2,0:0:0:0:
264,96,140035,1,2,0:0:0:0:
368,168,140240,1,2,0:0:0:0:
256,192,140377,1,0,0:0:0:0:
256,192,140446,1,4,0:0:0:0:
256,272,140994,5,0,0:0:0:0:
256,272,141062,1,0,0:0:0:0:
256,272,141131,1,0,0:0:0:0:
256,272,141268,1,0,0:0:0:0:
256,272,141336,1,0,0:0:0:0:
256,272,141405,1,0,0:0:0:0:
280,128,142158,5,8,0:0:0:0:
280,128,142295,2,2,L|136:128,1,133.333333333333
146,128,142843,1,0,0:0:0:0:
146,128,142911,1,0,0:0:0:0:
146,128,142980,1,0,0:0:0:0:
146,128,143185,2,2,L|152:216,1,80
176,224,143596,5,0,0:0:0:0:
208,216,143733,1,0,0:0:0:0:
240,224,143802,2,2,L|320:224,1,80
320,224,144281,1,0,0:0:0:0:
416,192,144487,5,8,0:0:0:0:
416,192,144555,2,0,L|368:192,3,40
376,192,145240,2,2,L|376:232,1,40
376,232,145514,6,0,L|376:288,1,53.3333333333333
376,285,145857,1,0,0:0:0:0:
264,280,146062,1,2,0:0:0:0:
264,280,146131,2,2,L|264:200,1,80
264,200,146610,1,0,0:0:0:0:
264,200,146678,1,0,0:0:0:0:
248,120,147021,5,2,0:0:0:0:
328,120,147158,1,0,0:0:0:0:
288,120,147363,2,2,L|288:176,2,53.3333333333333
288,120,147980,1,0,0:0:0:0:
288,120,148048,2,8,L|288:104,5,13.3333333333333
288,120,148528,6,0,L|224:208,1,106.666666666667
224,208,148870,1,8,0:0:0:0:
224,208,148939,6,2,L|304:208,1,80
304,208,149418,1,0,0:0:0:0:
352,208,149624,1,2,0:0:0:0:
392,208,149761,1,8,0:0:0:0:
440,208,149966,1,2,0:0:0:0:
440,208,150172,2,0,L|440:264,1,53.3333333333333
440,208,150514,2,0,L|440:144,1,53.3333333333333
440,154,150857,1,8,0:0:0:0:
328,112,151131,5,0,0:0:0:0:
328,112,151268,1,8,0:0:0:0:
328,112,151473,2,2,L|272:112,1,53.3333333333333
208,120,152089,5,0,0:0:0:0:
208,120,152295,2,2,L|208:184,1,53.3333333333333
208,173,152637,2,0,L|256:176,1,40
247,175,152911,1,0,0:0:0:0:
208,272,153117,5,8,0:0:0:0:
328,280,153322,1,8,0:0:0:0:
384,176,153459,1,8,0:0:0:0:
152,80,153665,1,8,0:0:0:0:
272,32,153870,1,8,0:0:0:0:
152,80,154007,1,0,0:0:0:0:
264,136,154281,5,2,0:0:0:0:
264,136,154350,1,2,0:0:0:0:
264,136,154418,1,2,0:0:0:0:
264,136,154487,1,2,0:0:0:0:
264,136,154555,1,0,0:0:0:0:
264,136,154624,1,4,0:0:0:0:
176,224,155172,5,8,0:0:0:0:
216,200,155446,1,0,0:0:0:0:
216,200,155651,2,2,L|280:200,1,53.3333333333333
269,200,155994,1,0,0:0:0:0:
288,232,156268,1,2,0:0:0:0:
304,200,156542,1,8,0:0:0:0:
376,120,156747,5,8,0:0:0:0:
344,104,156884,1,0,0:0:0:0:
384,80,157089,1,0,0:0:0:0:
256,104,157158,1,2,0:0:0:0:
256,104,157295,2,2,L|176:104,1,80
176,104,157774,5,8,0:0:0:0:
176,104,158048,2,2,L|176:176,1,66.6666666666667
192,208,158391,1,0,0:0:0:0:
232,184,158528,1,0,0:0:0:0:
232,184,158665,6,2,L|312:184,1,80
312,184,159213,2,0,L|312:120,2,53.3333333333333
312,184,159966,1,2,0:0:0:0:
312,184,160240,1,2,0:0:0:0:
224,208,160377,5,8,0:0:0:0:
224,208,160446,2,0,L|224:160,1,40
224,168,160720,1,0,0:0:0:0:
224,168,160788,2,2,L|152:168,2,66.6666666666667
224,168,161268,2,0,L|312:168,2,80
280,96,161952,6,2,L|280:160,1,53.3333333333333
280,149,162363,1,8,0:0:0:0:
280,149,162569,2,2,L|352:152,1,66.6666666666667
346,151,162980,2,0,L|408:152,1,53.3333333333333
399,151,163322,2,2,L|400:192,1,40
400,264,163802,6,2,L|296:264,1,93.3333333333333
306,264,164350,1,8,0:0:0:0:
306,264,164487,2,2,L|304:136,1,120
304,144,165172,1,8,0:0:0:0:
232,120,165377,5,8,0:0:0:0:
160,192,165651,1,2,0:0:0:0:
184,208,165788,1,2,0:0:0:0:
296,216,165857,1,0,0:0:0:0:
408,168,166062,5,8,0:0:0:0:
408,168,166199,1,0,0:0:0:0:
408,248,166336,1,8,0:0:0:0:
408,248,166473,1,0,0:0:0:0:
408,88,166610,1,10,0:0:0:0:
408,88,166747,1,0,0:0:0:0:
408,88,166815,1,2,0:0:0:0:
328,168,167021,1,8,0:0:0:0:
328,168,167158,1,4,0:0:0:0:
280,168,167363,5,0,0:0:0:0:
280,168,167500,1,0,0:0:0:0:
280,168,167569,1,0,0:0:0:0:
280,168,167637,1,0,0:0:0:0:
280,168,167706,1,0,0:0:0:0:
280,168,167774,1,0,0:0:0:0:
280,168,167843,1,0,0:0:0:0:
280,168,167911,1,0,0:0:0:0:
280,168,167980,1,4,0:0:0:0:
288,176,181952,5,8,0:0:0:0:
288,176,182089,1,2,0:0:0:0:
216,192,182226,1,8,0:0:0:0:
216,192,182295,1,0,0:0:0:0:
264,264,182432,1,2,0:0:0:0:
264,264,182500,1,0,0:0:0:0:
256,216,182569,5,8,0:0:0:0:
256,216,182637,1,2,0:0:0:0:
312,216,182774,1,8,0:0:0:0:
312,216,182843,1,0,0:0:0:0:
360,224,182980,1,2,0:0:0:0:
440,224,183185,1,8,0:0:0:0:
344,72,183391,1,8,0:0:0:0:
88,176,183733,5,8,0:0:0:0:
88,176,183870,1,2,0:0:0:0:
88,176,183939,2,2,L|136:176,1,40
128,176,184213,2,2,L|128:144,1,26.6666666666667
128,149,184418,2,2,L|160:152,1,26.6666666666667
128,149,184624,2,2,L|128:104,1,40
128,109,184966,2,0,L|200:112,1,66.6666666666667
194,111,185240,1,0,0:0:0:0:
194,111,185309,1,0,0:0:0:0:
194,111,185377,1,0,0:0:0:0:
248,192,185720,5,2,0:0:0:0:
248,192,185788,1,2,0:0:0:0:
248,192,185857,1,2,0:0:0:0:
248,192,185994,1,2,0:0:0:0:
304,200,186199,1,0,0:0:0:0:
280,176,186336,1,8,0:0:0:0:
280,176,186542,1,0,0:0:0:0:
128,88,186747,5,0,0:0:0:0:
128,88,186815,1,0,0:0:0:0:
128,88,186884,1,2,0:0:0:0:
160,88,186952,1,0,0:0:0:0:
160,88,187021,1,2,0:0:0:0:
240,88,187226,5,8,0:0:0:0:
312,88,187363,1,2,0:0:0:0:
376,88,187569,1,0,0:0:0:0:
376,88,187706,1,2,0:0:0:0:
376,88,187911,1,8,0:0:0:0:
376,88,188254,1,0,0:0:0:0:
376,88,188459,1,0,0:0:0:0:
288,160,189007,5,8,0:0:0:0:
288,160,189076,1,0,0:0:0:0:
184,168,189281,1,0,0:0:0:0:
184,168,189350,1,2,0:0:0:0:
240,248,189555,1,8,0:0:0:0:
240,248,189624,1,2,0:0:0:0:
240,200,189761,5,0,0:0:0:0:
240,136,189966,1,8,0:0:0:0:
240,136,190103,1,0,0:0:0:0:
240,72,190309,1,0,0:0:0:0:
312,72,190514,1,8,0:0:0:0:
312,72,190651,1,0,0:0:0:0:
312,72,190788,1,8,0:0:0:0:
400,72,190994,5,2,0:0:0:0:
400,160,191131,1,0,0:0:0:0:
400,264,191268,1,2,0:0:0:0:
400,216,191473,1,8,0:0:0:0:
400,216,191542,1,0,0:0:0:0:
320,192,191678,2,0,L|232:192,1,80
240,192,192089,5,8,0:0:0:0:
240,192,192158,6,2,L|240:112,1,80
240,112,192500,1,0,0:0:0:0:
240,112,192569,2,0,L|320:112,1,80.0000030517579
320,112,192980,1,0,0:0:0:0:
320,112,193048,1,0,0:0:0:0:
320,112,193185,2,2,L|320:192,1,80.0000030517579
320,192,193596,1,2,0:0:0:0:
320,192,193733,1,8,0:0:0:0:
272,192,194007,5,0,0:0:0:0:
256,192,194076,1,2,0:0:0:0:
224,192,194144,1,0,0:0:0:0:
192,192,194213,1,2,0:0:0:0:
160,176,194281,1,2,0:0:0:0:
136,160,194350,1,2,0:0:0:0:
112,144,194418,5,2,0:0:0:0:
112,144,194487,1,8,0:0:0:0:
112,144,194555,1,2,0:0:0:0:
112,144,194624,1,2,0:0:0:0:
112,144,194692,1,2,0:0:0:0:
112,144,194761,1,6,0:0:0:0:
112,144,194829,1,4,0:0:0:0:
256,192,194898,12,0,196884,0:0:0:0:
256,192,196952,5,2,0:0:0:0:
256,72,197158,1,4,0:0:0:0:
248,192,204487,5,8,0:0:0:0:
248,192,204761,1,2,0:0:0:0:
248,192,204966,2,2,L|304:192,1,50.0000019073487
320,176,205309,1,0,0:0:0:0:
320,176,205446,1,0,0:0:0:0:
296,152,205514,1,0,0:0:0:0:
288,120,205583,1,0,0:0:0:0:
296,152,205720,1,0,0:0:0:0:
288,120,205925,1,2,0:0:0:0:
136,112,206268,5,2,0:0:0:0:
136,168,206405,1,0,0:0:0:0:
136,168,206473,1,0,0:0:0:0:
136,216,206678,1,8,0:0:0:0:
136,216,206884,2,2,L|192:216,1,50.0000019073487
186,216,207158,1,0,0:0:0:0:
186,216,207226,1,0,0:0:0:0:
186,216,207432,1,2,0:0:0:0:
248,192,207911,5,8,0:0:0:0:
248,192,208185,1,2,0:0:0:0:
248,192,208391,1,0,0:0:0:0:
352,192,208528,2,2,L|240:192,1,106.666666666667
144,192,208939,1,8,0:0:0:0:
256,24,209213,5,8,0:0:0:0:
256,88,209418,1,2,0:0:0:0:
256,152,209624,1,2,0:0:0:0:
256,224,209829,1,0,0:0:0:0:
256,288,209966,1,4,0:0:0:0:
248,128,211268,5,0,0:0:0:0:
248,128,211336,2,0,L|360:128,1,100.000003814697
348,128,211610,2,0,L|240:128,1,100.000003814697
248,128,211884,2,0,L|248:248,1,120.000004577637
248,248,212226,1,0,0:0:0:0:
248,248,212363,1,0,0:0:0:0:
352,40,212569,6,0,P|400:96|400:192,1,160.000006103516
404,179,212911,1,0,0:0:0:0:
232,256,213048,1,0,0:0:0:0:
232,256,213117,6,0,L|128:256,1,100.000003814697
128,160,213391,1,0,0:0:0:0:
128,272,213596,1,0,0:0:0:0:
128,160,213802,1,0,0:0:0:0:
128,48,214007,1,0,0:0:0:0:
128,48,214144,2,0,L|256:48,1,120.000004577637
248,48,214555,5,0,0:0:0:0:
288,104,214624,1,0,0:0:0:0:
224,104,214761,1,0,0:0:0:0:
248,48,214898,1,0,0:0:0:0:
256,152,215103,6,0,L|256:208,2,40.000001525879
256,160,215377,2,0,L|256:192,1,20.0000007629395
256,160,215583,2,0,L|256:312,1,120.000004577637
320,160,216199,2,0,L|320:64,2,80.0000030517579
320,160,216747,1,0,0:0:0:0:
320,160,216815,2,0,L|320:296,1,120.000004577637
320,280,217158,1,0,0:0:0:0:
360,280,217226,5,0,0:0:0:0:
360,280,217295,1,0,0:0:0:0:
360,280,217363,1,0,0:0:0:0:
360,280,217432,1,0,0:0:0:0:
360,280,217500,1,0,0:0:0:0:
192,176,217843,5,0,0:0:0:0:
192,176,218048,1,0,0:0:0:0:
192,176,218185,2,0,L|192:104,1,60.0000022888185
192,116,218528,1,0,0:0:0:0:
192,116,218733,2,0,L|192:192,1,60.0000022888185
192,176,218939,2,0,L|304:232,1,120.000004577637
299,229,219281,2,0,L|304:128,1,80.0000030517579
304,152,219487,5,0,0:0:0:0:
368,136,219692,1,0,0:0:0:0:
424,128,219898,1,0,0:0:0:0:
424,128,219966,2,0,P|368:136|360:144,1,60.0000022888185
368,136,220240,2,0,L|336:144,1,20.0000007629395
312,136,220377,2,0,L|272:144,1,40.000001525879
272,143,220583,1,0,0:0:0:0:
136,152,221062,5,0,0:0:0:0:
176,152,221199,1,0,0:0:0:0:
152,112,221405,1,0,0:0:0:0:
152,112,221542,2,0,L|152:216,1,100.000003814697
152,212,222021,1,0,0:0:0:0:
152,212,222226,5,0,0:0:0:0:
288,216,222295,1,0,0:0:0:0:
288,216,222432,1,0,0:0:0:0:
432,216,222500,1,0,0:0:0:0:
432,216,222637,1,0,0:0:0:0:
208,288,222843,1,0,0:0:0:0:
208,288,222980,1,0,0:0:0:0:
352,288,223048,1,0,0:0:0:0:
352,288,223185,5,0,0:0:0:0:
352,288,223254,1,0,0:0:0:0:
352,288,223322,1,0,0:0:0:0:
352,288,223391,1,0,0:0:0:0:
352,288,223459,1,0,0:0:0:0:
352,288,223528,1,0,0:0:0:0:
352,288,223596,1,0,0:0:0:0:
352,288,223665,1,0,0:0:0:0:
144,112,224418,5,0,0:0:0:0:
200,112,224624,1,0,0:0:0:0:
168,144,224829,2,0,L|256:168,1,80.0000030517579
280,240,225103,5,0,0:0:0:0:
312,208,225309,1,0,0:0:0:0:
272,208,225514,1,0,0:0:0:0:
272,208,225651,1,0,0:0:0:0:
272,208,225720,1,0,0:0:0:0:
200,224,226062,6,0,L|128:224,1,60.0000022888185
140,224,226405,1,0,0:0:0:0:
140,224,226473,2,0,L|144:152,2,60.0000022888185
140,224,226952,2,0,L|144:280,1,40.000001525879
142,263,227089,2,0,L|248:264,1,80.0000030517579
320,128,227637,5,0,0:0:0:0:
376,136,227843,1,0,0:0:0:0:
336,168,228048,1,0,0:0:0:0:
336,168,228117,2,0,L|368:80,1,80.0000030517579
363,92,228459,2,0,L|352:128,1,20.0000007629395
363,92,228733,1,0,0:0:0:0:
363,92,228870,1,0,0:0:0:0:
168,168,229281,5,0,0:0:0:0:
200,168,229350,2,0,L|200:224,1,40.000001525879
200,208,229555,2,0,L|168:208,2,20.0000007629395
200,208,229692,2,0,L|200:264,2,40.000001525879
180,208,229829,2,0,P|184:136|208:136,1,100.000003814697
248,128,230240,6,0,L|288:128,3,40.000001525879
80,144,230925,5,0,0:0:0:0:
80,144,231062,2,0,L|80:224,1,80.0000030517579
80,224,231542,2,0,L|144:224,1,60.0000022888185
192,224,231884,1,0,0:0:0:0:
248,224,232089,1,0,0:0:0:0:
360,160,232569,5,0,0:0:0:0:
360,224,232774,1,0,0:0:0:0:
360,224,232911,2,0,L|248:224,1,100.000003814697
248,224,233391,1,0,0:0:0:0:
192,224,233528,1,0,0:0:0:0:
136,224,233733,1,0,0:0:0:0:
160,120,234281,5,0,0:0:0:0:
184,88,234487,2,0,L|232:160,1,80.0000030517579
228,154,234829,1,0,0:0:0:0:
312,160,235103,1,0,0:0:0:0:
392,160,235309,5,0,0:0:0:0:
392,232,235514,1,0,0:0:0:0:
392,96,235720,1,0,0:0:0:0:
384,312,235925,1,0,0:0:0:0:
384,272,236062,1,0,0:0:0:0:
384,272,236199,1,0,0:0:0:0:
328,264,236405,5,0,0:0:0:0:
328,264,236473,1,0,0:0:0:0:
328,264,236542,1,0,0:0:0:0:
328,264,236610,1,0,0:0:0:0:
328,264,236678,1,0,0:0:0:0:
328,264,236747,1,0,0:0:0:0:
328,264,236815,1,0,0:0:0:0:
176,144,237569,5,0,0:0:0:0:
176,224,237706,1,0,0:0:0:0:
176,64,237911,1,0,0:0:0:0:
176,304,238117,1,0,0:0:0:0:
176,304,238254,1,0,0:0:0:0:
336,64,238459,5,0,0:0:0:0:
336,224,238665,1,0,0:0:0:0:
336,144,238870,1,0,0:0:0:0:
336,304,239076,1,0,0:0:0:0:
104,64,239281,1,0,0:0:0:0:
104,144,239487,1,0,0:0:0:0:
56,88,239692,5,0,0:0:0:0:
80,104,239761,1,0,0:0:0:0:
104,128,239829,1,0,0:0:0:0:
128,144,239898,1,0,0:0:0:0:
152,168,239966,1,0,0:0:0:0:
176,192,240035,1,0,0:0:0:0:
192,216,240103,1,0,0:0:0:0:
208,248,240172,1,0,0:0:0:0:
224,272,240240,1,0,0:0:0:0:
240,304,240309,1,0,0:0:0:0:
272,280,240377,5,0,0:0:0:0:
296,256,240446,1,0,0:0:0:0:
232,224,240583,1,0,0:0:0:0:
256,248,240651,1,0,0:0:0:0:
288,224,240720,1,0,0:0:0:0:
304,192,240788,1,0,0:0:0:0:
344,184,240857,1,0,0:0:0:0:
312,152,240925,1,0,0:0:0:0:
256,192,240994,1,0,0:0:0:0:
272,160,241062,1,0,0:0:0:0:
256,192,241131,12,0,242774,0:0:0:0:
256,192,242843,5,0,0:0:0:0:
