osu file format v12

[General]
AudioFilename: ed-unfinshed.mp3
AudioLeadIn: 0
PreviewTime: -1
Countdown: 1
SampleSet: Soft
StackLeniency: 0.7
Mode: 0
LetterboxInBreaks: 1

[Editor]
DistanceSpacing: 1
BeatDivisor: 4
GridSize: 8

[Metadata]
Title:Unfinished
TitleUnicode:Unfinished
Artist:Accel World
ArtistUnicode:Accel World
Creator:Ikarous
Version:Insane
Source:
Tags:
BeatmapID:269849
BeatmapSetID:101707

[Difficulty]
HPDrainRate:7
CircleSize:4
OverallDifficulty:7
ApproachRate:8
SliderMultiplier:1.2
SliderTickRate:1

[Events]
//Background and Video events
0,0,"320993_321905067909488_389510785_n.jpg",0,0
//Break Periods
2,33658,39627
2,100063,113908
2,167358,181202
2,197049,203908
//Storyboard Layer 0 (Background)
//Storyboard Layer 1 (Fail)
//Storyboard Layer 2 (Pass)
//Storyboard Layer 3 (Foreground)
//Storyboard Sound Samples
//Background Colour Transformations
3,100,163,162,255

[TimingPoints]
1542,410.958904109589,4,2,1,70,1,0
3929,-100,4,2,1,50,0,1
33778,-100,4,2,1,70,0,0
39782,-133.333333333333,4,2,1,70,0,0
46952,-66.6666666666667,4,2,1,70,0,0
74501,-100,4,2,1,70,0,1
87946,-100,4,2,1,70,0,1
100031,-100,4,2,1,70,0,0
114650,-133.333333333333,4,2,1,70,0,0
126756,-66.6666666666667,4,2,1,70,0,0
142192,-100,4,2,1,70,0,1
155446,-100,4,2,1,70,0,1
181952,-133.333333333333,4,2,1,70,0,0
204350,-100,4,2,1,70,0,0
211058,-66.6666666666667,4,3,1,70,0,1
224007,-50,4,3,1,70,0,1

[Colours]
Combo1 : 192,192,192
Combo2 : 0,0,0
Combo3 : 0,0,255
Combo4 : 0,255,128

[HitObjects]
256,192,1542,12,0,3596,0:0:0:0:
88,88,4007,5,0,0:0:0:0:
168,88,4281,1,0,0:0:0:0:
128,144,4555,2,0,P|120:208|192:248,1,133.333333333333
224,248,5240,1,0,0:0:0:0:
216,192,5514,2,0,P|152:208|136:136,1,133.333333333333
144,152,6336,6,0,L|144:72,1,80
192,80,6884,2,0,L|248:80,1,40
304,80,7432,1,0,0:0:0:0:
384,80,7569,2,0,P|432:120|400:160,1,120
328,152,8254,1,0,0:0:0:0:
384,152,8391,6,0,P|400:192|376:272,1,120
344,232,8939,1,0,0:0:0:0:
336,248,9076,2,0,P|280:248|192:216,1,120
216,200,9624,5,0,0:0:0:0:
240,184,9898,1,0,0:0:0:0:
272,160,10035,2,0,P|304:184|448:176,1,160
424,136,10720,1,0,0:0:0:0:
424,96,10857,2,0,L|304:96,1,120
304,48,11405,5,0,0:0:0:0:
224,48,11542,2,0,L|224:168,1,120
256,168,12089,2,0,L|296:168,1,40
272,112,12363,6,0,L|360:112,1,80
384,112,12774,1,0,0:0:0:0:
384,176,13048,1,0,0:0:0:0:
384,240,13322,2,0,P|288:240|240:216,1,120
272,264,13870,1,0,0:0:0:0:
240,272,14007,2,0,P|176:272|128:248,1,80
168,232,14418,5,0,0:0:0:0:
200,192,14692,1,0,0:0:0:0:
160,200,14829,2,0,L|96:144,1,80
120,120,15240,6,0,L|168:56,1,80
192,72,15651,6,0,L|256:128,1,80
224,152,16062,6,0,L|208:192,1,40
256,192,16473,12,0,20172,0:0:0:0:
80,88,20857,5,0,0:0:0:0:
96,128,20994,2,0,L|160:104,1,40
112,160,21131,2,0,P|184:176|232:144,1,120
240,136,21815,1,0,0:0:0:0:
304,72,22089,1,0,0:0:0:0:
376,64,22363,6,0,P|376:136|320:176,1,120
328,136,22911,1,0,0:0:0:0:
304,112,23048,1,0,0:0:0:0:
280,88,23185,1,0,0:0:0:0:
88,112,23596,5,0,0:0:0:0:
168,112,23870,1,0,0:0:0:0:
128,144,24144,2,0,P|128:232|176:272,1,120
160,216,24692,1,0,0:0:0:0:
184,248,24829,2,0,P|240:256|296:200,1,120
288,192,25377,1,0,0:0:0:0:
312,216,25514,6,0,P|368:240|416:224,1,80
384,208,25925,2,0,L|384:152,1,40
344,168,26336,1,0,0:0:0:0:
320,128,26610,2,0,L|224:128,2,80
96,104,27706,6,0,L|144:104,1,40
176,104,27980,2,0,L|176:184,1,80
208,184,28391,2,0,L|248:184,1,40
208,248,28802,1,0,0:0:0:0:
400,224,29213,5,0,0:0:0:0:
400,224,29350,2,0,L|344:224,1,40
360,184,29624,2,0,L|360:104,1,80
320,104,30035,2,0,L|272:104,1,40
256,160,30309,6,0,L|256:288,1,120
128,168,31131,6,0,L|184:232,1,80
200,248,31542,1,0,0:0:0:0:
240,224,31815,2,0,L|304:160,1,80
232,160,32363,2,0,L|232:80,1,80
264,64,32911,2,0,L|312:64,1,40
376,104,33185,6,0,L|376:144,2,40
272,152,40377,5,0,0:0:0:0:
304,152,40480,2,0,P|384:152|456:104,1,157.500006008148
456,80,41302,1,0,0:0:0:0:
432,48,41610,2,0,P|320:32|248:72,1,180.000006866455
272,88,42637,2,0,L|272:152,1,45.0000017166138
192,160,43357,5,0,0:0:0:0:
232,160,43459,2,0,L|232:72,1,67.5000025749207
192,88,43870,1,0,0:0:0:0:
152,88,43973,2,0,P|88:152|112:232,1,180.000006866455
136,224,44898,2,0,L|232:224,1,90.0000034332277
272,224,45411,5,0,0:0:0:0:
328,224,45720,2,0,L|392:224,2,45.0000017166138
296,184,46541,1,0,0:0:0:0:
320,312,46747,1,0,0:0:0:0:
88,96,47261,5,0,0:0:0:0:
240,80,47466,1,0,0:0:0:0:
176,184,47672,1,0,0:0:0:0:
176,184,47774,2,0,P|256:184|352:272,1,180.000006866455
376,240,48288,1,0,0:0:0:0:
288,320,48391,2,0,P|200:296|152:192,1,180.000006866455
88,192,49213,5,0,0:0:0:0:
160,144,49315,1,0,0:0:0:0:
176,224,49418,1,0,0:0:0:0:
208,176,49624,1,0,0:0:0:0:
248,216,49726,1,0,0:0:0:0:
240,136,49829,1,0,0:0:0:0:
272,176,50035,6,0,P|368:176|416:112,1,180.000006866455
392,88,50548,2,0,L|328:88,1,45.0000017166138
80,216,50857,6,0,P|80:144|168:64,1,180.000006866455
192,96,51370,1,0,0:0:0:0:
176,120,51473,1,0,0:0:0:0:
152,184,51781,2,0,P|240:240|336:200,1,180.000006866455
328,192,52295,1,0,0:0:0:0:
128,104,52500,2,0,P|264:72|288:16,1,180.000006866455
320,40,53014,5,0,0:0:0:0:
288,104,53117,2,0,P|240:184|264:296,1,180.000006866455
320,264,53733,5,0,0:0:0:0:
408,224,53836,1,0,0:0:0:0:
184,208,54041,1,0,0:0:0:0:
248,176,54247,2,0,P|256:256|344:320,1,180.000006866455
360,320,54761,1,0,0:0:0:0:
400,320,54966,5,0,0:0:0:0:
376,264,55172,2,0,P|376:160|312:112,1,180.000006866455
344,64,55788,2,0,P|240:64|136:104,1,180.000006866455
160,120,56302,5,0,0:0:0:0:
96,184,56610,5,0,0:0:0:0:
240,144,56713,2,0,P|160:208|176:288,1,180.000006866455
208,280,57226,1,0,0:0:0:0:
256,248,57535,1,0,0:0:0:0:
296,216,57637,1,0,0:0:0:0:
336,184,57843,1,0,0:0:0:0:
368,152,57946,5,0,0:0:0:0:
392,120,58151,1,0,0:0:0:0:
272,48,58254,2,0,P|128:72|112:128,1,180.000006866455
112,112,58768,1,0,0:0:0:0:
144,120,58870,2,0,P|232:152|312:80,1,180.000006866455
368,56,59487,6,0,L|464:56,3,90.0000034332277
456,144,60309,2,0,L|456:200,1,45.0000017166138
456,224,60514,1,0,0:0:0:0:
376,168,60925,1,0,0:0:0:0:
304,128,61131,6,0,P|200:128|112:168,1,180.000006866455
136,184,61644,1,0,0:0:0:0:
176,168,61747,1,0,0:0:0:0:
128,264,61952,2,0,P|248:280|336:240,1,180.000006866455
416,128,62569,5,0,0:0:0:0:
320,136,62774,1,0,0:0:0:0:
408,224,62980,2,0,P|288:240|232:200,1,180.000006866455
264,160,63494,1,0,0:0:0:0:
176,176,63596,2,0,P|72:192|8:256,1,180.000006866455
80,264,64213,6,0,P|192:264|288:224,1,180.000006866455
216,184,64726,1,0,0:0:0:0:
280,192,64829,2,0,P|352:272|336:336,1,180.000006866455
304,328,65343,1,0,0:0:0:0:
304,328,65446,1,0,0:0:0:0:
256,288,65548,2,0,P|352:240|376:160,1,180.000006866455
408,160,66165,5,0,0:0:0:0:
400,112,66370,2,0,P|288:80|240:96,1,135.000005149841
240,104,66781,1,0,0:0:0:0:
176,160,66987,1,0,0:0:0:0:
320,184,67192,2,0,P|232:232|160:224,1,135.000005149841
192,288,67603,1,0,0:0:0:0:
264,288,67706,6,0,P|256:152|200:120,1,180.000006866455
240,104,68220,1,0,0:0:0:0:
336,96,68425,1,0,0:0:0:0:
416,112,68528,2,0,L|424:248,3,135.000005149841
408,264,69761,5,0,0:0:0:0:
312,264,69966,1,0,0:0:0:0:
344,200,70172,2,0,P|248:184|224:192,1,90.0000034332277
264,144,70583,1,0,0:0:0:0:
296,112,70685,2,0,P|392:104|448:144,1,135.000005149841
488,128,71096,2,0,P|488:200|464:200,2,90.0000034332277
488,64,71713,6,0,L|432:64,1,45.0000017166138
400,72,72021,1,0,0:0:0:0:
288,72,72226,1,0,0:0:0:0:
344,128,72432,1,0,0:0:0:0:
344,168,72535,2,0,L|344:304,1,135.000005149841
392,304,72946,1,0,0:0:0:0:
424,288,73048,1,0,0:0:0:0:
472,272,73254,2,0,P|448:184|408:176,1,135.000005149841
384,208,73665,1,0,0:0:0:0:
248,120,74692,6,0,P|128:144|104:176,1,150
112,192,75309,1,0,0:0:0:0:
144,224,75514,2,0,P|240:224|280:208,1,120
272,176,76131,1,0,0:0:0:0:
272,264,76336,1,0,0:0:0:0:
312,216,76439,6,0,P|400:216|408:248,2,120
352,256,77363,1,0,0:0:0:0:
296,288,77466,2,0,P|336:320|416:304,1,120
401,314,78083,1,0,0:0:0:0:
432,288,78185,2,0,P|432:192|408:176,1,120
384,184,78699,1,0,0:0:0:0:
376,152,78905,5,0,0:0:0:0:
352,120,79110,1,0,0:0:0:0:
320,120,79315,2,0,P|264:128|232:176,1,90
208,168,79726,1,0,0:0:0:0:
152,200,79829,2,0,P|120:136|160:88,1,120
176,96,80343,6,0,P|264:80|296:104,1,120
320,80,80857,1,0,0:0:0:0:
320,128,81062,1,0,0:0:0:0:
320,192,81165,1,0,0:0:0:0:
376,168,81370,6,0,L|376:280,2,90
432,168,82089,1,0,0:0:0:0:
496,168,82398,2,0,L|496:104,2,60
488,208,83014,6,0,P|408:256|360:240,1,150
416,192,83631,2,0,L|416:328,1,120
360,264,84144,2,0,L|496:264,1,120
480,320,84658,1,0,0:0:0:0:
424,320,84863,2,0,L|304:328,1,90
312,288,85377,6,0,P|216:256|208:240,1,120
280,232,85891,1,0,0:0:0:0:
344,216,85994,2,0,P|288:168|224:168,1,120
248,104,86610,1,0,0:0:0:0:
304,104,86918,2,0,L|344:104,1,30
334,104,87124,2,0,L|328:160,1,30
368,136,87432,2,0,L|424:136,1,30
352,232,87946,5,0,0:0:0:0:
312,168,88151,1,0,0:0:0:0:
288,216,88357,2,0,P|192:208|176:176,1,120
216,168,88870,1,0,0:0:0:0:
264,144,89076,2,0,P|376:128|392:144,1,120
368,184,89589,1,0,0:0:0:0:
368,240,89692,2,0,L|368:352,1,90
432,320,90206,5,0,0:0:0:0:
296,280,90411,2,0,L|408:280,1,90
432,272,90822,1,0,0:0:0:0:
72,88,91028,6,0,L|184:160,1,120
208,176,91644,1,0,0:0:0:0:
192,88,91747,2,0,L|80:168,1,120
48,176,92261,1,0,0:0:0:0:
48,216,92466,2,0,L|48:256,1,30
320,280,92877,5,0,0:0:0:0:
304,200,93083,1,0,0:0:0:0:
320,120,93185,1,0,0:0:0:0:
288,152,93391,1,0,0:0:0:0:
256,168,93494,2,0,P|192:200|160:184,1,90
176,144,93905,1,0,0:0:0:0:
208,120,94007,6,0,P|272:104|344:128,1,120
392,152,94726,1,0,0:0:0:0:
320,224,94829,1,0,0:0:0:0:
240,296,95035,1,0,0:0:0:0:
280,256,95137,2,0,L|216:184,1,90
288,168,95548,2,0,L|200:248,1,90
200,80,96165,5,0,0:0:0:0:
136,144,96268,1,0,0:0:0:0:
64,216,96473,1,0,0:0:0:0:
168,104,96576,2,0,L|232:176,1,90
192,192,96987,1,0,0:0:0:0:
144,192,97089,2,0,L|240:104,1,120
320,96,97809,5,0,0:0:0:0:
320,192,98014,1,0,0:0:0:0:
144,88,98117,2,0,L|208:176,2,90
112,112,98836,2,0,L|224:112,1,90
184,160,99247,2,0,L|184:56,1,90
240,128,99658,2,0,L|160:96,1,60
256,168,114658,5,0,0:0:0:0:
256,256,114863,1,0,0:0:0:0:
328,208,115069,2,0,P|384:184|400:152,1,90.0000034332277
344,144,115583,2,0,L|392:240,1,90.0000034332277
424,192,116096,1,0,0:0:0:0:
168,80,116405,5,0,0:0:0:0:
88,168,116507,1,0,0:0:0:0:
208,184,116713,2,0,L|280:232,2,67.5000025749207
256,128,117535,1,0,0:0:0:0:
168,232,117740,2,0,L|264:128,1,135.000005149841
312,160,118459,1,0,0:0:0:0:
416,192,118870,6,0,P|344:240|336:240,1,90.0000034332277
296,256,119384,2,0,P|216:248|208:232,1,90.0000034332277
248,200,119795,2,0,L|272:136,1,67.5000025749207
320,216,120206,2,0,L|296:296,1,67.5000025749207
384,264,121028,5,0,0:0:0:0:
424,216,121233,1,0,0:0:0:0:
456,280,121336,2,0,L|344:208,2,112.500004291535
480,368,122466,1,0,0:0:0:0:
416,336,122672,1,0,0:0:0:0:
448,264,123083,6,0,L|360:264,2,67.5000025749207
496,264,123699,2,0,L|496:168,2,90.0000034332277
432,264,124624,2,0,L|384:264,1,45.0000017166138
352,240,125137,1,0,0:0:0:0:
216,152,125343,1,0,0:0:0:0:
120,80,125651,1,0,0:0:0:0:
168,120,125857,6,0,L|208:64,2,67.5000025749207
352,120,126884,5,0,0:0:0:0:
352,248,127192,1,0,0:0:0:0:
256,192,127398,2,0,L|360:112,1,90.0000034332277
264,240,127911,2,0,L|392:288,1,135.000005149841
448,272,128322,1,0,0:0:0:0:
448,200,128528,1,0,0:0:0:0:
360,176,128631,6,0,P|248:168|200:120,1,180.000006866455
248,96,129144,1,0,0:0:0:0:
368,104,129350,2,0,P|272:120|208:168,1,180.000006866455
144,136,129863,2,0,L|48:136,1,90.0000034332277
160,256,130274,5,0,0:0:0:0:
264,256,130480,1,0,0:0:0:0:
376,256,130583,2,0,L|376:120,2,135.000005149841
312,256,131302,2,0,L|456:136,1,180.000006866455
392,96,131918,6,0,P|280:80|184:96,1,180.000006866455
200,128,132432,1,0,0:0:0:0:
192,184,132535,2,0,P|208:248|344:288,1,180.000006866455
392,288,133151,1,0,0:0:0:0:
392,176,133459,1,0,0:0:0:0:
304,144,133768,6,0,P|256:208|128:224,1,180.000006866455
112,248,134281,2,0,P|112:128|184:88,1,180.000006866455
184,136,134795,1,0,0:0:0:0:
208,200,135000,2,0,L|216:320,2,90.0000034332277
392,104,135617,5,0,0:0:0:0:
312,192,135720,1,0,0:0:0:0:
352,144,135925,2,0,L|472:232,2,135.000005149841
352,232,136644,2,0,L|352:56,1,135.000005149841
280,96,137158,2,0,L|432:184,1,135.000005149841
464,192,137569,5,0,0:0:0:0:
424,240,137774,1,0,0:0:0:0:
400,176,137877,2,0,P|272:192|272:48,1,270.000010299683
288,88,138596,2,0,L|400:88,1,90.0000034332277
328,168,139007,2,0,L|328:24,1,135.000005149841
256,32,139521,1,0,0:0:0:0:
256,112,139829,6,0,L|256:240,1,90.0000034332277
256,352,140343,2,0,L|256:264,1,45.0000017166138
256,240,140651,1,0,0:0:0:0:
328,240,140959,1,0,0:0:0:0:
176,240,141268,1,0,0:0:0:0:
296,176,141781,1,0,0:0:0:0:
464,144,142192,5,0,0:0:0:0:
464,232,142398,1,0,0:0:0:0:
464,72,142603,2,0,L|464:200,1,120
504,112,143117,2,0,L|400:112,1,90
416,176,143528,1,0,0:0:0:0:
464,144,143733,2,0,L|464:296,1,150
416,304,144350,6,0,B|288:296|296:296,1,120
328,232,144863,1,0,0:0:0:0:
240,208,145069,1,0,0:0:0:0:
264,288,145377,2,0,L|304:168,1,120
240,160,145891,1,0,0:0:0:0:
128,104,146199,5,0,0:0:0:0:
48,160,146302,2,0,L|48:264,2,90
120,160,147021,1,0,0:0:0:0:
192,160,147226,2,0,L|312:160,1,120
384,160,147740,1,0,0:0:0:0:
384,240,147946,6,0,L|288:144,1,120
256,200,148459,1,0,0:0:0:0:
304,240,148562,2,0,L|416:152,1,120
456,128,149076,1,0,0:0:0:0:
320,104,149384,5,0,0:0:0:0:
256,104,149589,2,0,L|152:104,1,90
96,104,150000,1,0,0:0:0:0:
144,48,150206,2,0,L|144:192,1,120
208,168,150720,1,0,0:0:0:0:
136,168,150925,2,0,L|232:40,1,150
272,72,151542,6,0,L|304:104,1,30
352,128,151850,1,0,0:0:0:0:
304,184,152055,1,0,0:0:0:0:
248,240,152261,1,0,0:0:0:0:
144,344,152466,1,0,0:0:0:0:
192,288,152569,2,0,L|96:200,1,120
192,192,153083,5,0,0:0:0:0:
352,192,153288,1,0,0:0:0:0:
272,192,153494,1,0,0:0:0:0:
496,192,153699,1,0,0:0:0:0:
424,192,153905,1,0,0:0:0:0:
384,144,154110,2,0,L|384:272,1,120
464,264,154624,2,0,L|352:216,1,120
320,160,155137,1,0,0:0:0:0:
240,216,155446,5,0,0:0:0:0:
176,168,155651,1,0,0:0:0:0:
112,112,155857,1,0,0:0:0:0:
168,112,155959,2,0,L|224:56,1,60
128,32,156268,2,0,L|200:104,1,90
272,136,156781,5,0,0:0:0:0:
352,136,156987,1,0,0:0:0:0:
432,136,157192,1,0,0:0:0:0:
312,72,157398,2,0,L|392:176,1,120
448,168,158014,1,0,0:0:0:0:
336,192,158425,5,0,0:0:0:0:
192,192,158631,1,0,0:0:0:0:
264,136,158836,2,0,L|264:64,1,60
336,120,159144,2,0,L|272:208,1,90
312,256,159555,2,0,L|224:176,1,90
208,144,159966,2,0,L|312:144,1,90
384,144,160480,5,0,0:0:0:0:
312,144,160685,1,0,0:0:0:0:
240,144,160891,1,0,0:0:0:0:
168,144,161096,1,0,0:0:0:0:
96,144,161302,1,0,0:0:0:0:
288,80,161815,6,0,L|288:192,1,90
352,176,162226,2,0,L|424:176,2,60
352,104,162740,1,0,0:0:0:0:
416,136,162946,2,0,L|312:176,1,90
320,112,163357,1,0,0:0:0:0:
384,112,163562,2,0,L|384:0,1,90
448,24,163973,1,0,0:0:0:0:
448,104,164178,5,0,0:0:0:0:
448,192,164384,1,0,0:0:0:0:
448,280,164589,1,0,0:0:0:0:
400,232,165000,2,0,L|272:240,2,120
400,176,166131,1,0,0:0:0:0:
368,96,166336,5,0,0:0:0:0:
304,160,166542,1,0,0:0:0:0:
240,224,166747,1,0,0:0:0:0:
176,288,166952,1,0,0:0:0:0:
112,352,167158,1,0,0:0:0:0:
256,192,181952,5,0,0:0:0:0:
336,192,182158,1,0,0:0:0:0:
416,192,182363,1,0,0:0:0:0:
376,256,182466,1,0,0:0:0:0:
376,136,182569,1,0,0:0:0:0:
216,80,182774,5,0,0:0:0:0:
144,80,182980,1,0,0:0:0:0:
176,144,183185,1,0,0:0:0:0:
240,144,183391,1,0,0:0:0:0:
192,248,183596,5,0,0:0:0:0:
256,248,183699,1,0,0:0:0:0:
224,200,183802,1,0,0:0:0:0:
224,296,184007,1,0,0:0:0:0:
288,296,184110,1,0,0:0:0:0:
352,296,184315,1,0,0:0:0:0:
408,296,184521,1,0,0:0:0:0:
384,360,184624,1,0,0:0:0:0:
384,240,184932,5,0,0:0:0:0:
384,184,185137,1,0,0:0:0:0:
424,144,185240,1,0,0:0:0:0:
384,144,185343,1,0,0:0:0:0:
320,168,185548,1,0,0:0:0:0:
312,240,185754,5,0,0:0:0:0:
256,240,185857,1,0,0:0:0:0:
280,184,185959,1,0,0:0:0:0:
280,120,186062,1,0,0:0:0:0:
280,64,186268,1,0,0:0:0:0:
216,96,186473,5,0,0:0:0:0:
216,216,186576,1,0,0:0:0:0:
168,152,186781,1,0,0:0:0:0:
216,328,187089,1,0,0:0:0:0:
168,272,187295,1,0,0:0:0:0:
104,208,187398,5,0,0:0:0:0:
184,208,187603,1,0,0:0:0:0:
248,208,187911,1,0,0:0:0:0:
296,208,188014,1,0,0:0:0:0:
296,256,188117,1,0,0:0:0:0:
296,160,188322,1,0,0:0:0:0:
352,160,188528,1,0,0:0:0:0:
352,224,188733,5,0,0:0:0:0:
416,224,188836,1,0,0:0:0:0:
480,224,189041,1,0,0:0:0:0:
448,160,189247,1,0,0:0:0:0:
384,160,189350,1,0,0:0:0:0:
416,112,189555,1,0,0:0:0:0:
416,64,189658,1,0,0:0:0:0:
472,88,189761,1,0,0:0:0:0:
368,88,189863,1,0,0:0:0:0:
416,16,190069,1,0,0:0:0:0:
280,80,190274,5,0,0:0:0:0:
280,168,190480,1,0,0:0:0:0:
320,216,190583,1,0,0:0:0:0:
280,344,190685,1,0,0:0:0:0:
280,256,190994,1,0,0:0:0:0:
312,296,191199,1,0,0:0:0:0:
392,264,191405,5,0,0:0:0:0:
392,192,191610,1,0,0:0:0:0:
392,120,191918,1,0,0:0:0:0:
344,192,192021,1,0,0:0:0:0:
432,192,192124,1,0,0:0:0:0:
456,256,192432,5,0,0:0:0:0:
328,256,192637,1,0,0:0:0:0:
288,208,192843,1,0,0:0:0:0:
488,208,193048,1,0,0:0:0:0:
392,288,193151,1,0,0:0:0:0:
392,360,193459,1,0,0:0:0:0:
464,360,193562,1,0,0:0:0:0:
208,80,193973,5,0,0:0:0:0:
256,136,194178,1,0,0:0:0:0:
176,144,194384,1,0,0:0:0:0:
224,208,194589,1,0,0:0:0:0:
152,216,194795,1,0,0:0:0:0:
200,280,195000,1,0,0:0:0:0:
128,280,195206,1,0,0:0:0:0:
96,224,195411,1,0,0:0:0:0:
104,160,195617,1,0,0:0:0:0:
136,104,195822,1,0,0:0:0:0:
264,128,195925,6,0,L|264:168,9,22.5000008583069
256,184,204658,5,0,0:0:0:0:
352,184,204761,1,0,0:0:0:0:
176,184,204966,2,0,L|304:184,1,120
296,256,205480,1,0,0:0:0:0:
296,112,205583,1,0,0:0:0:0:
368,112,205788,2,0,L|216:112,1,150
216,144,206405,5,0,0:0:0:0:
288,144,206507,2,0,L|288:248,1,90
360,232,206918,1,0,0:0:0:0:
432,232,207124,2,0,L|232:232,1,180
252,232,207843,1,0,0:0:0:0:
48,72,208048,5,0,0:0:0:0:
136,72,208254,1,0,0:0:0:0:
216,72,208459,1,0,0:0:0:0:
288,72,208562,1,0,0:0:0:0:
352,72,208768,1,0,0:0:0:0:
408,144,208870,2,0,L|408:288,1,120
336,264,209384,5,0,0:0:0:0:
264,264,209487,1,0,0:0:0:0:
120,264,209692,1,0,0:0:0:0:
192,264,209898,1,0,0:0:0:0:
168,104,211233,5,0,0:0:0:0:
288,104,211439,1,0,0:0:0:0:
128,184,211644,2,0,P|232:192|304:168,1,180.000006866455
302,168,212158,1,0,0:0:0:0:
302,168,212261,2,0,P|280:288|208:352,1,180.000006866455
243,329,212774,1,0,0:0:0:0:
243,329,212877,1,0,0:0:0:0:
243,329,212980,2,0,P|112:256|96:192,1,225.000008583069
96,192,213596,2,0,P|208:192|304:160,1,180.000006866455
240,96,214213,5,0,0:0:0:0:
272,96,214315,1,0,0:0:0:0:
240,96,214418,1,0,0:0:0:0:
256,176,214521,6,0,P|232:240|128:288,1,180.000006866455
136,288,215035,1,0,0:0:0:0:
192,288,215137,2,0,P|312:264|368:216,1,180.000006866455
355,230,215651,1,0,0:0:0:0:
355,230,215754,1,0,0:0:0:0:
328,208,215857,2,0,P|328:128|272:40,1,180.000006866455
277,44,216370,5,0,0:0:0:0:
277,44,216473,1,0,0:0:0:0:
277,44,216576,2,0,P|192:136|176:192,1,180.000006866455
176,186,217089,1,0,0:0:0:0:
176,186,217192,1,0,0:0:0:0:
176,186,217295,2,0,P|296:192|368:144,1,180.000006866455
346,164,217809,5,0,0:0:0:0:
346,164,217911,1,0,0:0:0:0:
344,224,218014,2,0,P|304:288|208:296,1,135.000005149841
250,305,218425,1,0,0:0:0:0:
250,305,218528,1,0,0:0:0:0:
250,305,218631,2,0,L|168:320,1,45.0000017166138
144,272,218836,5,0,0:0:0:0:
184,256,218939,1,0,0:0:0:0:
224,224,219041,2,0,P|160:160|160:48,1,180.000006866455
150,74,219555,1,0,0:0:0:0:
150,74,219658,2,0,P|280:72|336:120,1,180.000006866455
317,98,220172,1,0,0:0:0:0:
317,98,220274,1,0,0:0:0:0:
317,98,220377,6,0,P|344:232|408:256,1,180.000006866455
371,248,220891,1,0,0:0:0:0:
440,152,221096,2,0,P|304:184|232:160,1,180.000006866455
267,175,221610,2,0,P|160:152|128:112,1,135.000005149841
145,137,222021,2,0,L|120:208,3,45.0000017166138
176,80,222535,5,0,0:0:0:0:
144,128,222637,1,0,0:0:0:0:
144,192,222740,1,0,0:0:0:0:
192,168,222843,1,0,0:0:0:0:
208,112,222946,1,0,0:0:0:0:
240,152,223048,1,0,0:0:0:0:
192,168,223357,5,0,0:0:0:0:
192,168,223459,2,0,L|112:168,3,45.0000017166138
120,104,224178,5,0,0:0:0:0:
136,216,224384,2,0,L|208:320,2,120
136,216,224898,1,0,0:0:0:0:
136,216,225103,1,0,0:0:0:0:
184,200,225206,2,0,P|304:200|392:240,1,180
359,220,225617,1,0,0:0:0:0:
359,220,225720,1,0,0:0:0:0:
344,80,225925,6,0,P|216:88|112:136,1,240
115,133,226336,1,0,0:0:0:0:
115,133,226439,1,0,0:0:0:0:
115,133,226541,1,0,0:0:0:0:
144,176,226644,2,0,P|280:176|320:248,1,180
368,304,227055,2,0,P|216:296|192:240,1,180
210,288,227466,1,0,0:0:0:0:
210,288,227569,1,0,0:0:0:0:
248,216,227672,6,0,P|392:192|440:168,1,180
256,144,228185,2,0,P|336:144|400:112,1,120
272,80,228288,1,0,0:0:0:0:
272,80,228596,2,0,P|304:88|360:48,1,60
329,81,228802,1,0,0:0:0:0:
329,81,228905,1,0,0:0:0:0:
432,88,229110,5,0,0:0:0:0:
432,160,229315,1,0,0:0:0:0:
168,200,229521,2,0,P|280:272|344:240,1,180
368,240,229932,5,0,0:0:0:0:
336,184,230137,1,0,0:0:0:0:
392,192,230343,2,0,P|480:120|488:96,1,120
480,118,230651,1,0,0:0:0:0:
480,118,230754,1,0,0:0:0:0:
464,192,230857,2,0,P|352:128|256:120,1,180
303,119,231268,6,0,L|184:176,1,120
194,170,231576,1,0,0:0:0:0:
194,170,231678,1,0,0:0:0:0:
152,88,231884,2,0,P|296:64|376:112,1,240
372,108,232398,1,0,0:0:0:0:
372,108,232500,2,0,L|368:240,2,120
372,108,233014,5,0,0:0:0:0:
372,108,233117,1,0,0:0:0:0:
288,88,233322,2,0,P|152:96|72:136,1,180
112,111,233733,1,0,0:0:0:0:
112,111,233836,1,0,0:0:0:0:
112,111,233939,2,0,L|144:232,1,120
200,216,234350,5,0,0:0:0:0:
440,104,234555,1,0,0:0:0:0:
360,208,234761,2,0,L|368:88,1,120
440,104,235069,2,0,L|288:160,1,120
312,80,235274,2,0,L|424:200,1,120
408,56,235583,2,0,L|328:176,1,120
341,155,235994,5,0,0:0:0:0:
341,155,236096,2,0,L|304:208,4,60
341,155,236713,2,0,L|168:152,1,120
272,80,237124,2,0,L|272:232,1,120
384,184,237432,1,0,0:0:0:0:
344,208,237535,2,0,L|224:96,1,120
96,104,237946,6,0,L|344:104,1,240
336,104,238459,1,0,0:0:0:0:
336,104,238562,1,0,0:0:0:0:
336,104,238665,1,0,0:0:0:0:
272,184,238768,6,0,L|88:192,1,180
208,248,239281,2,0,L|208:120,1,120
144,120,239589,2,0,L|160:312,1,180
158,299,240000,1,0,0:0:0:0:
158,299,240103,1,0,0:0:0:0:
208,304,240206,6,0,P|344:264|152:224,1,540
151,215,241233,1,0,0:0:0:0:
151,215,241336,1,0,0:0:0:0:
151,215,241439,1,0,0:0:0:0:
256,192,241644,12,0,242466,0:0:0:0:
