osu file format v12

[General]
AudioFilename: ed-unfinshed.mp3
AudioLeadIn: 0
PreviewTime: -1
Countdown: 0
SampleSet: Normal
StackLeniency: 0.7
Mode: 0
LetterboxInBreaks: 1

[Editor]
DistanceSpacing: 1
BeatDivisor: 4
GridSize: 8

[Metadata]
Title:Unfinished
TitleUnicode:Unfinished
Artist:Accel World
ArtistUnicode:Accel World
Creator:Ikarous
Version:Hard
Source:
Tags:
BeatmapID:270708
BeatmapSetID:101707

[Difficulty]
HPDrainRate:6
CircleSize:4
OverallDifficulty:6
ApproachRate:5
SliderMultiplier:1.6
SliderTickRate:2

[Events]
//Background and Video events
0,0,"320993_321905067909488_389510785_n.jpg",0,0
//Break Periods
2,33898,39280
//Storyboard Layer 0 (Background)
//Storyboard Layer 1 (Fail)
//Storyboard Layer 2 (Pass)
//Storyboard Layer 3 (Foreground)
//Storyboard Sound Samples
//Background Colour Transformations
3,100,163,162,255

[TimingPoints]
1542,410.958904109589,4,2,1,70,1,0
2877,-90.9090909090909,4,1,0,55,0,0
4007,-100,4,2,1,75,0,0
7087,-100,4,2,1,65,0,0
8836,-100,4,2,2,70,0,0
10480,-100,4,2,1,70,0,0
13973,-100,4,2,2,75,0,0
15617,-100,4,2,1,65,0,0
19213,-100,4,2,0,70,0,0
19726,-100,4,1,0,60,0,0
20754,-100,4,2,1,70,0,0
27226,-100,4,1,0,65,0,0
28665,-100,4,2,1,70,0,0
30000,-100,4,1,0,65,0,0
30720,-100,4,2,1,75,0,0
33185,-100,4,1,1,60,0,0

[Colours]
Combo1 : 192,192,192
Combo2 : 0,0,0
Combo3 : 0,0,255
Combo4 : 0,255,128

[HitObjects]
240,160,2877,1,0,0:0:0:0:
296,160,2980,2,0,L|392:160,2,71.5000021820069
296,224,3494,2,0,L|296:312,2,71.5000021820069
160,144,4110,6,2,L|160:240,1,65
208,264,4521,1,0,0:0:0:0:
240,168,4726,2,2,P|376:136|424:152,1,160
440,176,5343,1,2,0:0:0:0:
448,248,5548,5,0,0:0:0:0:
400,192,5754,2,2,P|288:168|224:200,1,160
240,248,6370,1,0,0:0:0:0:
240,320,6576,2,2,P|120:312|80:264,1,160
288,112,7295,5,0,0:0:0:0:
264,40,7500,2,2,P|144:72|96:120,1,160
120,152,8117,1,0,0:0:0:0:
112,216,8322,2,2,P|208:224|304:200,1,160
320,104,8939,6,2,P|344:160|344:272,1,160
288,256,9555,1,0,0:0:0:0:
224,256,9761,2,2,P|216:168|256:88,1,160
152,88,10480,5,0,0:0:0:0:
88,168,10788,2,2,P|200:192|280:176,1,160
312,192,11405,1,0,0:0:0:0:
304,272,11610,2,2,P|416:288|496:272,1,160
464,144,12226,6,2,P|360:152|272:128,1,160
320,80,12843,1,0,0:0:0:0:
224,80,13048,2,2,P|112:80|40:112,1,160
80,152,13665,5,2,0:0:0:0:
112,256,13973,2,0,P|240:280|296:272,1,160
232,176,14589,1,2,0:0:0:0:
176,96,14795,2,0,P|288:96|352:128,1,160
330,114,15411,1,2,0:0:0:0:
328,192,15617,5,0,0:0:0:0:
328,272,15822,1,2,0:0:0:0:
328,352,16028,1,4,0:0:0:0:
256,192,16336,12,0,19007,0:0:0:0:
256,192,19315,5,4,0:0:0:0:
256,120,19829,2,0,L|256:64,6,40
120,200,20754,6,2,P|216:232|312:224,1,160
272,168,21370,1,0,0:0:0:0:
272,168,21473,1,2,0:0:0:0:
360,112,21678,2,0,P|216:88|176:104,1,160
160,120,22295,1,8,0:0:0:0:
96,152,22500,6,0,P|104:248|144:320,1,160
224,312,23117,2,2,L|224:224,1,80
296,232,23528,1,0,0:0:0:0:
432,168,23733,2,2,B|288:136|312:136,1,120
272,64,24247,1,8,0:0:0:0:
144,120,24452,5,0,0:0:0:0:
64,200,24658,2,2,P|152:224|256:216,1,160
280,224,25274,2,2,L|280:328,1,80
344,304,25583,1,8,0:0:0:0:
400,304,25788,2,0,L|400:224,1,80
464,224,26199,2,0,L|464:136,1,80
400,144,26610,2,2,L|400:64,1,80
352,64,27021,5,4,0:0:0:0:
312,112,27329,2,0,L|216:112,1,80
232,184,27740,2,0,L|144:184,1,80
144,256,28151,2,0,L|48:256,2,80
208,256,28768,2,2,L|304:256,1,80
328,144,29281,6,2,L|224:120,1,80
344,208,29692,2,2,L|248:264,1,80
416,216,30103,2,0,L|416:328,2,80
488,216,30720,2,0,L|488:120,1,80
488,104,31233,2,2,P|360:88|304:104,1,160
336,168,31850,5,8,0:0:0:0:
392,224,32055,2,2,P|296:256|208:248,1,160
184,256,32672,2,2,L|184:88,1,160
280,88,33288,6,0,L|352:88,4,40
264,200,40480,5,0,0:0:0:0:
