osu file format v14

[General]
AudioFilename: 01. emerge.mp3
AudioLeadIn: 0
PreviewTime: 31677
Countdown: 0
SampleSet: None
StackLeniency: 0.7
Mode: 0
LetterboxInBreaks: 0
WidescreenStoryboard: 1

[Editor]
DistanceSpacing: 0.8
BeatDivisor: 2
GridSize: 4
TimelineZoom: 0.9

[Metadata]
Title:emerge
TitleUnicode:〜emerge〜
Artist:Absolute Zero
ArtistUnicode:AbsoЯute Zero
Creator:Nyark Kidoune
Version:Normal
Source:Touhou
Tags:C88 東方紺珠伝 ~ Legacy of Lunatic Kingdom Absolute One 宇宙巫女現る 東方紺珠伝 梗
BeatmapID:773717
BeatmapSetID:349734

[Difficulty]
HPDrainRate:4
CircleSize:3
OverallDifficulty:4
ApproachRate:3
SliderMultiplier:1.1
SliderTickRate:1

[Events]
//Background and Video events
0,0,"bgn.png",0,0
//Break Periods
//Storyboard Layer 0 (Background)
//Storyboard Layer 1 (Fail)
//Storyboard Layer 2 (Pass)
//Storyboard Layer 3 (Foreground)
//Storyboard Sound Samples

[TimingPoints]
3651,394.736842105263,4,2,0,80,1,0
3651,-133.333333333333,4,2,0,80,0,0
31282,-100,4,2,0,5,0,0
31677,394.736842105263,4,3,0,80,1,0
31677,-100,4,3,0,80,0,1
56940,-100,4,2,0,5,0,0

[Colours]
Combo1 : 255,199,4
Combo2 : 149,43,48
Combo3 : 219,216,94
Combo4 : 255,64,64

[HitObjects]
96,108,3651,22,0,L|136:112,1,20.6250007867813
320,252,5229,2,0,P|248:276|160:248,1,165.000006294251
132,196,6414,1,0,0:0:0:0:
68,200,6808,21,0,0:0:0:0:
80,208,8387,21,0,0:0:0:0:
304,72,9966,22,0,P|288:72|272:80,1,20.6250007867813
176,272,12335,21,0,0:0:0:0:
152,212,12729,1,0,0:0:0:0:
168,148,13124,21,0,0:0:0:0:
256,48,13914,1,0,0:0:0:0:
344,148,14703,21,0,0:0:0:0:
256,248,15493,1,0,0:0:0:0:
256,116,16282,22,0,L|256:80,1,20.6250007867813
112,296,17861,21,0,0:0:0:0:
112,296,18650,1,0,0:0:0:0:
168,260,19045,1,0,0:0:0:0:
168,192,19440,21,0,0:0:0:0:
168,192,21019,21,0,0:0:0:0:
168,192,21808,1,0,0:0:0:0:
212,144,22203,1,0,0:0:0:0:
256,96,22598,21,0,0:0:0:0:
432,292,24177,21,0,0:0:0:0:
328,212,24966,1,0,0:0:0:0:
272,244,25361,1,0,0:0:0:0:
256,192,25756,12,0,31282,0:0:0:0:
200,256,31677,6,0,L|184:332,2,55
212,212,32269,1,0,0:0:0:0:
224,168,32466,2,0,P|160:120|64:136,1,165
48,156,33255,22,0,L|40:32,2,110
160,296,34834,22,0,P|140:348|136:388,2,55
196,268,35427,1,0,0:0:0:0:
240,256,35624,2,0,B|348:244|348:244|400:240|448:272,1,165
403,250,36413,21,0,0:0:0:0:
460,320,36808,1,0,0:0:0:0:
372,332,37203,2,0,L|292:336,1,55
284,308,37598,2,0,L|200:288,1,55
200,264,37992,22,0,P|160:160|244:56,1,220
388,68,39571,22,0,L|486:95,1,55
460,124,39966,2,0,L|444:208,1,55
416,204,40361,2,0,B|388:240|384:272|384:272|332:256|264:288,1,165
256,296,41150,22,0,L|184:296,2,55
296,276,41742,1,0,0:0:0:0:
328,248,41940,2,0,P|336:184|212:164,1,220
152,228,43124,22,0,L|56:228,1,55
66,204,43519,2,0,B|94:140|46:80|46:80|70:40,1,165
92,20,44308,21,0,0:0:0:0:
136,12,44505,2,0,P|160:12|200:20,2,55
92,20,45098,2,0,P|72:72|152:144,1,165
180,124,45887,22,0,P|208:112|244:104,1,55
272,124,46282,2,0,P|312:128|348:144,1,55
360,160,46676,2,0,P|432:172|436:72,1,165
432,60,47466,22,0,L|448:8,2,55
396,88,48058,1,0,0:0:0:0:
396,88,48255,2,0,P|312:112|256:16,1,165
224,92,49045,22,0,P|208:140|188:164,1,55
172,172,49440,2,0,P|128:184|96:176,1,55
76,180,49834,1,0,0:0:0:0:
24,348,50624,22,0,L|52:252,1,55
80,276,51019,2,0,L|72:196,1,55
96,184,51413,2,0,B|124:136|188:136|188:136|208:160|240:172,1,165
276,172,52203,21,0,0:0:0:0:
356,140,52598,1,0,0:0:0:0:
428,192,52992,2,0,L|452:284,2,55
416,152,53584,1,0,0:0:0:0:
404,112,53782,22,0,B|348:100|348:100|208:132,1,165
204,140,54571,2,0,P|168:172|84:180,1,110
68,172,55163,1,0,0:0:0:0:
32,200,55361,22,0,L|16:256,1,55
48,284,55755,2,0,L|68:356,1,55
96,364,56150,1,0,0:0:0:0:
140,360,56348,1,0,0:0:0:0:
184,356,56545,1,0,0:0:0:0:
228,352,56742,1,0,0:0:0:0:
