osu file format v13

[General]
AudioFilename: Above & Beyond - You Got To Go (Seven Lions Dubstep Remix).mp3
AudioLeadIn: 0
PreviewTime: -1
Countdown: 0
SampleSet: Normal
StackLeniency: 0.8
Mode: 0
LetterboxInBreaks: 1
WidescreenStoryboard: 0

[Editor]
DistanceSpacing: 0.8
BeatDivisor: 4
GridSize: 4
TimelineZoom: 2.5

[Metadata]
Title:You Got To Go (Seven Lions Dubstep Remix)
TitleUnicode:You Got To Go (Seven Lions Dubstep Remix)
Artist:Above & Beyond
ArtistUnicode:Above & Beyond
Creator:userxblade
Version:Get Out
Source:
Tags:Hard Amazing Trancestep Remix Dubstep Seven Lions Above and Beyond You got to go
BeatmapID:573308
BeatmapSetID:249367

[Difficulty]
HPDrainRate:6
CircleSize:4
OverallDifficulty:7
ApproachRate:9
SliderMultiplier:2
SliderTickRate:2

[Events]
//Background and Video events
//Break Periods
2,63715,109201
//Storyboard Layer 0 (Background)
//Storyboard Layer 1 (Fail)
//Storyboard Layer 2 (Pass)
//Storyboard Layer 3 (Foreground)
//Storyboard Sound Samples

[TimingPoints]
87,428.570419580421,4,1,0,100,1,0
13801,-153.846153846154,4,1,0,20,0,0
27515,-100,4,1,0,55,0,0
42515,-100,4,1,0,50,0,0
42836,-100,4,1,0,25,0,0
43158,-100,4,1,0,10,0,0
43372,-100,4,1,0,55,0,0
47658,-100,4,1,0,35,0,0
47872,-100,4,1,0,10,0,0
48086,-100,4,1,0,55,0,0
59979,-100,4,1,0,25,0,0
60301,-100,4,1,0,10,0,0
60515,-100,4,1,0,55,0,0
109801,-200,4,1,0,100,0,1
123515,-200,4,1,0,80,0,1
123836,-200,4,1,0,56,0,1
124158,-200,4,1,0,30,0,1
124372,-200,4,1,0,100,0,1

[HitObjects]
256,192,13801,5,0,0:0:0:0:
392,64,14229,2,0,P|421:77|438:104,1,64.9999970245363,0|8,0:0|0:0,0:0:0:0:
120,64,14872,1,0,0:0:0:0:
176,208,15301,1,0,0:0:0:0:
232,60,15515,2,0,P|348:44|464:64,1,227.499989585877,8|0,0:0|0:0,0:0:0:0:
256,192,16372,12,0,17872,0:0:0:0:
252,48,18301,5,0,0:0:0:0:
212,200,18515,1,0,0:0:0:0:
280,324,18729,1,8,0:0:0:0:
260,48,19158,5,0,0:0:0:0:
300,200,19372,1,0,0:0:0:0:
232,324,19586,1,8,0:0:0:0:
104,64,20015,6,0,P|76:92|64:124,1,64.9999970245363
236,168,20444,1,8,0:0:0:0:
408,64,20872,6,0,P|431:85|446:114,1,64.9999970245363
276,168,21301,1,8,0:0:0:0:
256,88,21729,5,0,0:0:0:0:
256,280,22158,1,8,0:0:0:0:
144,208,22372,6,0,P|256:188|384:216,1,227.499989585877
256,192,23229,12,0,27301,0:0:0:0:
156,144,27515,5,4,0:0:0:0:
336,104,27836,1,0,0:0:0:0:
420,288,28158,1,0,0:0:0:0:
268,248,28372,5,8,0:0:0:0:
364,36,28801,1,0,0:0:0:0:
200,36,29229,2,0,P|124:52|88:80,1,100
32,156,29658,1,0,0:0:0:0:
256,160,30086,1,8,0:0:0:0:
448,304,30515,1,0,0:0:0:0:
256,304,30944,5,0,0:0:0:0:
256,192,31158,2,0,L|256:136,4,50,0|0|0|8|0,0:0|0:0|0:0|0:0|0:0,0:0:0:0:
144,68,31801,1,8,0:0:0:0:
72,228,32229,1,0,0:0:0:0:
216,352,32658,1,0,0:0:0:0:
168,200,33086,2,0,P|232:188|272:204,2,100,8|0|12,0:0|0:0|0:0,0:0:0:0:
216,296,33944,1,0,0:0:0:0:
208,52,34372,5,0,0:0:0:0:
260,180,34586,2,0,P|300:160|308:132,4,50,0|0|0|8|0,0:0|0:0|0:0|0:0|0:0,0:0:0:0:
100,144,35229,1,8,0:0:0:0:
256,288,35658,1,0,0:0:0:0:
256,52,36086,5,0,0:0:0:0:
120,120,36301,1,0,0:0:0:0:
120,264,36515,1,8,0:0:0:0:
256,332,36729,1,0,0:0:0:0:
392,264,36944,1,12,0:0:0:0:
120,192,37372,1,0,0:0:0:0:
408,192,37801,5,0,0:0:0:0:
272,240,38015,2,0,L|216:240,1,50
240,276,38229,2,0,L|184:276,1,50,0|8,0:0|0:0,0:0:0:0:
204,324,38444,1,0,0:0:0:0:
80,248,38658,1,8,0:0:0:0:
168,112,38872,1,0,0:0:0:0:
320,64,39086,1,12,0:0:0:0:
168,112,39301,1,0,0:0:0:0:
104,312,40051,6,0,L|160:312,1,50
400,136,40372,2,0,B|308:116|188:116|92:140,1,300,0|8,0:0|0:0,0:0:0:0:
256,296,41229,5,0,0:0:0:0:
192,188,41444,2,0,L|136:188,1,50
168,144,41658,2,0,L|112:144,1,50,0|8,0:0|0:0,0:0:0:0:
144,100,41872,1,0,0:0:0:0:
268,180,42086,1,8,0:0:0:0:
300,64,42301,1,0,0:0:0:0:
432,48,42515,5,8,0:0:0:0:
360,192,42836,1,8,0:0:0:0:
436,328,43158,1,8,0:0:0:0:
456,192,43372,5,0,0:0:0:0:
360,116,43586,1,0,0:0:0:0:
264,192,43801,1,8,0:0:0:0:
368,344,44229,1,0,0:0:0:0:
256,104,44658,5,0,0:0:0:0:
188,220,44872,1,0,0:0:0:0:
220,228,44979,1,0,0:0:0:0:
256,232,45086,1,0,0:0:0:0:
292,228,45194,1,8,0:0:0:0:
324,220,45301,1,0,0:0:0:0:
256,56,45515,1,8,0:0:0:0:
256,312,45944,1,8,0:0:0:0:
108,184,46479,5,0,0:0:0:0:
232,252,46694,2,0,L|212:304,1,50
56,268,47015,2,0,P|80:212|124:172,1,100,0|12,0:0|0:0,0:0:0:0:
464,192,47658,1,0,0:0:0:0:
384,104,47872,1,0,0:0:0:0:
256,88,48086,5,8,0:0:0:0:
324,204,48301,1,0,0:0:0:0:
360,92,48515,1,0,0:0:0:0:
320,72,48622,1,8,0:0:0:0:
284,88,48729,1,0,0:0:0:0:
324,248,48944,1,8,0:0:0:0:
136,168,49265,6,0,L|136:224,1,50
208,308,49586,1,0,0:0:0:0:
308,152,49801,1,0,0:0:0:0:
236,28,50015,1,0,0:0:0:0:
192,44,50122,1,0,0:0:0:0:
176,92,50229,1,8,0:0:0:0:
352,180,50444,1,0,0:0:0:0:
256,328,50658,1,12,0:0:0:0:
440,196,51086,1,0,0:0:0:0:
256,72,51515,5,8,0:0:0:0:
144,96,51729,1,0,0:0:0:0:
120,132,51836,1,0,0:0:0:0:
108,172,51944,1,0,0:0:0:0:
116,212,52051,1,8,0:0:0:0:
136,248,52158,1,0,0:0:0:0:
292,168,52372,1,8,0:0:0:0:
444,92,52801,5,0,0:0:0:0:
440,244,53015,1,0,0:0:0:0:
120,104,53444,1,0,0:0:0:0:
168,296,53872,2,0,P|232:324|280:320,1,100,0|8,0:0|0:0,0:0:0:0:
184,64,54515,2,0,P|288:48|392:72,1,200,8|4,0:0|0:0,0:0:0:0:
256,264,58372,5,8,0:0:0:0:
180,120,58586,1,0,0:0:0:0:
216,108,58694,1,0,0:0:0:0:
256,100,58801,1,0,0:0:0:0:
296,108,58908,1,8,0:0:0:0:
332,120,59015,1,0,0:0:0:0:
256,312,59229,5,8,0:0:0:0:
240,144,59444,1,0,0:0:0:0:
80,48,59658,1,8,0:0:0:0:
152,192,59979,1,8,0:0:0:0:
76,328,60301,1,8,0:0:0:0:
56,192,60515,5,0,0:0:0:0:
152,116,60729,1,0,0:0:0:0:
248,192,60944,1,8,0:0:0:0:
456,336,61372,1,0,0:0:0:0:
392,136,61801,5,8,0:0:0:0:
288,228,62015,1,0,0:0:0:0:
308,264,62122,1,8,0:0:0:0:
348,272,62229,1,0,0:0:0:0:
376,160,62443,1,0,0:0:0:0:
260,332,62658,1,8,0:0:0:0:
152,232,62872,2,0,P|136:176|156:112,1,100,0|0,0:0|0:0,0:0:0:0:
256,40,63301,1,0,0:0:0:0:
256,208,63515,1,8,0:0:0:0:
256,320,109801,5,12,0:0:0:0:
180,40,110015,2,0,P|244:36|332:40,1,150,0|12,0:0|0:0,0:0:0:0:
256,64,111515,5,12,0:0:0:0:
179,344,111729,2,0,P|254:348|329:344,1,150,0|12,0:0|0:0,0:0:0:0:
332,328,112586,2,0,P|257:331|182:327,1,150,0|12,0:0|0:0,0:0:0:0:
180,55,113443,2,0,P|254:52|329:56,1,150,0|12,0:0|0:0,0:0:0:0:
44,56,114301,6,8,L|28:68,3,12.5,8|8|8|8,0:0|0:0|0:0|0:0,0:0:0:0:
44,112,114515,2,0,L|28:124,1,12.5
56,164,114622,2,0,L|36:176,1,12.5
76,216,114729,2,0,L|64:232,1,12.5
112,256,114836,2,0,L|104:272,1,12.5
152,288,114943,6,0,P|164:304|172:308,1,25,8|0,0:0|0:0,0:0:0:0:
359,95,115158,6,0,P|353:85|343:77,1,25,8|0,0:0|0:0,0:0:0:0:
168,77,115372,6,0,P|158:85|152:95,1,25,8|0,0:0|0:0,0:0:0:0:
343,306,115586,6,0,P|353:298|360:288,1,25,8|0,0:0|0:0,0:0:0:0:
168,76,115801,6,0,P|120:108|104:148,1,100,8|12,0:0|0:0,0:0:0:0:
204,328,116658,6,0,P|256:336|308:324,1,100,0|12,0:0|0:0,0:0:0:0:
124,164,117301,1,0,0:0:0:0:
364,172,117515,1,0,0:0:0:0:
256,28,117676,2,0,P|236:36|236:44,1,25
326,202,117943,2,0,P|348:191|364:171,2,50,8|0|8,0:0|0:0|0:0,0:0:0:0:
332,48,118586,6,0,P|256:40|184:48,1,150,0|12,0:0|0:0,0:0:0:0:
184,72,119443,2,0,P|258:63|332:71,1,150,0|12,0:0|0:0,0:0:0:0:
332,312,120301,2,0,P|257:320|183:311,1,150,0|12,0:0|0:0,0:0:0:0:
144,176,121051,2,0,P|172:168|220:176,1,75
320,280,121586,2,0,L|336:296,4,12.5,0|0|0|0|0,0:0|0:0|0:0|0:0|0:0,0:0:0:0:
184,104,122015,6,0,P|252:96|344:104,1,150,12|0,0:0|0:0,0:0:0:0:
320,284,122872,2,0,P|296:288|268:284,1,50,0|12,0:0|0:0,0:0:0:0:
256,96,123300,1,0,0:0:0:0:
112,68,123515,5,8,0:0:0:0:
400,68,123836,1,8,0:0:0:0:
264,288,124158,1,8,0:0:0:0:
264,140,124372,1,4,0:0:0:0:
