osu file format v13

[General]
AudioFilename: 03 Firefly.mp3
AudioLeadIn: 1000
PreviewTime: 38084
Countdown: 0
SampleSet: Soft
StackLeniency: 0.7
Mode: 0
LetterboxInBreaks: 0
WidescreenStoryboard: 0

[Editor]
DistanceSpacing: 1.1
BeatDivisor: 4
GridSize: 4
TimelineZoom: 0.9999999

[Metadata]
Title:Firefly
TitleUnicode:Firefly
Artist:Abo Takeshi
ArtistUnicode:阿保 剛
Creator:-Google-
Version:Normal
Source:Memories Off 2nd
Tags:Shirakawa Hotaru 白河 萤 ほたる 水樹 奈々 メモリーズオフ Chiyomaru Shikura 志倉 千代丸 Original Soundtrack OST visual novel galgame AVG KID 5pb yf_bmp troogle
BeatmapID:355792
BeatmapSetID:142953

[Difficulty]
HPDrainRate:4
CircleSize:3.5
OverallDifficulty:4
ApproachRate:5
SliderMultiplier:1.44
SliderTickRate:1

[Events]
//Background and Video events
0,0,"BG.jpg",0,0
//Break Periods
//Storyboard Layer 0 (Background)
//Storyboard Layer 1 (Fail)
//Storyboard Layer 2 (Pass)
//Storyboard Layer 3 (Foreground)
//Storyboard Sound Samples
//Background Colour Transformations
3,100,163,162,255

[TimingPoints]
-569,576.923076923077,4,2,1,80,1,0
38661,-100,4,2,2,80,0,0
75007,-100,4,2,3,80,0,0
112507,-100,4,2,3,70,0,0
112796,-100,4,2,3,60,0,0
113084,-100,4,2,3,50,0,0
113373,-100,4,2,3,40,0,0
113661,-100,4,2,3,30,0,0
113950,-100,4,2,3,25,0,0
114238,-100,4,2,3,20,0,0
114527,-100,4,2,3,10,0,0

[Colours]
Combo1 : 225,147,157
Combo2 : 225,175,145
Combo3 : 219,208,128
Combo4 : 99,171,212

[HitObjects]
128,192,584,5,2,0:0:0:0:
176,256,873,1,0,0:0:0:0:
224,192,1161,2,0,L|296:192,1,72,8|2,0:0|0:0,0:0:0:0:
320,268,1738,2,0,P|390:280|458:259,1,144,4|8,0:0|0:0,0:0:0:0:
384,128,2892,5,0,0:0:0:0:
324,76,3181,2,0,L|252:76,1,72,2|8,0:0|0:0,0:0:0:0:
180,108,3757,1,0,0:0:0:0:
239,160,4046,2,0,P|183:202|112:208,1,144,2|8,0:0|0:0,0:0:0:0:
260,256,5200,5,0,0:0:0:0:
260,256,5488,2,0,P|294:275|327:273,1,72,2|8,0:0|0:0,0:0:0:0:
380,220,6065,1,0,0:0:0:0:
360,144,6354,1,2,0:0:0:0:
308,84,6642,2,0,P|272:64|240:64,2,72,0|8|0,0:0|0:0|0:0,0:0:0:0:
252,144,7507,2,0,P|183:160|135:212,2,144,0|8|2,0:0|0:0|0:0,0:0:0:0:
264,304,9238,1,8,0:0:0:0:
104,40,10104,6,0,L|32:40,2,72,2|8|0,0:0|0:0|0:0,0:0:0:0:
152,104,10969,2,0,P|168:173|220:220,1,144,2|8,0:0|0:0,0:0:0:0:
308,88,12123,5,0,0:0:0:0:
368,35,12411,2,0,P|403:34|434:50,1,72,2|8,0:0|0:0,0:0:0:0:
384,112,12988,1,0,0:0:0:0:
308,88,13277,2,0,P|291:157|241:207,1,144,2|8,0:0|0:0,0:0:0:0:
92,260,14431,5,0,0:0:0:0:
168,272,14719,2,0,P|196:294|230:303,2,72,2|8|0,0:0|0:0|0:0,0:0:0:0:
147,195,15584,2,0,P|165:127|217:78,1,144,2|8,0:0|0:0,0:0:0:0:
304,212,16738,5,0,0:0:0:0:
380,190,17027,2,0,P|415:191|446:210,1,72,2|8,0:0|0:0,0:0:0:0:
392,268,17604,1,0,0:0:0:0:
316,292,17892,1,2,0:0:0:0:
156,284,18469,2,0,P|88:266|38:215,1,144,8|0,0:0|0:0,0:0:0:0:
28,135,19334,6,0,P|63:139|94:158,1,72,2|8,0:0|0:0,0:0:0:0:
160,204,19911,1,0,0:0:0:0:
156,284,20200,1,4,0:0:0:0:
316,288,20777,1,8,0:0:0:0:
244,148,21354,5,0,0:0:0:0:
308,100,21642,2,0,L|380:100,2,72,2|8|0,0:0|0:0|0:0,0:0:0:0:
244,148,22507,1,2,0:0:0:0:
156,284,23084,1,8,0:0:0:0:
96,136,23661,5,0,0:0:0:0:
59,65,23950,2,0,P|96:56|128:64,1,72,2|8,0:0|0:0,0:0:0:0:
176,132,24527,2,0,P|170:166|149:195,1,72,0|2,0:0|0:0,0:0:0:0:
64,208,25104,2,0,P|32:184|20:156,1,72,0|8,0:0|0:0,0:0:0:0:
148,64,25969,6,0,P|182:56|215:68,2,72,0|2|8,0:0|0:0|0:0,0:0:0:0:
64,208,27123,2,0,P|64:242|80:274,2,72,2|2|8,0:0|0:0|0:0,0:0:0:0:
224,208,28277,5,0,0:0:0:0:
284,260,28565,2,0,P|302:290|333:308,2,72,2|8|0,0:0|0:0|0:0,0:0:0:0:
356,232,29431,1,2,0:0:0:0:
232,136,30007,1,8,0:0:0:0:
212,292,30584,5,0,0:0:0:0:
152,345,30873,2,0,P|120:358|84:357,2,72,2|8|0,0:0|0:0|0:0,0:0:0:0:
212,292,31738,1,2,0:0:0:0:
232,136,32315,1,8,0:0:0:0:
356,232,32892,6,0,P|343:284|306:322,2,108,0|2|0,0:0|0:0|0:0,0:0:0:0:
437,232,34046,2,0,P|450:284|487:322,2,108,2|2|0,0:0|0:0|0:0,0:0:0:0:
396,162,35200,1,0,0:0:0:0:
256,92,35777,1,8,0:0:0:0:
184,232,36354,6,0,P|151:278|97:292,2,108,2|2|0,0:0|0:0|0:0,0:0:0:0:
107,212,37507,2,0,P|89:158|107:108,2,108,0|2|0,0:0|0:0|0:0,0:0:0:0:
168,160,38661,6,0,P|236:140|304:161,1,144,6|0,0:0|0:0,0:0:0:0:
380,188,39527,1,8,0:0:0:0:
436,244,39815,1,0,0:0:0:0:
304,332,40392,1,2,0:0:0:0:
160,264,40969,6,0,P|89:259|32:217,1,144,10|0,0:0|0:0,0:0:0:0:
4,144,41834,1,8,0:0:0:0:
32,72,42123,1,0,0:0:0:0:
176,140,42700,1,2,0:0:0:0:
316,68,43277,6,0,P|387:75|443:119,1,144,10|0,0:0|0:0,0:0:0:0:
416,192,44142,1,8,0:0:0:0:
348,236,44431,1,0,0:0:0:0:
200,296,45007,6,0,L|272:296,1,72,2|0,0:0|0:0,0:0:0:0:
348,316,45584,2,0,P|396:337|447:323,2,108,10|10|10,0:0|0:0|0:0,0:0:0:0:
348,236,46738,1,0,0:0:0:0:
292,88,47315,1,0,3:2:0:0:
252,240,47892,6,0,L|144:240,1,108,10|8,0:0|0:0,0:0:0:0:
32,191,48757,1,10,0:0:0:0:
32,191,49046,2,0,P|16:244|36:296,2,108,2|0|0,0:0|0:0|0:0,0:0:0:0:
100,240,50200,6,0,L|208:240,1,108,10|8,0:0|0:0,0:0:0:0:
315,191,51065,1,10,0:0:0:0:
315,191,51354,2,0,P|328:244|310:292,2,108,2|2|0,0:0|0:0|0:0,0:0:0:0:
252,240,52507,6,0,L|108:240,1,144,10|0,0:0|0:0,0:0:0:0:
196,108,53661,1,2,0:0:0:0:
352,124,54238,1,0,0:0:0:0:
352,124,54815,6,0,L|504:124,1,144,10|0,0:0|0:0,0:0:0:0:
464,196,55681,1,10,0:0:0:0:
400,244,55969,1,2,0:0:0:0:
324,260,56257,1,0,0:0:0:0:
244,264,56546,2,0,P|209:258|180:237,1,72,8|0,3:2|0:0,0:0:0:0:
184,156,57123,6,0,P|115:136|47:156,1,144,6|0,0:0|0:0,0:0:0:0:
16,228,57988,1,8,0:0:0:0:
48,300,58277,1,0,0:0:0:0:
196,356,58854,1,2,0:0:0:0:
324,260,59431,6,0,P|395:252|451:208,1,144,10|0,0:0|0:0,0:0:0:0:
408,140,60296,1,8,0:0:0:0:
344,100,60584,1,0,0:0:0:0:
188,68,61161,1,2,0:0:0:0:
44,136,61738,6,0,P|53:207|99:261,1,144,10|0,0:0|0:0,0:0:0:0:
176,284,62604,1,8,0:0:0:0:
248,248,62892,1,0,0:0:0:0:
284,92,63469,2,0,P|316:68|348:60,1,72,2|0,0:0|0:0,0:0:0:0:
424,84,64046,2,0,P|461:121|474:173,2,108,10|10|10,0:0|0:0|0:0,0:0:0:0:
248,248,65777,1,0,3:2:0:0:
108,296,66354,6,0,P|51:304|7:278,2,108,10|8|10,0:0|0:0|0:0,0:0:0:0:
172,248,67507,2,0,P|128:218|76:222,2,108,2|0|0,0:0|0:0|0:0,0:0:0:0:
212,316,68661,6,0,P|281:299|329:248,1,144,10|0,0:0|0:0,0:0:0:0:
384,188,69527,1,10,0:0:0:0:
412,264,69815,2,0,P|432:318|484:354,2,108,2|2|0,0:0|0:0|0:0,0:0:0:0:
384,188,70969,6,0,P|403:119|383:51,1,144,6|0,0:0|0:0,0:0:0:0:
244,124,72123,2,0,P|224:193|244:261,1,144,6|0,0:0|0:0,0:0:0:0:
104,188,73277,2,0,P|123:256|103:324,1,144,6|0,0:0|0:0,0:0:0:0:
292,68,75007,6,0,P|360:49|428:69,1,144,8|6,3:2|0:0,0:0:0:0:
360,212,76161,1,8,0:0:0:0:
228,300,76738,2,0,L|156:300,2,72,0|6|8,0:0|0:3|0:0,0:0:0:0:
200,144,77892,1,6,0:3:0:0:
60,68,78469,1,8,0:0:0:0:
72,224,79046,5,0,0:0:0:0:
72,224,79334,2,0,P|44:252|28:280,2,72,6|8|0,0:3|0:0|0:0,0:0:0:0:
140,264,80200,2,0,P|208:284|276:265,1,144,2|8,0:0|0:0,0:0:0:0:
360,128,81354,2,0,P|292:107|224:126,1,144,2|8,0:0|0:0,0:0:0:0:
292,272,82507,2,0,P|360:291|428:271,1,144,2|8,0:0|0:0,0:0:0:0:
360,128,83661,5,0,0:0:0:0:
304,72,83950,2,0,P|278:55|236:47,2,72,6|8|0,0:3|0:0|0:0,0:0:0:0:
248,128,84815,2,0,L|104:128,1,144,2|8,0:0|0:0,0:0:0:0:
60,60,85681,1,0,0:0:0:0:
20,128,85969,1,2,0:0:0:0:
60,196,86257,2,0,P|79:225|109:245,2,72,4|8|0,0:3|0:0|0:0,0:0:0:0:
104,127,87123,6,0,P|133:83|181:60,2,108,2|0|2,0:0|0:0|0:0,0:0:0:0:
244,204,88565,2,0,P|255:237|278:264,2,72,4|8|0,0:3|0:0|0:0,0:0:0:0:
300,148,89431,2,0,P|366:119|406:61,1,144,2|8,0:0|0:0,0:0:0:0:
248,56,90584,5,2,0:0:0:0:
180,96,90873,2,0,P|150:77|132:40,2,72,4|8|0,0:3|0:0|0:0,0:0:0:0:
140,168,91738,2,0,P|204:194|246:256,1,144,2|8,0:0|0:0,0:0:0:0:
270,96,92892,2,0,P|279:148|318:184,2,108,0|0|0,0:0|0:0|0:0,0:0:0:0:
352,108,94046,5,6,0:0:0:0:
476,208,94623,1,8,0:0:0:0:
332,268,95200,2,0,P|289:300|237:295,2,108,2|2|0,0:0|0:0|0:0,0:0:0:0:
268,224,96354,1,6,0:3:0:0:
112,192,96931,1,8,0:0:0:0:
240,96,97507,6,0,P|286:68|339:68,2,108,2|2|0,0:0|0:0|0:0,0:0:0:0:
304,140,98661,2,0,P|374:147|430:191,1,144,0|8,0:0|0:0,0:0:0:0:
276,228,99815,2,0,P|348:216|388:276,1,144,2|8,0:0|0:0,0:0:0:0:
232,288,100969,2,0,P|189:327|127:337,2,108,2|0|2,0:0|0:0|0:0,0:0:0:0:
72,112,102700,1,0,0:0:0:0:
72,112,103277,6,0,P|142:120|198:164,1,144,2|8,0:0|0:0,0:0:0:0:
80,268,104431,1,2,0:0:0:0:
80,268,104719,2,0,P|110:287|145:291,2,72,4|8|0,0:3|0:0|0:0,0:0:0:0:
136,212,105584,2,0,P|189:212|235:239,1,108,2|0,0:0|0:0,0:0:0:0:
384,368,106738,5,0,0:0:0:0:
384,368,107027,2,0,P|413:347|431:316,2,72,4|8|0,0:3|0:0|0:0,0:0:0:0:
356,292,107892,2,0,P|397:234|463:207,1,144,6|8,0:0|0:0,0:0:0:0:
448,128,108757,1,0,0:0:0:0:
368,124,109046,2,0,P|322:178|255:201,1,144,0|8,0:0|0:0,0:0:0:0:
203,51,110200,6,0,P|148:56|112:96,2,108,2|0|0,0:0|0:0|0:0,0:0:0:0:
184,128,111354,2,0,P|232:179|301:197,1,144,4|8,0:3|0:0,0:0:0:0:
256,192,112507,12,0,114815,0:0:0:0:
