osu file format v13

[General]
AudioFilename: 03 Firefly.mp3
AudioLeadIn: 1000
PreviewTime: 38084
Countdown: 0
SampleSet: Soft
StackLeniency: 0.7
Mode: 0
LetterboxInBreaks: 0
WidescreenStoryboard: 0

[Editor]
Bookmarks: 17892,36354,47892,112507
DistanceSpacing: 1
BeatDivisor: 4
GridSize: 4
TimelineZoom: 1

[Metadata]
Title:Firefly
TitleUnicode:Firefly
Artist:Abo Takeshi
ArtistUnicode:阿保 剛
Creator:-Google-
Version:Easy
Source:Memories Off 2nd
Tags:Shirakawa Hotaru 白河 萤 ほたる 水樹 奈々 メモリーズオフ Chiyomaru Shikura 志倉 千代丸 Original Soundtrack OST visual novel galgame AVG KID 5pb yf_bmp troogle
BeatmapID:355951
BeatmapSetID:142953

[Difficulty]
HPDrainRate:2
CircleSize:3
OverallDifficulty:2
ApproachRate:3
SliderMultiplier:0.96
SliderTickRate:1

[Events]
//Background and Video events
0,0,"BG.jpg",0,0
//Break Periods
//Storyboard Layer 0 (Background)
//Storyboard Layer 1 (Fail)
//Storyboard Layer 2 (Pass)
//Storyboard Layer 3 (Foreground)
//Storyboard Sound Samples
//Background Colour Transformations
3,100,163,162,255

[TimingPoints]
-569,576.923076923077,4,2,1,80,1,0
36786,-100,4,1,1,20,0,0
37075,-100,4,2,1,80,0,0
37363,-100,4,1,1,20,0,0
37652,-100,4,2,1,80,0,0
38661,-100,4,2,2,80,0,0
46017,-100,4,1,1,20,0,0
46306,-100,4,2,2,80,0,0
46594,-100,4,1,1,20,0,0
46882,-100,4,2,2,80,0,0
64479,-100,4,1,1,20,0,0
64767,-100,4,2,2,80,0,0
65056,-100,4,1,1,20,0,0
65344,-100,4,2,2,80,0,0
75007,-100,4,2,3,80,0,0
76594,-100,4,2,4,80,0,0
76882,-100,4,2,3,80,0,0
78902,-100,4,2,4,80,0,0
79190,-100,4,2,3,80,0,0
95056,-100,4,2,3,60,0,0
95344,-100,4,2,3,80,0,0
97363,-100,4,2,3,60,0,0
97652,-100,4,2,3,80,0,0
110632,-100,4,1,1,20,0,0
110921,-100,4,2,3,80,0,0
111209,-100,4,1,1,20,0,0
111498,-100,4,2,3,80,0,0
112507,-100,4,2,3,70,0,0
112796,-100,4,2,3,60,0,0
113084,-100,4,2,3,50,0,0
113373,-100,4,2,3,40,0,0
113661,-100,4,2,3,30,0,0
113950,-100,4,2,3,25,0,0
114238,-100,4,2,3,20,0,0
114527,-100,4,2,3,10,0,0

[Colours]
Combo1 : 225,147,157
Combo2 : 225,175,145
Combo3 : 219,208,128
Combo4 : 99,171,212

[HitObjects]
104,96,584,6,0,L|156:180,1,96,2|8,0:0|0:0,0:0:0:0:
248,152,1738,2,0,P|230:242|144:276,1,192,4|0,0:0|0:0,0:0:0:0:
336,288,4046,2,0,P|354:197|440:164,1,192,2|0,0:0|0:0,0:0:0:0:
287,48,6354,6,0,P|242:59|196:48,1,96,2|8,0:0|0:0,0:0:0:0:
111,96,7507,2,0,P|98:141|109:187,2,96,0|8|2,0:0|0:0|0:0,0:0:0:0:
196,144,9238,1,8,0:0:0:0:
24,228,10392,5,8,0:0:0:0:
116,252,10969,2,0,P|207:263|246:346,1,192,2|0,0:0|0:0,0:0:0:0:
404,236,13277,2,0,P|350:161|382:74,1,192
192,36,15584,6,0,P|147:116|56:124,1,192
140,296,17892,2,0,P|176:328|224:336,1,96,2|8,0:0|0:0,0:0:0:0:
292,268,19046,1,0,0:0:0:0:
320,176,19623,5,8,0:0:0:0:
419,182,20200,2,0,P|423:229|450:268,1,96,4|8,0:0|0:0,0:0:0:0:
252,252,21931,5,8,0:0:0:0:
160,224,22507,2,0,P|140:267|102:294,1,96,2|8,0:0|0:0,0:0:0:0:
224,148,24238,5,8,0:0:0:0:
200,56,24815,2,0,P|152:56|111:34,1,96,2|8,0:0|0:0,0:0:0:0:
92,128,25969,6,0,P|71:170|73:217,2,96,0|8|2,0:0|0:0|0:0,0:0:0:0:
164,192,27700,1,8,0:0:0:0:
332,296,28854,5,8,0:0:0:0:
404,232,29431,2,0,P|431:193|436:146,1,96,2|8,0:0|0:0,0:0:0:0:
256,80,31161,5,8,0:0:0:0:
184,144,31738,2,0,P|157:183|152:230,1,96,2|8,0:0|0:0,0:0:0:0:
248,216,32892,2,0,P|323:157|416:142,1,192,0|2,0:0|0:0,0:0:0:0:
464,224,34623,1,8,0:0:0:0:
396,292,35200,2,0,P|356:324|307:335,1,96,0|8,0:0|0:0,0:0:0:0:
237,270,36354,6,0,P|224:201|260:140,2,144,2|0|8,0:0|0:0|0:0,0:0:0:0:
320,216,38661,6,0,P|365:134|346:42,1,192,6|0,0:0|0:0,0:0:0:0:
252,60,40392,1,2,0:0:0:0:
160,80,40969,6,0,P|115:162|134:254,1,192,10|0,0:0|0:0,0:0:0:0:
228,228,42700,1,2,0:0:0:0:
220,324,43277,6,0,P|313:321|383:259,1,192,10|0,0:0|0:0,0:0:0:0:
332,172,45007,1,2,0:0:0:0:
326,75,45584,6,0,P|393:98|428:160,2,144,10|10|0,0:0|0:0|3:2,0:0:0:0:
331,172,47892,2,0,P|248:133|229:42,1,192,10|2,0:0|0:0,0:0:0:0:
36,43,50200,2,0,P|120:82|135:172,1,192,10|2,0:0|0:0,0:0:0:0:
332,172,52507,6,0,P|345:263|428:304,1,192,10|2,0:0|0:0,0:0:0:0:
420,208,54238,1,0,3:0:0:0:
332,172,54815,2,0,P|319:80|236:39,1,192,10|2,0:0|0:0,0:0:0:0:
144,56,56546,1,8,3:2:0:0:
56,100,57123,5,6,0:0:0:0:
44,196,57700,2,0,P|87:277|178:290,1,192,0|2,0:0|0:0,0:0:0:0:
204,196,59431,5,10,0:0:0:0:
276,256,60007,2,0,P|338:187|318:97,1,192,0|2,0:0|0:0,0:0:0:0:
236,52,61738,5,10,0:0:0:0:
224,148,62315,2,0,P|132:160|89:242,1,192,0|2,0:0|0:0,0:0:0:0:
184,236,64046,6,0,P|173:312|216:373,2,144,10|10|0,0:0|0:0|3:2,0:0:0:0:
264,288,66354,6,0,P|355:269|414:196,1,192,10|2,0:0|0:0,0:0:0:0:
248,100,68661,2,0,P|156:118|97:191,1,192,10|2,0:0|0:0,0:0:0:0:
124,284,70392,1,10,0:0:0:0:
220,296,70969,5,14,0:0:0:0:
396,221,72123,1,6,0:0:0:0:
248,100,73277,1,14,0:0:0:0:
248,100,75007,5,8,3:2:0:0:
152,104,75584,1,6,0:0:0:0:
124,196,76161,2,0,P|142:288|215:347,1,192,8|8,0:0|0:0,0:0:0:0:
308,320,77892,5,6,0:3:0:0:
216,348,78469,2,0,P|209:254|264:177,1,192,8|8,0:0|0:0,0:0:0:0:
340,232,80200,6,0,P|391:153|380:59,1,192,2|2,0:0|0:0,0:0:0:0:
288,28,81931,1,8,0:0:0:0:
248,116,82507,2,0,P|156:134|97:207,1,192,2|0,0:0|0:0,0:0:0:0:
264,304,84815,6,0,P|356:286|415:213,1,192,2|2,0:0|0:0,0:0:0:0:
376,124,86546,1,8,0:0:0:0:
280,104,87123,2,0,P|188:122|129:195,1,192,2|0,0:0|0:0,0:0:0:0:
176,280,88854,1,8,0:0:0:0:
268,260,89431,6,0,P|360:274|441:226,1,192,2|2,0:0|0:0,0:0:0:0:
480,136,91161,1,0,0:0:0:0:
496,40,91738,2,0,P|404:58|345:131,1,192,2|0,0:0|0:0,0:0:0:0:
316,224,93469,1,10,0:0:0:0:
236,276,94046,1,6,0:0:0:0:
164,100,95200,6,0,L|68:100,1,96,2|8,0:0|0:0,0:0:0:0:
48,196,96354,1,6,0:3:0:0:
240,220,97507,6,0,L|336:220,1,96,2|8,0:0|0:0,0:0:0:0:
308,128,98661,1,0,0:0:0:0:
149,237,99815,1,2,0:0:0:0:
324,319,100969,6,0,P|414:293|466:215,2,192,2|0|2,0:0|0:0|0:0,0:0:0:0:
336,224,103854,5,8,0:0:0:0:
260,160,104431,2,0,L|164:160,1,96,0|8,0:0|0:0,0:0:0:0:
76,120,105584,1,2,0:0:0:0:
260,64,106738,6,0,L|260:160,1,96,0|8,0:0|0:0,0:0:0:0:
184,220,107892,1,2,0:0:0:0:
315,357,109046,1,0,0:0:0:0:
367,173,110200,6,0,P|368:102|324:47,2,144,2|0|8,0:0|0:0|0:0,0:0:0:0:
256,192,112507,12,0,114815,0:0:0:0:
