osu file format v7

[General]
AudioFilename: Abingdon boys school - Down To You.mp3
AudioLeadIn: 0
PreviewTime: -1
Countdown: 1
SampleSet: Normal
StackLeniency: 0.7
Mode: 0
LetterboxInBreaks: 1

[Editor]
DistanceSpacing: 0.800000011920929
BeatDivisor: 4
GridSize: 16

[Metadata]
Title:Down To You
Artist:Abingdon Boys School
Creator:KatanAnime
Version:Hard
Source:
Tags:Abingdon Boys School Project

[Difficulty]
HPDrainRate:7
CircleSize:5
OverallDifficulty:7
SliderMultiplier:1.4
SliderTickRate:2

[Events]
//Background and Video events
0,0,"anime_0098.jpg"
//Break Periods
2,48006,49199
//Storyboard Layer 0 (Background)
//Storyboard Layer 1 (Fail)
//Storyboard Layer 2 (Pass)
//Storyboard Layer 3 (Foreground)
//Storyboard Sound Samples
//Background Colour Transformations
3,100,163,162,255

[TimingPoints]
800,382.165605095541,4,1,0,70,1,0

[Colours]
Combo1 : 128,255,255
Combo2 : 255,128,128
Combo3 : 128,255,128
Combo4 : 255,255,128

[HitObjects]
128,48,11691,1,0
176,48,11882,1,0
224,48,12073,1,0
272,48,12264,1,0
320,48,12456,1,0
368,48,12647,1,0
416,48,12838,2,0,B|416:192,1,140
448,128,13793,5,4
448,304,14366,1,0
368,304,14749,1,0
320,304,14940,1,4
224,304,15322,1,4
144,304,15704,1,0
64,304,16086,1,0
64,224,16468,1,0
144,224,16850,1,0
224,224,17233,1,0
272,224,17424,1,0
352,224,17806,5,0
400,224,17997,1,0
400,144,18379,1,0
400,64,18761,1,0
320,64,19143,1,0
240,64,19526,1,0
160,64,19908,1,0
160,144,20290,1,0
208,144,20481,1,0
288,144,20863,5,0
288,192,21054,1,0
288,96,21436,1,0
368,96,21819,1,0
448,96,22201,1,0
448,176,22583,1,0
448,256,22965,1,0
368,256,23347,1,0
320,256,23538,1,0
320,176,23921,5,0
320,128,24112,1,0
240,128,24494,1,0
240,208,24876,1,0
160,208,25258,1,0
112,208,25449,1,0
112,80,26022,5,0
192,80,26405,1,0
240,80,26596,1,0
288,80,26787,1,0
368,80,27169,1,0
448,80,27551,1,0
448,160,27933,6,4,B|448:208|400:208,1,70
320,208,28507,1,0
240,208,28889,1,0
240,128,29271,1,0
288,128,29462,1,0
192,128,29844,1,0
96,128,30226,2,0,B|96:208,1,70
192,192,30799,5,0
256,192,31086,2,0,B|304:192,3,35
368,192,31755,1,0
448,192,32137,1,0
448,272,32519,1,0
400,272,32710,1,0
352,272,32901,1,0
272,272,33284,5,0
192,272,33666,1,0
112,272,34048,1,0
112,224,34239,1,0
112,144,34621,1,0
160,144,34812,1,0
240,144,35194,1,0
320,144,35577,1,0
368,144,35768,1,0
416,144,35959,1,0
464,144,36150,1,0
464,144,36245,1,0
464,144,36341,1,0
464,192,36532,1,0
64,176,37870,5,0
112,176,38061,1,0
160,176,38252,1,0
240,176,38634,1,0
448,176,39398,1,0
400,176,39589,1,0
352,176,39780,1,0
272,176,40163,1,0
112,192,40927,5,0
256,64,41309,1,0
400,192,41691,1,0
256,320,42073,1,0
256,192,42456,1,0
256,192,42551,1,0
256,192,42647,1,0
352,64,43029,1,0
400,96,43220,1,0
352,128,43411,1,0
208,128,43984,5,0
128,128,44366,1,0
128,208,44749,1,0
288,208,45322,1,0
336,208,45513,1,0
384,208,45704,1,0
432,208,45895,1,0
208,208,46277,1,0
64,64,47042,2,0,B|64:192|224:176|208:320,1,280
96,48,50099,5,0
256,48,50481,1,0
416,48,50863,1,0
416,184,51245,1,0
416,320,51628,1,0
256,320,52010,1,0
96,320,52392,1,0
96,184,52774,1,0
256,80,53156,5,0
160,192,53538,1,0
352,192,53921,1,0
256,288,54303,2,0,B|176:288,1,70
336,288,54876,1,0
416,288,55258,1,0
416,80,56214,5,0
336,80,56596,1,0
256,80,56978,1,0
176,80,57360,2,0,B|176:160,2,70
257,150,58124,1,0
335,149,58507,1,0
446,148,59080,5,0
446,198,59271,1,0
446,246,59462,1,0
398,246,59653,1,0
320,246,60035,1,0
240,244,60417,2,0,B|112:260|112:100,1,210
256,128,61564,5,0
336,128,61946,1,4
448,48,62519,1,4
448,288,63092,1,0
64,288,63666,1,4
64,48,64239,5,0
144,48,64621,1,0
224,48,65003,1,0
480,192,65577,1,0
32,192,66150,1,8
96,144,67870,5,0
144,144,68061,2,0,B|288:144,1,140
320,144,68634,1,0
368,144,68825,1,0
448,144,69207,1,0
448,192,69398,1,0
448,272,69780,1,0
368,272,70163,1,0
288,272,70545,1,0
288,272,70640,1,0
288,272,70736,1,0
288,272,70831,1,0
288,272,70927,1,0
288,272,71022,1,0
288,272,71118,1,4
128,272,71691,5,0
80,272,71882,1,0
80,176,72456,1,0
80,128,72647,1,0
80,80,72838,1,0
128,80,73029,1,0
208,80,73411,5,0
240,80,73507,1,0
272,80,73602,1,0
304,80,73698,1,0
336,80,73793,2,0,B|480:80,1,140
384,80,74366,6,0,B|384:176,1,70
384,192,74749,2,0,B|288:192,1,70
96,272,75704,5,0
144,208,76086,1,0
192,272,76468,1,0
240,208,76850,1,0
288,272,77233,1,0
336,208,77615,2,0,B|416:208,1,70
405,128,78188,1,0
357,128,78379,1,0
272,128,78761,5,0
192,128,79143,1,0
112,128,79526,1,0
112,208,79908,1,0
192,208,80290,1,0
272,208,80672,1,0
320,208,80863,1,0
432,208,81436,5,0
432,128,81819,1,0
32,32,82583,1,0
256,352,83347,1,0
480,32,84112,1,0
80,272,85258,5,0
256,272,85640,1,0
304,256,85831,1,0
336,224,86022,1,0
352,176,86214,1,0
352,96,86596,1,0
144,192,88315,5,0
256,80,88698,1,0
368,192,89080,1,0
256,304,89462,1,0
256,192,89844,1,0
256,192,90035,1,0
256,192,90417,1,0
256,192,90608,1,0
352,272,91373,5,0
160,272,91755,1,0
160,112,92137,1,0
352,112,92519,1,0
256,192,92901,1,0
256,192,93092,1,0
80,192,93666,5,0
80,112,94048,1,0
256,32,94812,1,0
256,352,95577,1,0
256,192,96341,1,0
80,288,97487,5,0
80,192,97870,1,0
80,144,98061,1,0
80,96,98252,1,0
128,96,98443,1,0
208,96,98825,1,0
352,96,100354,5,0
352,144,100545,1,0
352,192,100736,1,0
352,240,100927,1,0
272,240,101309,5,0
224,240,101500,1,0
144,240,101882,5,0
144,192,102073,1,0
144,112,102456,1,0
224,112,102838,1,0
416,112,103411,2,0,B|416:192,1,70
416,256,103984,1,0
416,336,104366,1,0
336,336,104749,1,0
256,336,105131,1,0
256,288,105322,1,4
256,208,105704,6,0,B|336:208,1,70
325,81,106468,2,0,B|245:81,1,70
128,80,107042,1,0
128,160,107424,1,0
128,240,107806,1,0
208,240,108188,1,0
288,240,108570,1,0
288,160,108952,1,0
288,112,109143,1,0
208,112,109526,5,0
160,112,109717,1,0
288,112,110099,1,0
368,112,110481,1,0
448,112,110863,1,0
448,192,111245,1,0
448,272,111628,1,0
368,272,112010,2,0,B|288:272,1,70
224,272,112583,1,0
176,272,112774,1,0
96,272,113156,5,0
96,112,113538,1,0
336,112,113921,1,0
208,272,114303,1,0
320,192,114685,1,0
320,96,115067,1,0
320,96,115163,1,0
320,96,115258,1,0
272,96,115449,5,0
192,96,115831,1,0
96,176,116214,1,0
192,256,116596,1,0
240,256,116787,1,0
48,32,118124,5,0
80,80,118315,1,0
112,128,118506,1,0
192,128,118889,1,0
240,128,119080,1,4
336,128,119462,1,0
336,176,119653,1,4
336,256,120035,1,4
256,256,120417,1,4
176,256,120800,1,0
176,176,121182,1,0
176,176,121277,1,0
176,176,121373,1,0
176,128,121564,5,0
176,64,121946,1,0
256,64,122328,1,0
336,64,122710,1,0
336,112,122901,1,0
336,192,123284,1,0
176,64,124048,5,0
176,112,124239,1,0
176,160,124430,1,0
224,160,124621,1,0
272,160,124812,1,0
272,160,124908,1,0
272,160,125003,1,0
320,160,125194,1,0
96,192,126532,5,0
416,192,126914,1,0
256,192,127296,1,0
256,64,128061,5,0
256,320,128443,1,0
256,192,128825,1,0
96,208,129589,5,0
144,144,129971,1,0
192,208,130354,1,0
240,144,130736,1,0
288,208,131118,1,0
336,208,131309,1,0
448,208,132456,1,0
448,208,132551,1,0
448,208,132647,1,0
448,208,132742,1,0
448,208,132838,1,0
448,208,132933,1,0
448,208,133029,5,0
368,208,133411,1,0
256,128,133984,1,0
256,128,134080,1,0
256,128,134175,1,0
256,128,134271,1,0
256,128,134366,1,0
256,128,134462,1,0
256,128,134557,5,0
256,208,134940,1,0
256,304,135704,1,0
304,288,135895,1,0
336,256,136086,1,0
352,208,136277,1,0
352,160,136468,1,0
464,240,137042,2,0,B|368:64|240:240|128:304|96:160,1,420
80,32,138761,5,0
144,96,139143,1,0
208,160,139526,1,0
272,208,139908,1,0
336,256,140290,1,0
336,176,140672,1,0
336,96,141054,1,0
256,96,141436,1,0
176,96,141819,5,0
176,176,142201,1,0
176,256,142583,1,0
256,256,142965,1,0
304,256,143156,1,0
304,176,143538,1,0
384,176,143921,1,0
416,272,144876,5,0
352,224,145258,1,0
288,176,145640,1,0
224,128,146022,1,0
160,80,146405,1,0
128,144,147742,5,0
176,144,147933,1,0
224,144,148124,1,0
272,144,148315,1,0
352,144,148698,1,0
432,144,149080,1,0
384,256,150226,5,0
320,256,150608,1,0
48,336,151182,1,0
48,48,151755,1,0
464,48,152328,1,0
464,336,152901,1,0
384,336,153284,1,0
304,336,153666,1,0
48,192,154239,1,0
464,192,154812,1,0
128,112,156532,5,0
176,112,156723,1,0
224,112,156914,1,0
272,112,157105,1,0
320,112,157296,1,0
320,160,157487,1,0
320,240,157870,1,0
272,240,158061,1,0
192,240,158443,1,0
192,160,158825,1,0
192,80,159207,1,0
240,80,159398,1,0
240,80,159494,1,0
240,80,159589,1,0
240,80,159685,1,0
240,80,159780,5,0
336,80,160354,1,0
336,128,160545,1,0
336,224,161118,1,0
288,224,161309,1,0
288,224,161405,1,0
288,224,161500,1,0
288,224,161596,1,0
288,224,161691,5,0
160,224,162264,1,0
160,112,162838,1,0
208,112,163029,1,0
288,112,163411,1,4
480,112,164749,5,0
400,112,165131,1,0
320,112,165513,1,0
240,112,165895,1,0
160,112,166277,1,0
160,112,166373,1,0
160,112,166468,1,0
160,192,166850,1,0
160,192,166946,1,0
160,192,167042,1,0
240,192,167424,5,0
288,192,167615,1,0
368,192,167997,1,0
368,240,168188,1,0
288,240,168570,1,0
240,240,168761,1,0
192,240,168952,1,0
112,240,169335,1,0
112,240,169430,1,0
112,240,169526,1,0
112,64,170099,5,0
192,64,170481,1,4
496,352,171245,1,4
256,32,172010,1,4
16,352,172774,1,4
432,192,173921,5,0
336,192,174303,2,0,B|256:112|160:208|128:176,1,210
64,144,175258,1,0
416,112,176978,5,0
336,112,177360,1,0
256,112,177742,1,0
176,112,178124,1,0
80,112,178507,2,0,B|80:192,1,70
192,183,179080,1,0
240,183,179271,1,0
416,160,180035,5,0
416,240,180417,1,0
336,240,180800,1,0
256,240,181182,1,0
176,240,181564,1,0
176,192,181755,1,0
176,64,182328,5,0
256,64,182710,1,0
32,32,183475,1,0
256,352,184239,1,0
480,32,185003,1,0
416,176,186150,5,0
336,176,186532,1,0
336,176,186723,1,0
336,176,186914,2,0,B|256:96|160:176|112:112,1,210
160,64,189016,5,0
160,112,189207,1,0
160,160,189398,1,0
160,208,189589,1,0
240,208,189971,1,0
288,208,190163,2,0,B|464:208,1,140
428,208,190736,1,0
432,160,190927,1,0
432,112,191118,1,0
384,112,191309,1,0
288,112,191882,5,0
240,112,192073,1,0
160,112,192456,1,0
160,160,192647,1,0
160,208,192838,1,0
64,208,193602,6,0,B|304:208|160:208|240:304|320:240|336:304,1,280
368,282,194557,1,0
400,256,194749,1,0
400,80,195131,1,0
368,112,195322,1,0
336,144,195513,1,0
304,176,195704,1,0
272,208,195895,1,0
240,240,196086,1,0
96,240,196850,5,0
96,160,197233,1,0
176,160,197615,1,0
224,160,197806,1,0
368,160,198188,1,0
368,208,198379,1,0
368,256,198570,1,0
368,304,198761,1,0
320,304,198952,1,0
272,304,199143,1,0
160,304,199717,5,0
160,256,199908,1,0
160,208,200099,1,0
160,160,200290,1,0
160,112,200481,1,0
160,64,200672,1,0
208,64,200863,1,0
288,64,201245,5,0
288,96,201341,1,0
288,128,201436,1,0
368,128,201819,1,0
368,96,201914,1,0
368,64,202010,1,0
448,64,202392,1,0
448,112,202583,5,0
448,192,202965,1,0
368,192,203347,1,0
288,192,203729,1,0
240,192,203921,1,0
192,192,204112,2,0,B|80:96|80:96|208:48,1,280
288,48,205258,5,0
368,48,205640,1,0
368,128,206022,1,0
208,256,206787,5,0
224,224,206882,1,0
256,208,206978,1,0
288,272,207264,1,0
320,256,207360,1,0
352,240,207456,1,0
384,240,207551,1,0
400,208,207647,1,0
432,192,207742,1,0
464,208,207838,1,0
480,240,207933,1,0
480,160,208124,1,0
384,128,208698,5,0
304,128,209080,1,0
304,128,209175,1,0
304,128,209271,1,0
224,128,209653,1,0
224,128,209749,1,0
224,128,209844,1,0
112,128,210417,5,0
112,176,210608,1,0
192,176,210991,1,0
240,176,211182,1,0
320,176,211564,1,0
368,176,211755,1,4
208,176,212519,1,4
208,256,213092,1,0
256,256,213284,1,0
304,256,213475,1,0
352,256,213666,1,4
352,176,214430,1,4
240,176,215003,1,0
160,176,215385,1,4
320,112,216723,5,0
240,80,217105,1,0
176,144,217487,1,0
240,224,217870,1,0
320,192,218252,1,0
368,192,218443,1,4
368,256,218825,1,0
320,256,219016,1,4
272,112,219780,5,0
192,80,220163,1,0
128,144,220545,1,0
176,208,220927,1,0
256,192,221309,1,0
256,240,221500,1,4
352,288,222073,5,0
416,192,222456,1,4
256,48,223220,1,4
112,192,223984,1,4
256,336,224749,1,4
160,112,225895,5,0
240,112,226277,1,0
288,112,226468,1,0
336,112,226659,1,0
336,160,226850,1,0
336,240,227233,1,4
432,48,228952,5,0
368,112,229335,1,0
304,176,229717,1,0
240,224,230099,1,0
176,176,230481,1,0
176,128,230672,1,4
176,48,231054,1,0
224,48,231245,1,4
64,48,232010,5,0
128,112,232392,1,0
192,176,232774,1,0
256,224,233156,1,0
320,176,233538,1,0
320,128,233729,1,4
112,192,234303,5,0
400,192,234685,1,4
48,48,235449,1,4
256,336,236214,1,4
464,48,236978,1,4
336,144,238124,5,0
256,144,238507,1,0
208,144,238698,1,0
160,144,238889,1,0
160,192,239080,1,4
160,64,239462,1,4
128,208,241182,5,0
176,144,241564,1,0
224,208,241946,1,0
272,144,242328,1,0
320,208,242710,1,0
368,208,242901,1,4
448,208,243284,1,0
400,208,243475,2,4,B|256:96|256:96|128:208,2,350
48,48,247296,5,0
128,96,247678,1,0
208,48,248061,1,0
256,48,248252,1,4
336,48,248634,1,0
384,48,248825,1,4
464,48,249207,1,0
464,96,249398,1,0
464,144,249589,1,0
416,144,249780,1,4
272,144,250354,6,0,B|192:144,8,70
240,96,252073,1,0
240,96,252169,1,4
240,96,252264,1,0
240,96,252360,1,0
320,96,252647,1,4
320,224,253411,5,4
240,208,253793,1,0
192,144,254175,1,0
192,64,254557,1,0
272,64,254940,1,0
320,64,255131,1,0
368,64,255322,1,0
416,64,255513,1,0
464,64,255704,1,0
464,112,255895,5,0
464,160,256086,1,0
464,208,256277,1,0
464,256,256468,1,0
416,256,256659,1,0
368,256,256850,1,0
320,256,257042,1,0
272,256,257233,1,0
272,256,257328,1,0
272,256,257424,1,0
272,256,257519,1,0
272,256,257615,1,4
80,192,258379,5,0
432,192,259143,1,0
336,192,259526,1,0
288,192,259717,1,0
240,192,259908,1,0
160,192,260290,1,0
160,144,260481,1,0
160,96,260672,1,0
160,48,260863,1,0
208,48,261054,1,0
256,48,261245,1,0
256,48,261436,1,4
352,48,262010,5,0
352,48,262105,1,0
352,48,262201,1,0
304,112,262583,2,0,B|240:176,4,70
368,112,263538,5,4
448,112,263921,1,4
448,192,264303,1,0
400,192,264494,1,4
288,32,265449,5,0
288,80,265640,5,0
288,128,265831,5,0
288,176,266022,5,0
368,176,266405,5,0
416,176,266596,5,4
256,208,266787,12,4,270991
