osu file format v9

[General]
AudioFilename: CU.mp3
AudioLeadIn: 800
PreviewTime: 53240
Countdown: 0
SampleSet: Soft
StackLeniency: 0.6
Mode: 0
LetterboxInBreaks: 0

[Editor]
Bookmarks: 70551
DistanceSpacing: 0.8
BeatDivisor: 2
GridSize: 4

[Metadata]
Title:I wanna see you
Artist:Abe Mao
Creator:jamxx
Version:Normal
Source:
Tags:Calpis CM commercial song

[Difficulty]
HPDrainRate:3
CircleSize:3
OverallDifficulty:3
ApproachRate:4
SliderMultiplier:1.2
SliderTickRate:2

[Events]
//Background and Video events
0,0,"BG.jpg"
//Break Periods
2,76070,82050
2,131382,142050
//Storyboard Layer 0 (Background)
//Storyboard Layer 1 (Fail)
//Storyboard Layer 2 (Pass)
//Storyboard Layer 3 (Foreground)
//Storyboard Sound Samples
//Background Colour Transformations
3,100,163,162,255

[TimingPoints]
870,468.75,4,2,1,45,1,0
7901,-100,4,2,1,55,0,0
38370,-100,4,2,1,65,0,0
51495,-100,4,2,1,55,0,0
53370,-100,4,2,1,75,0,1
68370,-100,4,2,1,75,0,0
83135,-100,4,2,1,55,0,0
98370,-100,4,2,1,65,0,0
111495,-100,4,2,1,55,0,0
113370,-100,4,2,1,75,0,1
128370,-100,4,2,1,75,0,0
131182,-100,4,2,1,5,0,0
143135,-100,4,2,1,55,0,0
171260,-100,4,2,1,75,0,0
171729,-100,4,2,1,65,0,0
173370,-100,4,2,1,75,0,1
192120,-100,4,2,1,75,0,0
208995,-100,4,1,0,75,0,0

[Colours]
Combo1 : 138,138,138
Combo2 : 255,185,255
Combo3 : 164,180,253
Combo4 : 255,162,117
Combo5 : 164,255,164
Combo6 : 179,179,179

[HitObjects]
154,132,870,2,0,B|210:96|266:132,1,120,0|2
313,216,1807,1,0
313,312,2276,1,2
216,312,2745,2,0,B|155:312,2,60,0|0|2
313,312,3682,2,0,B|349:256|313:200,1,120,0|2
257,120,4620,6,0,B|313:84|369:120,1,120,0|2
422,200,5557,2,0,B|422:261,2,60,0|0|2
475,120,6495,1,0
419,41,6963,2,0,B|363:5|307:41,2,120,2|0|4
475,120,8370,6,0,B|419:156|363:120,1,120,4|8
306,41,9307,1,0
259,121,9776,1,8
259,217,10245,2,0,B|251:245|211:253|171:245|163:217,2,120,0|8|0
259,121,11651,1,8
259,217,12120,6,0,B|267:245|307:253|347:245|355:217,1,120,0|8
355,120,13057,2,0,B|347:92|307:84|267:92|259:120,1,120,0|8
259,217,13995,2,0,B|251:245|211:253|171:245|163:217,1,120,0|8
163,120,14932,1,0
259,120,15401,1,8
354,120,15870,38,0,B|390:176|354:232,1,120,4|8
265,271,16807,1,0
168,271,17276,1,8
231,199,17745,2,0,B|273:183|316:186|353:222|362:271|342:309|308:337,1,240,0|0
212,357,19151,1,8
115,357,19620,6,0,B|79:301|115:245,2,120,0|8|0
212,357,21026,1,8
308,357,21495,2,0,B|344:301|308:245,1,120,0|8
211,244,22432,2,0,B|145:244,2,60,8|8|0
211,244,23370,5,4
278,176,23838,2,0,B|279:51,2,120,8|0|8
345,244,25245,1,0
441,244,25713,2,0,B|477:188|441:132,2,120,8|0|8
436,339,27120,5,0
341,339,27588,2,0,B|297:303|296:236|384:232|385:167|341:127,1,240,8|8
244,126,28995,1,0
148,126,29463,2,0,B|80:126,2,60,8|0|0
244,126,30401,38,0,B|280:182|244:238,1,120,8|4
165,294,31338,2,0,B|129:238|165:182,1,120,8|0
244,126,32276,1,8
339,126,32745,1,0
435,126,33213,6,0,B|471:182|435:238,2,120,8|0|8
338,126,34620,1,0
338,222,35088,2,0,B|338:287,1,60,0|8
337,41,36495,5,0
244,63,36963,2,0,B|174:63,1,60,0|8
172,159,37666,2,0,B|100:159,2,60,2|10|2
220,159,38370,6,0,B|256:215|220:271,1,120,4|8
132,311,39307,1,0
132,215,39776,1,8
54,159,40245,2,0,B|18:215|54:271,1,120,0|8
135,323,41182,1,0
231,323,41651,1,8
327,323,42120,37,0
422,323,42588,1,8
383,234,43057,2,0,B|327:198|271:234,1,120,0|8
231,323,43995,1,0
327,323,44463,1,8
422,323,44932,2,0,B|458:267|422:211,1,120,0|8
325,210,45870,6,0,B|289:154|325:98,1,120,0|8
421,107,46807,1,0
458,195,47276,1,8
421,283,47745,2,0,B|365:319|309:283,1,120,0|8
365,205,48682,2,0,B|309:169|253:205,1,120,0|8
187,276,49620,2,0,B|118:284|48:252|36:163|87:88|164:89|220:127,1,360,0|8
316,192,51495,54,0,B|381:192,2,60,0|0|0
267,192,52198,2,0,B|239:200|231:240|239:280|267:288,2,120,0|0|0
267,143,53370,6,0,B|211:107|155:143,1,120,4|8
154,239,54307,2,0,B|210:275|266:239,2,120,0|8|0
71,190,55713,1,8
154,143,56182,2,0,B|211:107|267:143,1,120,0|8
267,239,57120,5,2
172,239,57588,1,8
76,239,58057,2,0,B|-1:239,2,60,0|0|8
173,239,58995,6,0,B|209:183|173:127,1,120,2|8
94,70,59932,2,0,B|58:126|94:182,1,120,0|8
172,127,60870,6,0,B|181:97|221:89|261:97|269:125,1,120,4|8
269,222,61807,1,0
269,317,62276,1,8
365,317,62745,2,0,B|409:281|410:214|322:210|321:145|365:105,1,240,0|0
461,104,64151,1,8
364,104,64620,37,2
267,104,65088,1,8
171,104,65557,2,0,B|105:104,2,60,0|0|8
266,104,66495,6,0,B|296:112|304:152|296:192|268:200,1,120,2|8
185,246,67432,2,0,B|157:238|149:198|157:158|186:150,1,120,0|8
283,151,68370,5,4
379,151,68838,2,0,B|415:207|379:263,1,120,8|0
283,248,69776,1,8
283,151,70245,2,0,B|301:108|301:65|268:28|221:12|182:28|151:60,1,240,0|0
151,60,71651,1,8
91,136,72120,6,0,B|63:144|55:184|63:224|91:232,1,120,0|8
175,184,73057,2,0,B|203:176|211:136|203:96|175:88,1,120,0|8
92,40,73995,2,0,B|63:48|55:88|63:128|91:136,2,120,0|8|0
188,40,75401,1,8
283,40,75870,1,4
400,188,83370,37,4
400,284,83838,2,0,B|344:320|288:284,1,120,8|0
218,214,84776,1,8
151,147,85245,2,0,B|115:75|35:219|-1:147,2,180,0|0|8
218,214,87120,5,0
313,214,87588,2,0,B|449:214,2,120,8|0|8
244,282,88995,1,0
148,282,89463,2,0,B|79:282,2,60,8|0|0
244,282,90401,2,0,B|280:226|244:170,1,120,8|4
153,203,91338,6,0,B|124:169|112:128|128:80|173:54|216:59|255:81,1,240,8|8
344,119,92745,1,0
440,119,93213,2,0,B|476:175|440:231,2,120,8|0|8
344,119,94620,1,0
247,119,95088,2,0,B|182:119,1,60,0|8
20,291,96495,5,0
116,291,96963,2,0,B|186:291,1,60,0|8
234,215,97666,2,0,B|306:215,2,60,2|10|2
185,215,98370,38,0,B|149:159|185:103,1,120,4|8
273,63,99307,1,0
273,159,99776,1,8
350,215,100245,2,0,B|386:271|350:327,1,120,0|8
255,347,101182,1,0
158,347,101651,1,8
63,331,102120,5,0
11,250,102588,1,8
0,155,103057,2,0,B|56:119|112:155,1,120,0|8
117,251,103995,1,0
212,251,104463,1,8
223,155,104932,2,0,B|167:119|111:155,1,120,0|8
117,251,105870,6,0,B|173:287|229:251,1,120,0|8
223,155,106807,1,0
320,155,107276,1,8
342,251,107745,2,0,B|286:287|230:251,1,120,0|8
174,171,108682,2,0,B|230:135|286:171,1,120,0|8
371,126,109620,2,0,B|413:71|485:45|557:99|574:187|519:242|451:254,1,360,0|8
356,256,111495,22,0,B|272:200|188:256,1,180,0|0
159,348,112666,2,0,B|223:348,2,60
110,348,113370,22,0,B|74:292|110:236,1,120,4|8
193,187,114307,1,0
282,222,114776,1,8
249,131,115245,2,0,B|215:102|174:90|127:110|100:151|105:194|127:233,1,240,0|8
210,283,116651,1,8
306,283,117120,5,2
306,188,117588,1,8
306,92,118057,2,0,B|306:15,2,60,0|0|8
306,188,118995,2,0,B|250:224|194:188,1,120,2|8
110,141,119932,2,0,B|81:133|73:93|81:53|109:45,1,120,0|8
206,45,120870,6,0,B|236:54|244:94|236:134|208:142,2,120,4|8|0
109,45,122276,1,8
23,88,122745,2,0,B|-7:97|-15:137|-7:177|21:185,1,120,2|8
109,222,123682,1,0
196,261,124151,1,8
196,357,124620,5,2
292,357,125088,1,8
388,357,125557,2,0,B|454:357,2,60,0|0|8
292,357,126495,2,0,B|262:349|254:309|262:269|290:261,1,120,2|8
374,213,127432,2,0,B|402:221|410:261|402:301|373:309,2,120,0|8|4
256,192,128604,12,0,131182
200,152,143370,38,0,B|256:116|312:152,1,120,4|2
312,248,144307,1,0
120,248,145245,2,0,B|91:240|83:200|91:160|119:152,2,120,0|2|0
312,248,147120,6,0,B|348:192|312:136,1,120,0|2
232,80,148057,2,0,B|196:136|232:192,1,120,0|2
312,248,148995,1,0
408,248,149463,1,2
408,151,149932,2,0,B|400:122|360:114|320:122|312:150,1,120,0|2
312,248,150870,6,0,B|304:277|264:285|224:277|216:249,1,120,0|2
201,202,151573,2,0,B|177:142|81:142|57:202,1,180,0|2
47,297,152745,2,0,B|55:326|95:334|135:326|143:297,1,120,0|2
167,255,153448,2,0,B|256:224|344:256,1,180,0|2
256,192,154620,12,4,156260
208,144,158370,53,0
304,144,158838,1,2
304,240,159307,1,0
208,240,159776,1,2
208,335,160245,2,0,B|200:364|160:372|120:364|112:336,1,120,0|2
112,240,161182,2,0,B|120:211|160:203|200:211|208:239,1,120,0|2
253,324,162120,6,0,B|297:312|333:288|337:240|333:192|297:168|253:156,1,240,0|2
60,155,163995,1,0
114,75,164463,1,2
205,46,164932,1,0
300,46,165401,1,2
391,75,165870,38,0,B|420:83|428:123|420:163|392:171,1,120,0|2
300,202,166807,1,0
203,202,167276,1,2
106,202,167745,2,0,B|70:258|106:314,1,120,0|2
203,314,168682,2,0,B|239:258|203:202,1,120,0|2
106,202,169620,2,0,B|40:180|-7:120|19:34|97:-9|167:24|200:84,1,360,0|2
287,125,171495,6,0,B|316:133|324:173|316:213|288:221,1,120,4|2
203,173,172432,2,0,B|174:181|166:221|174:261|202:269,1,120,0|0
284,322,173370,6,0,B|340:358|396:322,1,120,4|8
396,225,174307,1,2
299,225,174776,1,8
216,273,175245,2,0,B|187:265|179:225|187:185|215:177,1,120,4|8
312,176,176182,2,0,B|341:168|349:128|341:88|313:80,1,120,2|8
216,79,177120,6,0,B|147:79,2,60,4|0|8
312,79,178057,2,0,B|433:79,1,120,2|8
432,174,178995,6,0,B|404:235|338:235,1,120,4|8
241,236,179932,2,0,B|173:235|146:174,1,120,2|8
200,95,180870,6,0,B|144:59|88:95,1,120,4|8
24,167,181807,1,2
92,235,182276,1,8
188,235,182745,2,0,B|217:227|225:187|217:147|189:139,1,120,4|8
92,138,183682,2,0,B|63:146|55:186|63:226|91:234,1,120,2|8
188,235,184620,38,0,B|308:235,1,120,4|8
404,235,185557,2,0,B|467:235,2,60,2|0|8
308,235,186495,1,4
308,139,186963,2,0,B|308:77,2,60,8|0|2
308,331,188370,6,0,B|300:360|260:368|220:360|212:332,1,120,4|8
143,263,189307,2,0,B|114:255|106:215|114:175|142:167,1,120,4|8
223,114,190245,1,4
319,114,190713,1,8
392,176,191182,1,4
392,272,191651,1,8
312,325,192120,6,0,B|256:361|200:325,1,120,4|8
256,247,193057,2,0,B|200:211|144:247,1,120,0|8
102,334,193995,2,0,B|55:331|16:312|-1:266|4:217|35:189|78:175,1,240,0|0
173,160,195401,1,8
220,243,195870,6,0,B|228:271|268:279|308:271|316:243,1,120,0|8
268,159,196807,2,0,B|260:131|220:123|180:131|172:159,1,120,0|8
123,243,197745,2,0,B|115:272|75:280|35:272|27:244,2,120,0|8|0
75,159,199151,1,8
148,96,199620,54,0,B|204:60|260:96,1,120,4|8
260,192,200557,1,0
260,288,201026,1,8
181,342,201495,2,0,B|125:378|69:342,1,120,0|8
68,245,202432,1,0
68,148,202901,1,8
164,147,203370,6,0,B|172:119|212:111|252:119|260:147,1,120,4|8
212,231,204307,2,0,B|204:259|164:267|124:259|116:231,1,120,4|8
68,148,205245,2,0,B|76:119|116:111|156:119|164:147,1,120,4|8
115,230,206182,2,0,B|107:258|67:266|27:258|19:230,1,120,4|8
256,192,207120,12,0,208995
