osu file format v7

[General]
AudioFilename: 08.mp3
AudioLeadIn: 0
PreviewTime: 91080
Countdown: 0
SampleSet: Soft
StackLeniency: 0.7
Mode: 0
LetterboxInBreaks: 1

[Editor]
Bookmarks: 22884,44948,69776,91850,116678,138747,160815,182884,204953
DistanceSpacing: 1
BeatDivisor: 4
GridSize: 16

[Metadata]
Title:The Doll Maker of Bucuresti-
Artist:Abe Hidari
Creator:impossiblexu
Version:Normal
Source:Touhou
Tags:Alice Mystic Heart efs Masayoshi Yagami

[Difficulty]
HPDrainRate:5
CircleSize:3
OverallDifficulty:5
SliderMultiplier:1.9
SliderTickRate:2

[Events]
//Background and Video events
0,0,"BG alice2.jpg"
//Break Periods
2,69981,90650
//Storyboard Layer 0 (Background)
//Storyboard Layer 1 (Fail)
//Storyboard Layer 2 (Pass)
//Storyboard Layer 3 (Foreground)
Sprite,Foreground,Centre,"doll.png",249,128 M,0,91678,,249,128 F,0,91678,,0 F,0,91678,91840,0,1 S,0,91678,91840,0.6240005 F,0,91926,92443,1,0.3 F,0,92443,92615,0.3,1 F,0,92615,93133,1,0.3 F,0,93133,93305,0.3,1 F,0,93305,93822,1,0.3 F,0,93822,93995,0.3,1 F,0,93995,94512,1,0.3 F,0,94512,94684,0.3,1 F,0,94684,95201,1,0.3 F,0,95201,95374,0.3,1 F,0,95374,95891,1,0.3 F,0,95891,96063,0.3,1 F,0,96063,96581,1,0.3 F,0,96581,96753,0.3,1 F,0,96753,97270,1,0.3 F,0,97270,97443,0.3,1 F,0,97443,97960,1,0.3 F,0,97960,98132,0.3,1 F,0,98132,98649,1,0.3 F,0,98649,98822,0.3,1 F,0,98822,99339,1,0.3 F,0,99339,99511,0.3,1 F,0,99511,100029,1,0.3 F,0,100029,100201,0.3,1 F,0,100201,100718,1,0.3 F,0,100718,100891,0.3,1 F,0,100891,101408,1,0.3 F,0,101408,101580,0.3,1 F,0,101580,102097,1,0.3 F,0,102097,102270,0.3,1 F,0,102270,102787,1,0.3 F,0,102787,102959,0.3,1 F,0,102959,103477,1,0.3 F,0,103477,103649,0.3,1 F,0,103649,104166,1,0.3 F,0,104166,104339,0.3,1 F,0,104339,104856,1,0.3 F,0,104856,105028,0.3,1 F,0,105028,105545,1,0.3 F,0,105545,105718,0.3,1 F,0,105718,106235,1,0.3 F,0,106235,106407,0.3,1 F,0,106407,106925,1,0.3 F,0,106925,107097,0.3,1 F,0,107097,107614,1,0.3 F,0,107614,107787,0.3,1 F,0,107787,108304,1,0.3 F,0,108304,108476,0.3,1 F,0,108476,108993,1,0.3 F,0,108993,109166,0.3,1 F,0,109166,109683,1,0.3 F,0,109683,109855,0.3,1 F,0,109855,110373,1,0.3 F,0,110373,110545,0.3,1 F,0,110545,111062,1,0.3 F,0,111062,111235,0.3,1 F,0,111235,111752,1,0.3 F,0,111752,111924,0.3,1 F,0,111924,112441,1,0.3 F,0,112441,112614,0.3,1 F,0,112614,113131,1,0.3 F,0,113131,113303,0.3,1 F,0,113303,113821,1,0.3 F,0,113821,114599,1,0
//Storyboard Sound Samples
//Background Colour Transformations
3,100,163,162,255

[TimingPoints]
22885,689.655172413793,4,2,0,30,1,0
43402,-200,4,2,0,30,0,0
44781,-100,4,2,0,50,0,0
65471,-200,4,2,1,50,0,0
66860,-100,4,2,0,50,0,0
66862,-100,4,2,0,14,0,0
67712,-100,4,2,0,27,0,0
68402,-100,4,2,0,38,0,0
69091,-100,4,2,0,50,0,0
91850,-100,4,2,0,50,0,1
100638,-100,4,2,1,50,0,1
100983,-100,4,2,0,50,0,1
102798,-100,4,2,0,50,0,0
102884,-100,4,2,0,50,0,1
111673,-100,4,2,1,50,0,1
112017,-100,4,2,0,50,0,1
113574,-100,4,2,0,50,0,0
113655,-100,4,2,0,0,0,0
116676,-100,4,2,0,31,0,0
138576,-100,4,2,0,50,0,0
142022,-100,4,2,1,50,0,0
142367,-100,4,2,0,50,0,0
203402,-200,4,2,0,29,0,0

[Colours]
Combo1 : 126,47,136
Combo2 : 232,52,100
Combo3 : 253,223,159

[HitObjects]
104,64,22884,2,0,B|176:152|291:145,1,190,6|0
245,66,23919,2,0,B|357:66|429:146,1,190
375,208,24953,1,0
375,208,25298,1,0
307,260,25643,6,0,B|220:302|116:261,2,190,2|0|0
240,200,27367,1,0
221,121,27712,1,0
292,72,28057,6,0,B|335:162|444:183,1,190,2|0
475,265,29091,1,0
401,320,29436,1,0
315,318,29781,2,0,B|226:276|126:313,1,190
68,251,30816,1,0
103,173,31160,6,0,B|154:157|169:107,1,95,2|0
232,166,31850,2,0,B|270:196|331:195,1,95
372,126,32540,2,0,B|419:150|420:205,2,95
369,265,33919,6,0,B|294:313|173:300,1,190,6|0
229,227,34953,2,0,B|120:230|52:157,1,190
123,107,35988,1,0
105,23,36333,1,0
190,30,36678,6,0,B|285:79|385:25,2,190,2|0|0
130,103,38402,1,0
209,154,38747,1,0
297,120,39091,6,0,B|321:219|412:271,1,190,2|2
367,354,40126,1,0
272,363,40471,1,0
189,317,40816,2,0,B|139:308|97:335,1,95,2|2
33,264,41505,1,0
78,182,41850,1,0
163,141,42195,6,0,B|207:161|261:153,1,95,2|2
259,240,42885,2,0,B|309:260|358:242,1,95,2|2
398,316,43574,2,2,B|462:250|406:181,1,142.5
344,120,44953,5,4
261,73,45298,1,0
182,126,45643,1,8
101,74,45988,1,0
36,143,46333,2,0,B|56:199|111:223,1,95
54,300,47022,2,0,B|97:328|154:314,1,95,8|0
183,228,47712,6,0,B|277:191|373:233,2,190,0|8|0
114,162,49436,1,0
179,92,49781,1,8
270,117,50126,6,0,B|374:88|467:132,1,190
470,221,51160,2,0,B|431:261|440:314,1,95,8|0
343,306,51850,1,0
267,247,52195,1,0
191,304,52540,1,8
116,245,52885,1,0
159,160,53229,6,0,B|204:182|259:164,3,95,0|0|8|0
263,71,54609,1,0
345,118,54953,1,0
333,212,55298,1,8
168,306,55988,6,0,B|131:271|79:275,1,95,4|0
106,182,56678,1,8
106,182,57022,1,0
170,112,57367,2,0,B|207:138|264:133,1,95
308,50,58057,1,8
308,50,58402,1,0
384,106,58747,6,0,B|341:200|388:295,3,190,0|8|0|8
296,322,61160,6,0,B|205:353|102:333,1,190
53,256,62195,1,8
53,256,62540,1,0
128,198,62885,2,0,B|176:218|224:195,1,95
292,135,63574,2,0,B|348:144|369:199,1,95,8|0
280,232,64264,5,0
360,282,64609,1,0
448,247,64953,1,8
443,152,65298,1,0
367,94,65643,2,2,B|303:52|216:71,1,142.5
256,192,67022,12,4,69781
161,153,91850,6,0,B|132:202|164:249,2,95,4|0|8
351,158,93229,2,0,B|380:207|348:254,2,95,0|0|8
236,310,94609,5,0
149,272,94953,1,0
119,181,95298,1,8
149,91,95643,1,0
231,43,95988,1,0
325,36,96333,2,0,B|325:95,2,47.5,0|0|8
416,61,97022,1,0
474,136,97367,6,0,B|392:209|437:317,1,190,0|8
346,347,98402,1,0
251,339,98747,2,0,B|142:353|67:283,1,190,0|8
58,195,99781,1,0
113,114,100126,6,0,B|189:144|216:226,2,142.5
178,44,101505,1,0
261,89,101850,1,0
347,49,102195,1,8
423,104,102540,1,0
390,193,102885,6,0,B|344:222|289:187,2,95,4|0|8
199,194,104264,2,0,B|154:222|108:193,2,95,0|0|8
45,82,105643,5,0
127,35,105988,1,0
214,73,106333,2,0,B|253:109|306:103,1,95,8|0
392,76,107022,1,0
444,155,107367,2,0,B|499:155,2,47.5,0|0|8
390,234,108057,6,0,B|390:289,2,47.5,0|0|2
217,153,109091,1,8
46,237,109781,1,2
218,316,110471,1,8
389,234,111160,6,0,B|91:233,1,285,2|0
106,139,112540,1,2
24,187,112885,1,0
27,281,113229,1,10
106,333,113574,1,0
256,192,113747,12,0,115988
205,44,116678,6,0,B|145:133|206:227,1,190,4|2
362,160,118057,2,0,B|411:257|353:344,1,190,0|2
276,306,119091,1,0
223,238,119436,6,0,B|135:288|31:239,1,190,0|2
36,72,120816,2,0,B|130:27|226:75,1,190,0|2
170,142,121850,1,0
216,213,122195,6,0,B|311:267|308:159|411:232,1,190,0|2
397,307,123229,1,0
311,305,123574,2,0,B|227:355|206:252|116:324,1,190,0|2
19,183,124953,5,4
128,48,125643,1,2
224,184,126333,1,4
344,63,127022,1,2
424,93,127367,1,0
464,168,127712,6,0,B|414:261|467:360,1,190,4|2
290,350,129091,2,0,B|338:260|288:167,1,190,0|2
210,204,130126,1,0
137,249,130471,6,0,B|88:159|138:66,1,190,0|2
303,113,131850,2,0,B|401:149|502:108,1,190,0|2
502,197,132885,1,0
445,261,133229,5,0
285,323,133919,2,0,B|241:298|181:311,1,95,2|0
107,316,134609,1,0
48,253,134953,2,0,B|0:291,2,47.5,0|0|2
18,172,135643,1,0
61,98,135988,1,0
256,192,136160,12,0,138057
256,86,138747,5,4
236,274,139436,1,8
321,315,139781,1,0
415,318,140126,2,0,B|371:216|460:149,1,190,0|8
299,46,141505,6,0,B|192:33|95:99|84:212,1,285
129,277,142885,1,0
318,262,143574,1,8
396,315,143919,1,0
476,263,144264,6,0,B|497:153|408:94,1,190,0|8
331,147,145298,1,0
249,195,145643,2,0,B|159:148|60:192,1,190,0|8
65,284,146678,6,0,B|158:325|248:278,1,190
294,361,147712,1,8
377,314,148057,1,0
340,226,148402,1,0
430,195,148747,1,0
394,107,149091,1,8
218,34,149781,6,0,B|172:122|49:132,1,190,4|8
26,217,150816,1,0
54,307,151160,2,0,B|148:352|255:316,1,190,0|8
176,140,152540,6,0,B|289:164|356:97,1,190,0|8
443,68,153574,1,0
500,143,153919,2,0,B|455:239|507:335,1,190,0|8
408,341,154953,6,0,B|315:377|223:379|123:337,1,285,0|8
74,262,156333,1,0
123,180,156678,1,0
300,113,157367,1,8
254,196,157712,6,0,B|302:222|357:194,1,95
420,139,158402,1,0
476,215,158747,2,0,B|446:260|459:320,1,95,8|0
362,290,159436,2,0,B|313:269|262:291,1,95
186,335,160126,2,0,B|137:304|147:241,1,95,8|0
205,180,160816,6,0,B|299:219|297:137|399:194,2,190,4|8|0
117,141,162540,1,0
189,79,162885,1,8
283,91,163229,1,0
375,64,163574,6,0,B|481:87|487:209,1,190,0|8
406,251,164609,1,0
315,279,164953,2,0,B|221:237|119:279,1,190,0|8
80,208,165988,6,0,B|140:119|75:27,1,190
172,28,167022,1,8
255,72,167367,1,0
294,158,167712,2,0,B|338:190|389:183,1,95
450,251,168402,1,8
395,329,168747,1,0
306,294,169091,6,0,B|258:270|211:292,3,95,0|0|8|0
129,246,170471,1,0
183,168,170816,1,0
275,190,171160,1,8
442,99,171850,6,0,B|364:34|250:56,1,190,4|8
169,64,172885,2,0,B|67:93|27:189,1,190
45,277,173919,1,8
227,328,174609,5,2
336,176,175298,1,0
448,328,175988,2,8,B|493:236|444:137,1,190,2|8
368,197,177022,6,0,B|281:229|279:137|169:206,1,190
111,255,178057,1,8
111,255,178402,1,0
177,323,178747,2,0,B|228:309|271:334,1,95
322,254,179436,1,8
322,254,179781,1,0
415,270,180126,5,0
481,201,180471,2,0,B|535:175,2,47.5,0|0|8
397,155,181160,1,0
302,168,181505,2,0,B|196:200|104:153,1,190,0|8
21,161,182540,1,0
23,255,182885,6,0,B|100:323|214:309,1,190,4|8
294,310,183919,2,0,B|393:322|470:254,1,190
478,160,184953,1,8
413,92,185298,1,0
318,80,185643,6,0,B|287:121|229:125,1,95
150,84,186333,2,0,B|103:118|101:176,1,95,8|0
77,254,187022,1,0
153,310,187367,2,0,B|203:333|259:309,1,95,0|8
219,222,188057,6,0,B|311:183|417:227,1,190
462,146,189091,2,0,B|453:90|490:48,1,95,8|0
391,31,189781,1,0
302,65,190126,1,0
278,157,190471,2,0,B|235:190|182:179,1,95,8|0
116,117,191160,6,0,B|54:130|37:189|60:240|134:251,1,190,0|8
205,285,192195,1,0
293,251,192540,2,0,B|334:218|387:230,2,95,0|0|8
291,60,193919,6,0,B|254:130|247:130|220:42|191:130|184:131|146:55,1,190,0|8
68,111,194953,1,0
38,201,195298,2,0,B|175:198|34:304|179:301,1,190,0|8
257,283,196333,1,0
345,247,196678,6,0,B|383:204|371:150,1,95
278,168,197367,2,0,B|261:109|193:113,1,95,8|0
168,199,198057,1,0
44,54,198747,1,8
132,87,199091,6,0,B|227:126|325:82,1,190
406,118,200126,1,8
447,203,200471,1,0
378,268,200816,2,0,B|318:264|293:319,1,95
209,344,201505,1,8
124,299,201850,1,0
101,206,202195,5,2
165,135,202540,1,0
258,113,202885,1,10
349,139,203229,1,0
413,209,203574,2,2,B|367:305|239:289,1,190,2|6
