osu file format v7

[General]
AudioFilename: 08.mp3
AudioLeadIn: 0
PreviewTime: 91080
Countdown: 0
SampleSet: Normal
StackLeniency: 0.7
Mode: 0
LetterboxInBreaks: 1

[Editor]
Bookmarks: 22884,44948,69776,91850,116678,138747,160815,182884,204953
DistanceSpacing: 1.20000004768372
BeatDivisor: 8
GridSize: 8

[Metadata]
Title:The Doll Maker of Bucuresti-
Artist:Abe Hidari
Creator:impossiblexu
Version:Hard
Source:Touhou
Tags:Alice Mystic Heart efs Masayoshi Yagami

[Difficulty]
HPDrainRate:6
CircleSize:4
OverallDifficulty:6
SliderMultiplier:2.5
SliderTickRate:2

[Events]
//Background and Video events
0,0,"BG alice3.jpg"
//Break Periods
2,69981,90800
//Storyboard Layer 0 (Background)
//Storyboard Layer 1 (Fail)
//Storyboard Layer 2 (Pass)
//Storyboard Layer 3 (Foreground)
Sprite,Foreground,Centre,"book2.png",320,240 F,0,91603,,0 F,0,91603,91765,0,1 S,0,91603,91765,0.6240005 M,0,91603,92551,443,289,444,289 F,0,91851,92368,1,0.3 F,0,92368,92540,0.3,1 F,0,92540,93058,1,0.3 F,0,93058,93230,0.3,1 F,0,93230,93747,1,0.3 F,0,93747,93920,0.3,1 F,0,93920,94437,1,0.3 F,0,94437,94609,0.3,1 F,0,94609,95126,1,0.3 F,0,95126,95299,0.3,1 F,0,95299,95816,1,0.3 F,0,95816,95988,0.3,1 F,0,95988,96506,1,0.3 F,0,96506,96678,0.3,1 F,0,96678,97195,1,0.3 F,0,97195,97368,0.3,1 F,0,97368,97885,1,0.3 F,0,97885,98057,0.3,1 F,0,98057,98574,1,0.3 F,0,98574,98747,0.3,1 F,0,98747,99264,1,0.3 F,0,99264,99436,0.3,1 F,0,99436,99954,1,0.3 F,0,99954,100126,0.3,1 F,0,100126,100643,1,0.3 F,0,100643,100816,0.3,1 F,0,100816,101333,1,0.3 F,0,101333,101505,0.3,1 F,0,101505,102022,1,0.3 F,0,102022,102195,0.3,1 F,0,102195,102712,1,0.3 F,0,102712,102884,0.3,1 F,0,102884,103402,1,0.3 F,0,103402,103574,0.3,1 F,0,103574,104091,1,0.3 F,0,104091,104264,0.3,1 F,0,104264,104781,1,0.3 F,0,104781,104953,0.3,1 F,0,104953,105470,1,0.3 F,0,105470,105643,0.3,1 F,0,105643,106160,1,0.3 F,0,106160,106332,0.3,1 F,0,106332,106850,1,0.3 F,0,106850,107022,0.3,1 F,0,107022,107539,1,0.3 F,0,107539,107712,0.3,1 F,0,107712,108229,1,0.3 F,0,108229,108401,0.3,1 F,0,108401,108918,1,0.3 F,0,108918,109091,0.3,1 F,0,109091,109608,1,0.3 F,0,109608,109780,0.3,1 F,0,109780,110298,1,0.3 F,0,110298,110470,0.3,1 F,0,110470,110987,1,0.3 F,0,110987,111160,0.3,1 F,0,111160,111677,1,0.3 F,0,111677,111849,0.3,1 F,0,111849,112366,1,0.3 F,0,112366,112539,0.3,1 F,0,112539,113056,1,0.3 F,0,113056,113228,0.3,1 F,0,113228,113746,1,0.3 F,0,113746,114524,1,0
//Storyboard Sound Samples
//Background Colour Transformations
3,100,163,162,255

[TimingPoints]
22885,689.655172413793,4,2,0,30,1,0
36495,-100,4,2,2,30,0,0
38219,-100,4,2,0,30,0,0
44512,-100,4,1,0,35,0,0
54512,-100,4,1,0,10,0,0
54857,-100,4,1,0,20,0,0
55202,-100,4,1,0,30,0,0
55547,-100,4,1,0,40,0,0
55892,-100,4,1,0,50,0,0
66862,-100,4,2,0,14,0,0
67712,-100,4,2,0,27,0,0
68402,-100,4,2,0,38,0,0
69091,-100,4,2,0,50,0,0
91850,-100,4,1,0,50,0,1
102798,-100,4,1,0,50,0,0
102884,-100,4,1,0,50,0,1
113574,-100,4,1,0,50,0,0
113650,-100,4,2,0,20,0,0
116150,-100,4,2,0,20,0,0
116495,-200,4,2,0,33,0,0
138392,-100,4,1,0,50,0,0
159350,-100,4,1,0,16,0,0
159695,-100,4,1,0,28,0,0
160040,-100,4,1,0,37,0,0
160384,-100,4,1,0,50,0,0
203660,-100,4,2,0,50,0,0

[Colours]
Combo1 : 163,133,92
Combo2 : 98,25,35
Combo3 : 36,88,196

[HitObjects]
120,56,22885,2,0,B|177:99|261:75,1,125,4|2
297,102,23402,1,0
355,80,23574,1,0
446,165,23919,1,2
402,282,24264,2,0,B|455:325,2,62.5,0|0|2
279,307,24953,2,0,B|206:294|152:323,1,125,0|2
35,287,25643,5,2
256,32,26333,1,2
486,290,27022,1,2
361,300,27367,1,0
361,300,27540,1,0
361,300,27712,1,0
239,270,28057,6,0,B|161:158|17:147,1,250,2|2
70,30,29091,1,0
120,66,29264,1,0
178,43,29436,2,0,B|239:75|311:49,1,125,2|0
406,118,30126,1,2
388,241,30471,2,0,B|445:300,2,62.5,0|0|2
278,322,31160,5,2
108,266,31505,1,0
67,112,31850,1,2
201,24,32195,1,0
361,68,32540,1,2
404,213,32885,1,2
249,165,33229,1,2
29,128,33919,6,0,B|7:191|40:252,1,125,4|2
89,212,34436,1,0
144,182,34609,2,0,B|182:239|264:232,1,125,0|2
375,254,35298,2,0,B|429:205|409:133,1,125,0|2
351,161,35816,1,0
291,180,35988,2,0,B|280:111|328:50,1,125,0|2
200,80,36678,6,0,B|219:142|175:216|90:215|32:178,2,250
75,64,38402,1,2
75,64,38574,1,0
75,64,38747,1,0
33,181,39091,6,0,B|24:337|181:187|186:346,1,250,2|2
247,341,39953,1,0
305,319,40126,2,0,B|360:281|443:289,1,125,0|2
411,162,40816,1,0
411,162,40988,1,0
411,162,41160,1,2
288,135,41505,1,0
288,135,41678,1,0
288,135,41850,1,2
163,145,42195,6,0,B|138:205|56:226,1,125,0|2
39,276,42712,1,0
76,326,42885,1,2
256,205,43229,1,2
436,326,43574,1,2
256,192,43660,12,0,44609
256,192,44953,5,4
404,173,45298,1,0
447,234,45471,1,0
408,298,45643,1,8
262,336,45988,1,0
115,302,46333,1,0
115,227,46505,1,0
42,205,46678,1,0
108,71,47022,2,0,B|70:19,2,62.5,8|0|0
257,56,47712,6,0,B|179:173|354:170|245:300,2,250,0|8|0
381,140,49436,1,0
381,140,49609,1,0
381,140,49781,2,0,B|338:200|366:277,1,125,8|0
230,335,50471,5,0
82,305,50816,1,0
82,305,50988,1,0
82,305,51160,2,0,B|87:237|25:194,1,125,8|0
28,121,51678,1,0
95,88,51850,1,0
225,161,52195,1,0
354,84,52540,1,8
483,158,52885,1,0
427,297,53229,6,0,B|363:276|304:314,1,125
233,327,53747,1,0
173,281,53919,2,0,B|142:217|64:216,1,125,8|0
95,67,54609,1,0
105,73,54781,1,0
116,76,54953,1,0
128,78,55126,1,0
140,79,55298,1,8
152,79,55471,1,0
164,78,55643,1,0
176,77,55816,1,0
188,77,55988,6,0,B|259:64|312:111,1,125,4|0
303,180,56505,1,0
370,212,56678,2,0,B|333:279|373:346,1,125,8|0
215,331,57367,2,0,B|177:289|130:349|77:309,3,125,0|0|8|0
47,261,58574,1,0
83,195,58747,6,0,B|152:174|161:93,1,125
303,62,59436,1,8
303,62,59609,1,0
303,62,59781,1,0
418,158,60126,2,0,B|379:220|398:284,1,125
332,317,60643,1,0
257,306,60816,1,8
110,275,61160,6,0,B|25:236|19:124|79:51,1,250
118,119,62022,1,0
167,169,62195,2,0,B|224:132|294:144,1,125,8|0
246,287,62885,1,0
246,287,63057,1,0
246,287,63229,1,0
393,315,63574,2,0,B|390:242|457:198,1,125,8|0
357,84,64264,5,0
171,56,64609,1,0
102,230,64953,1,8
289,239,65298,1,0
280,229,65471,1,0
271,220,65643,1,0
262,211,65816,1,0
253,201,65988,1,0
96,72,66333,5,8
96,296,66678,1,0
256,192,67022,12,4,69781
112,48,91850,5,4
74,112,92022,2,0,B|36:111,2,31.25
74,187,92367,1,0
119,247,92540,2,0,B|181:219|251:249,1,125,8|0
234,319,93057,1,0
304,342,93229,5,0
376,322,93402,2,0,B|400:357,2,31.25
428,264,93747,1,0
395,196,93919,2,0,B|331:224|261:192,1,125,8|0
124,222,94609,6,0,B|97:194|102:154,1,62.5
97,151,94867,1,0
100,135,94953,1,0
144,74,95126,1,0
213,105,95298,2,0,B|271:80|340:107,1,125,8|0
278,155,95816,6,0,B|345:177|413:151,1,125
476,158,96333,1,0
487,231,96505,1,0
487,231,96591,1,0
487,231,96678,1,8
362,313,97022,1,0
216,277,97367,5,0
143,258,97540,1,0
143,258,97626,1,0
143,258,97712,1,0
111,190,97885,2,0,B|156:131|108:60,1,125
178,30,98402,1,0
312,96,98747,5,0
375,135,98919,2,0,B|374:175,2,31.25
449,125,99264,1,0
480,192,99436,2,0,B|451:218|460:258,2,62.5,8|0|0
339,246,100126,6,0,B|306:261|265:244,1,62.5
262,247,100385,1,0
247,238,100471,1,0
186,193,100643,2,0,B|136:144|56:160,1,125
48,85,101160,1,0
197,77,101505,5,8
255,173,101678,1,0
312,76,101850,1,8
315,268,102195,5,8
255,174,102367,1,0
202,267,102540,1,8
70,75,102885,5,0
30,139,103057,1,0
30,139,103143,1,0
30,139,103229,1,0
72,201,103402,1,0
28,262,103574,2,0,B|70:308|151:303,1,125,8|0
174,235,104091,6,0,B|209:238|229:267,1,62.5
234,275,104350,1,0
244,286,104436,1,0
319,290,104609,2,0,B|354:304|391:290,2,62.5,0|0|8
371,149,105298,1,0
266,41,105643,5,0
191,31,105816,2,0,B|191:72,2,31.25
119,51,106160,1,0
58,99,106333,2,0,B|85:161|35:227,1,125,8|0
78,283,106850,1,0
144,317,107022,5,0
217,299,107195,1,0
217,299,107281,1,0
217,299,107367,2,0,B|252:314|288:309,2,62.5,0|0|8
186,151,108057,1,0
224,86,108229,1,0
296,104,108402,5,8
354,56,108574,1,0
354,56,108660,1,0
354,56,108747,1,0
423,84,108919,1,0
397,154,109091,5,8
444,211,109264,1,0
444,211,109350,1,0
444,211,109436,1,0
389,262,109609,1,0
323,225,109781,5,8
280,286,109953,1,0
216,246,110126,1,0
249,179,110298,1,0
178,152,110471,2,0,B|131:200|53:183,1,125,8|0
22,248,110988,1,0
61,311,111160,6,2,B|131:373|249:346,1,187.5
309,326,111850,1,8
309,326,111936,1,0
309,326,112022,1,0
297,251,112195,1,0
344,192,112367,1,0
419,192,112540,5,8
255,61,112885,1,0
93,192,113229,1,8
255,323,113574,1,0
256,192,113660,12,0,115988
257,58,116333,5,0
198,104,116678,2,0,B|259:132|320:102,1,125,4|2
403,226,118057,2,0,B|346:259|279:227,1,125,0|2
215,195,119091,1,0
140,205,119436,6,0,B|97:149|137:78,2,125,0|2|0
67,336,121505,1,2
67,336,121850,1,0
67,336,122195,6,0,B|112:289|189:304,1,125,0|2
256,306,123229,1,0
328,325,123574,2,0,B|403:342|452:290,1,125,0|2
357,191,124953,5,2
255,66,125643,1,0
162,192,126333,1,2
61,303,127022,1,2
128,334,127367,1,0
194,299,127712,6,0,B|249:265|323:287,1,125,4|2
464,282,129091,2,0,B|497:222|455:152,1,125,0|2
387,178,130126,1,0
318,208,130471,6,0,B|262:234|191:209,1,125,0|2
192,64,131850,2,0,B|254:39|315:65,1,125,0|2
312,136,132885,1,0
240,136,133229,6,0,B|180:103|180:179|106:134,1,125,0|2
53,171,134264,1,0
32,243,134609,1,0
65,309,134953,1,0
65,309,135126,1,0
65,309,135298,1,2
134,338,135643,1,0
208,327,135988,5,2
256,192,136160,12,0,138057
124,171,138747,5,4
216,288,139091,1,0
362,254,139436,1,8
370,104,139781,1,0
296,117,139953,1,0
239,67,140126,2,0,B|207:103|162:104|120:65,2,125,0|0|8
131,171,141160,1,0
192,308,141505,6,0,B|258:334|319:305,1,125
374,263,142022,1,0
407,195,142195,2,0,B|449:135|397:69,1,125,8|0
256,50,142884,1,0
256,50,143057,1,0
256,50,143229,1,0
106,55,143574,1,8
45,192,143919,1,0
142,305,144264,6,0,B|229:272|333:314,1,187.5
325,310,144953,1,8
447,223,145298,1,0
401,80,145643,2,0,B|427:20,2,62.5
251,58,146333,1,8
111,126,146678,6,0,B|190:128|230:208|190:288|99:286,1,250
158,347,147540,1,0
232,345,147712,1,8
384,192,148057,1,0
256,64,148402,1,0
128,192,148747,1,0
256,320,149091,1,8
439,82,149781,6,0,B|365:172|427:263,1,187.5,4|0
421,254,150471,1,8
282,310,150816,1,0
132,303,151160,1,0
73,255,151333,1,0
92,182,151505,1,0
200,78,151850,2,0,B|260:110|340:90,1,125,8|0
454,155,152540,6,0,B|401:219|270:207,1,187.5
281,207,153229,1,8
134,179,153574,1,0
72,316,153919,2,0,B|173:352|257:323,1,187.5
255,323,154609,1,8
151,216,154953,6,0,B|211:237|281:217,1,125
349,209,155471,1,0
415,170,155643,1,0
329,46,155988,1,8
179,51,156333,2,0,B|179:127,2,62.5
50,129,157022,1,0
89,273,157367,1,8
89,273,157540,1,0
89,273,157712,6,0,B|141:316|222:313,1,125
355,308,158402,1,0
355,308,158574,1,0
355,309,158747,2,0,B|418:311|470:268,1,125,8|0
389,114,159436,5,0
376,111,159609,1,0
364,106,159781,1,0
351,107,159953,1,0
338,109,160126,1,8
325,110,160298,1,0
312,109,160471,1,0
302,105,160643,1,0
292,104,160816,6,0,B|235:128|169:104,1,125,4|0
57,192,161505,1,8
207,193,161850,1,0
132,323,162195,1,0
132,248,162367,1,0
132,173,162540,1,0
221,52,162884,2,0,B|279:79|360:71,1,125,8|0
417,61,163402,1,0
461,121,163574,6,0,B|343:203|378:349,2,250,0|8|0
469,270,165298,1,0
469,270,165471,1,0
469,270,165643,1,8
323,308,165988,6,0,B|258:318|194:289,1,125
78,204,166678,1,0
28,147,166850,1,0
49,75,167022,1,8
193,34,167367,1,0
324,105,167712,2,0,B|380:139|461:134,1,125
324,226,168402,2,0,B|380:260|461:255,1,125,8|0
324,164,169091,6,0,B|268:198|187:193,1,125,0|0
324,284,169781,2,0,B|268:318|187:313,1,125,8|0
56,286,170471,1,0
22,219,170643,1,0
63,156,170816,1,0
29,89,170988,1,0
70,26,171160,2,0,B|124:57|197:53,1,125,8|0
179,203,171850,6,0,B|114:203,2,62.5,4|0|0
329,202,172540,2,0,B|394:202,2,62.5,8|0|0
255,70,173229,2,0,B|256:153,2,62.5
255,220,173919,2,0,B|257:286,2,62.5,8|0|0
132,308,174609,6,0,B|254:354|389:303,2,250,0|8|0
37,191,176333,1,0
111,191,176505,1,0
186,191,176678,1,8
316,118,177022,6,0,B|379:104|449:133,1,125
333,236,177712,2,0,B|297:288|304:357,1,125,0|8
186,260,178402,1,0
186,260,178574,1,0
186,260,178747,1,0
197,110,179091,2,0,B|256:136|326:114,1,125,0|8
267,252,179781,1,0
337,277,179953,1,0
409,255,180126,6,0,B|398:186|445:127,1,125
316,47,180816,2,0,B|251:64|189:42,1,125,8|0
256,192,181505,12,0,182540
256,192,182884,5,4
366,293,183229,2,0,B|376:227|454:206,1,125,0|8
491,146,183747,1,0
465,75,183919,1,0
318,73,184264,1,0
258,213,184609,1,0
200,74,184953,1,8
165,140,185126,1,0
132,207,185298,1,0
20,307,185643,6,0,B|48:288|86:285,1,62.5
133,341,185988,2,0,B|169:343|192:320,1,62.5
192,249,186333,2,0,B|224:232|257:233,1,62.5,8|0
300,289,186678,2,0,B|335:291|364:272,1,62.5
424,200,187022,5,0
256,48,187367,1,0
88,200,187712,1,8
199,99,188057,6,0,B|258:133|327:96,1,125
256,237,188747,1,0
256,237,188919,1,0
256,237,189091,1,8
370,333,189436,1,0
457,211,189781,2,0,B|456:276,2,62.5
341,114,190471,2,0,B|271:119|211:75,1,125,8|0
77,120,191160,5,0
71,131,191333,1,0
67,142,191505,1,0
66,154,191678,1,0
67,166,191850,2,0,B|70:244|137:267,1,125,8|0
256,344,192540,5,0
256,192,192884,1,0
256,40,193229,1,8
481,137,193919,6,0,B|413:151|377:207,1,125,4|0
254,119,194609,1,8
254,119,194781,1,0
254,119,194953,1,0
105,141,195298,2,0,B|149:199|118:266,1,125
268,291,195988,1,8
268,291,196160,1,0
268,291,196333,1,0
325,116,196678,5,0
185,255,197022,1,0
184,112,197367,1,8
328,256,197712,1,0
184,184,198057,1,0
255,184,198229,1,0
326,183,198402,1,0
465,127,198747,2,0,B|443:194|473:258,1,125,8|0
428,312,199264,1,0
357,337,199436,6,0,B|296:358|224:333,1,125
166,302,199953,1,0
123,239,200126,1,8
104,90,200471,1,0
246,136,200816,1,0
303,183,200988,1,0
362,137,201160,1,0
363,287,201505,1,8
304,239,201678,1,0
246,287,201850,1,0
107,240,202195,5,0
44,199,202367,1,0
13,130,202540,1,0
44,62,202712,1,0
110,28,202884,1,8
256,192,203229,1,0
402,28,203574,1,0
256,192,203747,12,4,204953
