osu file format v7

[General]
AudioFilename: 08.mp3
AudioLeadIn: 0
PreviewTime: 91080
Countdown: 0
SampleSet: Soft
StackLeniency: 0.7
Mode: 0
LetterboxInBreaks: 1

[Editor]
Bookmarks: 22884,44948,69776,91850,116678,138747,160815,182884,204953
DistanceSpacing: 0.899999976158142
BeatDivisor: 1
GridSize: 16

[Metadata]
Title:The Doll Maker of Bucuresti-
Artist:Abe Hidari
Creator:impossiblexu
Version:Easy
Source:Touhou
Tags:Alice Mystic Heart efs Masayoshi Yagami

[Difficulty]
HPDrainRate:2
CircleSize:3
OverallDifficulty:2
SliderMultiplier:1.2
SliderTickRate:2

[Events]
//Background and Video events
0,0,"BG alice.jpg"
//Break Periods
2,69981,90290
2,113774,115118
//Storyboard Layer 0 (Background)
//Storyboard Layer 1 (Fail)
//Storyboard Layer 2 (Pass)
//Storyboard Layer 3 (Foreground)
Sprite,Foreground,Centre,"Alice!!.png",320,267 F,0,91668,,0,0.3 F,0,91668,91840,0.3,1 S,0,91668,91840,0.6240005 F,0,91926,92443,1,0.3 F,0,92443,92615,0.3,1 F,0,92615,93133,1,0.3 F,0,93133,93305,0.3,1 F,0,93305,93822,1,0.3 F,0,93822,93995,0.3,1 F,0,93995,94512,1,0.3 F,0,94512,94684,0.3,1 F,0,94684,95201,1,0.3 F,0,95201,95374,0.3,1 F,0,95374,95891,1,0.3 F,0,95891,96063,0.3,1 F,0,96063,96581,1,0.3 F,0,96581,96753,0.3,1 F,0,96753,97270,1,0.3 F,0,97270,97443,0.3,1 F,0,97443,97960,1,0.3 F,0,97960,98132,0.3,1 F,0,98132,98649,1,0.3 F,0,98649,98822,0.3,1 F,0,98822,99339,1,0.3 F,0,99339,99511,0.3,1 F,0,99511,100029,1,0.3 F,0,100029,100201,0.3,1 F,0,100201,100718,1,0.3 F,0,100718,100891,0.3,1 F,0,100891,101408,1,0.3 F,0,101408,101580,0.3,1 F,0,101580,102097,1,0.3 F,0,102097,102270,0.3,1 F,0,102270,102787,1,0.3 F,0,102787,102959,0.3,1 F,0,102959,103477,1,0.3 F,0,103477,103649,0.3,1 F,0,103649,104166,1,0.3 F,0,104166,104339,0.3,1 F,0,104339,104856,1,0.3 F,0,104856,105028,0.3,1 F,0,105028,105545,1,0.3 F,0,105545,105718,0.3,1 F,0,105718,106235,1,0.3 F,0,106235,106407,0.3,1 F,0,106407,106925,1,0.3 F,0,106925,107097,0.3,1 F,0,107097,107614,1,0.3 F,0,107614,107787,0.3,1 F,0,107787,108304,1,0.3 F,0,108304,108476,0.3,1 F,0,108476,108993,1,0.3 F,0,108993,109166,0.3,1 F,0,109166,109683,1,0.3 F,0,109683,109855,0.3,1 F,0,109855,110373,1,0.3 F,0,110373,110545,0.3,1 F,0,110545,111062,1,0.3 F,0,111062,111235,0.3,1 F,0,111235,111752,1,0.3 F,0,111752,111924,0.3,1 F,0,111924,112441,1,0.3 F,0,112441,112614,0.3,1 F,0,112614,113131,1,0.3 F,0,113131,113303,0.3,1 F,0,113303,113821,1,0.3 F,0,113821,114599,1,0
//Storyboard Sound Samples
//Background Colour Transformations
3,100,163,162,255

[TimingPoints]
22885,689.655172413793,4,2,0,30,1,0
44611,-100,4,2,0,50,0,0
48231,-100,4,2,1,50,0,0
48576,-100,4,2,0,50,0,0
64783,-100,4,2,1,50,0,0
65128,-100,4,2,0,50,0,0
66852,-100,4,2,0,14,0,0
67714,-100,4,2,0,27,0,0
68404,-100,4,2,0,38,0,0
69093,-100,4,2,0,50,0,0
91850,-100,4,2,0,50,0,1
102798,-100,4,2,0,50,0,0
102884,-100,4,2,0,50,0,1
111678,-100,4,2,1,50,0,1
112022,-100,4,2,0,50,0,1
113574,-100,4,2,0,50,0,0
116507,-100,4,2,0,25,0,0
138576,-100,4,2,0,50,0,0
170990,-100,4,2,1,50,0,0
171335,-100,4,2,0,50,0,0
203402,-200,4,2,0,50,0,0

[Colours]
Combo1 : 120,160,126
Combo2 : 200,80,100
Combo3 : 220,200,160

[HitObjects]
60,131,22884,1,6
257,43,24264,1,0
466,95,25643,5,2
378,158,26333,1,0
447,240,27022,2,0,B|408:361|260:371,1,240,0|2
58,305,29781,5,0
192,135,31160,6,0,B|206:74|279:48,1,120,2|0
327,142,32540,2,0,B|392:121|410:59,1,120
484,139,33919,5,6
367,320,35298,1,0
200,181,36678,6,0,B|139:151|83:182,2,120,2|0|0
415,175,39436,5,2
248,37,40816,1,2
80,173,42195,5,2
148,255,42885,1,2
255,262,43574,1,2
58,76,44953,6,0,B|124:94|192:74,1,120,4|8
161,185,46333,2,0,B|227:203|293:169,1,120,0|8
292,68,47712,6,0,B|359:60|430:122|415:188|365:252,1,240
273,260,49781,1,8
179,313,50471,6,0,B|137:268|62:269,1,120,0|8
138,184,51850,2,0,B|82:146|13:173,1,120,0|8
11,61,53229,5,0
114,31,53919,1,8
178,119,54609,2,0,B|227:163|303:153,1,120,0|8
372,222,55988,6,0,B|379:287|319:345,1,120,4|8
278,332,57022,1,0
227,314,57367,2,0,B|172:350|106:337,1,120,0|8
70,304,58402,1,0
90,253,58747,6,0,B|131:187|88:122,2,120,0|8|0
196,237,60816,1,8
299,206,61505,6,0,B|358:231|420:207,1,120,0|8
344,127,62885,2,0,B|408:153|466:125,1,120,0|8
385,50,64264,6,0,B|264:8|141:48,1,240
77,126,66333,1,8
256,192,67022,12,4,69781
64,62,91850,6,0,B|121:87|188:57,1,120,4|8
232,44,92885,1,0
278,70,93229,2,0,B|300:101|336:107,2,60,0|0|8
276,178,94609,5,0
329,271,95298,1,8
247,341,95988,1,0
192,340,96333,1,0
148,307,96678,1,8
131,200,97367,6,0,B|170:190|196:154|153:133|116:141,2,120,0|8|0
87,232,99091,1,0
41,203,99436,1,8
35,95,100126,6,0,B|78:48|158:55,1,120,0|8
211,138,101505,1,0
211,138,101850,1,0
211,138,102195,1,8
257,235,102885,6,0,B|221:293|263:359,1,120,4|8
364,356,104264,1,0
393,310,104609,1,0
442,332,104953,2,0,B|500:306|494:227,1,120,8|0
401,177,106333,5,8
349,159,106678,1,0
357,105,107022,2,0,B|332:81|303:81,2,60,0|0|8
265,162,108402,5,2
188,85,109091,1,8
111,161,109781,1,2
187,237,110471,1,8
285,265,111160,6,0,B|277:255|277:255|291:248|291:248|275:239|275:239|291:232|291:232|275:223|275:223|292:216|292:216|276:207|276:207|292:200|292:200|277:191|277:191|291:183|291:183|283:169|283:169|288:156|288:156,1,180,2|0
272,120,112540,1,2
312,80,112885,1,0
368,80,113229,1,10
400,128,113574,1,0
254,27,116678,6,0,B|220:86|305:86|250:169,1,120,4|2
259,247,118057,2,0,B|312:295|387:295,1,120,0|2
420,296,119091,1,0
462,262,119436,6,0,B|422:204|463:143,1,120,0|2
350,149,120816,2,0,B|386:203|344:267,1,120,0|2
295,276,121850,1,0
247,251,122195,6,0,B|183:228|127:250,1,120,0|2
76,239,123229,1,0
57,188,123574,2,0,B|66:121|138:98,1,120,0|2
188,191,124953,6,0,B|250:218|317:187,2,120,4|2|4
213,86,127022,1,2
264,69,127367,1,0
310,96,127712,6,0,B|364:129|432:123,1,120,4|2
364,213,129091,2,0,B|299:241|294:308,1,120,0|2
241,313,130126,1,0
193,287,130471,5,0
116,210,131160,1,2
192,133,131850,1,0
112,59,132540,1,2
157,30,132885,1,0
209,42,133229,6,0,B|273:71|342:60,1,120,0|2
366,98,134264,1,0
388,146,134609,2,0,B|357:209|381:268,1,120,0|2
348,306,135643,1,0
256,192,135988,12,0,138057
256,40,138747,5,4
184,120,139436,1,8
256,200,140126,1,0
328,280,140816,1,8
256,360,141505,5,0
184,280,142195,1,8
256,200,142885,1,0
218,160,143229,1,0
184,120,143574,5,8
99,187,144264,2,0,B|41:161|18:96,1,120,0|8
52,57,145298,1,0
103,72,145643,2,0,B|163:97|229:69,1,120,0|8
274,71,146678,6,0,B|334:46|400:74,1,120
439,95,147712,1,8
461,144,148057,1,0
456,197,148402,2,0,B|432:232|442:268,2,60,0|0|8
347,197,149781,6,0,B|292:229|220:196,1,120,4|8
177,194,150816,1,0
140,154,151160,1,0
141,45,151850,1,8
246,69,152540,6,0,B|306:94|368:70,1,120,0|8
414,56,153574,1,0
457,88,153919,1,0
448,195,154609,1,8
413,236,154953,6,0,B|330:209|332:334|233:286,1,180,0|8
202,281,156333,1,0
169,237,156678,1,0
135,133,157367,1,8
215,61,158057,6,0,B|272:94|332:86,1,120,0|8
383,77,159091,1,0
422,113,159436,2,2,B|406:144|421:177,2,60,2|2|2
351,194,160816,6,0,B|294:219|220:191,1,120,4|8
126,207,162195,1,0
162,308,162885,1,8
266,282,163574,6,0,B|326:254|388:286,2,120,0|8|0
220,253,165298,1,0
227,199,165643,1,8
269,165,165988,6,0,B|335:111|453:124,1,180,0|8
371,38,167712,2,0,B|313:70|312:7|238:52,1,120,0|8
154,80,169091,6,0,B|127:107|132:147,1,60
178,159,169781,2,0,B|157:194|172:227,1,60,8|0
138,261,170471,2,0,B|160:301|220:316|276:299|303:254,1,180
283,213,171850,5,4
360,137,172540,1,8
434,214,173229,1,0
358,291,173919,1,8
255,269,174609,6,0,B|219:286|214:323,2,60,0|0|8
164,210,175988,2,0,B|123:156|169:84,1,120,0|8
215,100,177022,6,0,B|253:158|212:212,1,120
193,262,178057,1,8
241,284,178402,1,0
290,258,178747,2,0,B|350:237|410:259,1,120,0|8
417,150,180126,6,0,B|377:136|351:102|393:87|437:102,2,120,0|8|0
201,140,182885,5,4
96,168,183574,1,8
43,262,184264,1,0
92,283,184609,1,0
111,333,184953,1,8
218,322,185643,6,0,B|275:293|334:325,1,120,0|8
384,341,186678,1,0
433,320,187022,2,0,B|398:262|436:205,1,120,0|8
382,112,188402,5,0
275,130,189091,1,8
169,108,189781,1,0
66,142,190471,1,8
35,245,191160,5,0
64,290,191505,1,0
118,291,191850,2,0,B|178:313|238:290,1,120,8|0
280,261,192885,1,0
332,273,193229,1,8
381,177,193919,6,0,B|323:149|303:88,1,120,4|8
255,113,194953,2,0,B|198:145|136:112,1,120
97,147,195988,1,8
97,147,196333,1,0
66,191,196678,6,0,B|30:249|65:308,2,120,0|8|0
166,229,198747,1,8
271,254,199436,6,0,B|331:233|399:257,1,120,0|8
391,145,200816,1,0
337,152,201160,1,0
292,127,201505,2,0,B|256:75|183:84,1,120,8|0
95,141,202885,5,8
138,240,203574,2,2,B|197:267|264:237,1,120,2|6
