osu file format v5

[General]
AudioFilename: ABBA - Mama Mia.mp3
AudioLeadIn: 0
PreviewTime: -1
Countdown: 2
SampleSet: Normal
StackLeniency: 0.7
Mode: 0
LetterboxInBreaks: 1
EditorBookmarks: 77069,84312,85885

[Metadata]
Title:Mamma Mia
Artist:Abba
Creator:diistiil
Version:Normal
Source:
Tags:

[Difficulty]
HPDrainRate:6
CircleSize:5
OverallDifficulty:5
SliderMultiplier:1.3
SliderTickRate:1

[Events]
//Background and Video events
//Break Periods
2,40723,40732
2,63608,70090
2,81103,86618
2,113904,114297
2,137277,140185
2,168625,174934
//Storyboard Layer 0 (Background)
//Storyboard Layer 1 (Failing)
//Storyboard Layer 2 (Passing)
//Storyboard Layer 3 (Foreground)
//Storyboard Sound Samples
//Background Colour Transformations
3,100,128,255,255

[TimingPoints]
0,597.402886197471,4,1,0,50,1
0,555.402886197471,4,1,0,50,1
148021,555.402886197471,4,1,0,50,1
148107,555.402886197471,4,1,0,50,1
148384,555.402886197471,4,1,0,50,1
151407,555.402886197471,4,1,0,50,1
176134,555.402886197471,4,1,0,50,1
176854,555.402886197471,4,1,0,50,1
177005,555.402886197471,4,1,0,50,1
177247,555.402886197471,4,1,0,50,1
177488,555.402886197471,4,1,0,50,1
178032,555.402886197471,4,1,0,50,1
178067,555.402886197471,4,1,0,50,1
178467,555.402886197471,4,1,0,50,1
178595,555.402886197471,4,1,0,50,1
179564,555.402886197471,4,1,0,50,1
180241,555.402886197471,4,1,0,50,1
180434,555.402886197471,4,1,0,50,1
180626,555.402886197471,4,1,0,50,1
181095,555.402886197471,4,1,0,50,1
181479,555.402886197471,4,1,0,50,1
181931,555.402886197471,4,1,0,50,1
182058,555.402886197471,4,1,0,50,1
193166,555.402886197471,4,1,0,100,1
193943,555.402886197471,4,1,0,50,1
194198,555.402886197471,4,1,0,50,1
194414,555.402886197471,4,1,0,50,1
194623,555.402886197471,4,1,0,50,1
194833,555.402886197471,4,1,0,50,1
195058,555.402886197471,4,1,0,50,1
195272,555.402886197471,4,1,0,50,1
195502,555.402886197471,4,1,0,50,1
195723,555.402886197471,4,1,0,50,1
195945,555.402886197471,4,1,0,50,1

[Colours]
Combo1 : 252,124,124
Combo2 : 88,252,88
Combo3 : 114,114,252

[HitObjects]
252,188,7467,1,0
256,192,7865,2,0,B|256:96|368:96,1,151.666666666667
353,99,9060,5,0
448,96,9658,2,0,B|448:208|304:208,1,195
323,211,11051,5,0
256,208,11649,2,0,B|144:208|144:80,1,173.333333333333
144,160,12943,6,8,B|48:160|47:96|160:96,1,173.333333333333
144,96,14337,2,0,B|144:192|240:192,1,151.666666666667
238,194,15432,5,0
238,194,15831,2,0,B|355:195,2,108.333333333333
235,191,17225,6,0,B|96:192|96:272|240:272,1,238.333333333333
240,272,19017,6,0,B|320:272|320:192,2,108.333333333333
176,272,20411,1,0
108,268,20809,2,0,B|28:268|28:188,2,108.333333333333
112,272,22103,5,0
176,272,22601,1,0
236,268,23099,1,0
240,272,23497,6,0,B|336:272|336:112,1,195
339,131,24991,5,0
265,121,25489,1,0
268,124,25688,1,12
272,128,25887,6,0,B|176:128|176:224,1,151.666666666667
169,217,27181,1,0
172,220,27380,1,12
176,224,27579,6,0,B|272:224|272:128,1,151.666666666667
272,128,28675,5,0
272,128,28899,2,0,B|384:128|384:240,2,173.333333333333
256,240,31662,5,12
256,240,32259,2,0,B|320:240|352:176|320:112|256:112,2,195
256,256,34549,1,0
192,256,34948,1,0
128,256,35346,1,0
64,256,35744,1,0
256,256,36142,2,0,B|448:256|448:192,1,216.666666666667
256,128,37935,5,0
320,128,38334,1,0
384,128,38732,1,0
448,128,39130,1,0
256,128,39528,2,0,B|64:128|64:192,1,216.666666666667
400,96,41840,5,0
400,288,42303,1,0
400,96,42766,1,0
400,96,43013,5,0
352,96,43212,1,0
304,96,43411,1,0
256,96,43610,1,0
208,96,43809,1,0
160,96,44008,1,0
112,96,44207,1,0
112,96,45360,5,0
112,288,45823,1,0
112,96,46286,1,0
112,96,46533,5,0
160,96,46732,1,0
208,96,46931,1,0
256,96,47130,1,0
304,96,47329,1,0
352,96,47528,1,0
400,96,47727,1,0
480,176,49801,5,12
320,160,50263,6,14,B|320:208,1,43.3333333333333
192,160,50726,2,14,B|192:208,1,43.3333333333333
188,156,52022,6,0,B|188:236|252:284|316:236|316:156,1,238.333333333333
323,163,53688,5,0
192,160,54151,1,0
256,240,54892,6,0,B|256:48,1,173.333333333333
259,67,56373,5,14
464,64,57113,5,0
368,160,57669,1,0
48,64,58943,2,0,B|128:160,1,108.333333333333
192,224,59839,5,0
320,224,60735,5,0
192,224,61198,1,0
256,144,61927,6,0,B|256:336,1,173.333333333333
259,323,63408,5,14
320,160,71290,5,0
192,160,71753,1,0
252,236,72385,5,0
256,240,72850,6,0,B|256:48,1,173.333333333333
259,67,73978,5,14
252,188,74807,5,4
252,188,75173,2,0,B|311:189|309:222|303:267|272:298|230:301|184:282|212:182|197:224|220:185|256:188,1,260
256,192,77463,5,12
320,160,78259,5,0
192,160,78722,1,0
256,192,79355,6,0,B|336:192|337:97|337:97,2,130
256,192,80903,1,12
249,185,87818,5,0
252,188,88017,1,0
256,192,88415,12,0,92597
256,112,93122,6,0,B|368:112|368:208,1,151.666666666667
256,288,94140,2,0,B|400:288|400:192,1,195
400,192,95484,5,0
256,192,95883,1,0
112,192,96281,1,0
112,192,96480,1,0
112,192,96679,1,0
112,192,96878,6,0,B|224:192|224:304,1,173.333333333333
224,304,98073,5,0
224,304,98372,2,0,B|304:304|304:288|368:288,1,130
352,288,99467,5,0
352,288,99666,1,12
352,288,99865,1,0
352,208,100264,1,0
352,208,100463,1,12
272,208,100761,6,0,B|208:208,1,43.3333333333333
144,208,101160,5,0
144,208,101359,1,12
144,208,101558,1,0
144,288,101957,1,0
144,288,102156,1,8
208,288,102554,5,0
208,288,102749,1,12
208,288,102934,2,0,B|244:289|288:272|304:256|304:224|288:208|256:192|226:209|208:224|208:255|224:270|272:288|320:288,1,281.666666666667
311,286,104693,6,0,B|368:288,2,43.3333333333333
311,286,105526,1,12
256,192,105619,12,0,107100
400,96,108129,5,0
368,128,108329,1,0
336,160,108528,1,12
304,192,108727,1,0
272,224,108951,1,12
336,160,109321,2,0,B|384:208|432:160,1,108.333333333333
432,160,110121,2,0,B|479:113|432:15|336:15|288:112|352:176,1,281.666666666667
336,160,111635,5,0
336,160,111913,1,0
352,192,112311,2,0,B|401:240|335:337|256:337|184:215|272:176,1,303.333333333333
400,96,115616,5,0
400,288,116079,1,0
400,96,116542,1,0
400,96,116789,5,0
352,96,116988,1,0
304,96,117187,1,0
256,96,117386,1,0
208,96,117585,1,0
160,96,117784,1,0
112,96,117983,1,0
112,96,119136,5,0
112,288,119599,1,0
112,96,120062,1,0
112,96,120309,5,0
160,96,120508,1,0
208,96,120707,1,0
256,96,120906,1,0
304,96,121105,1,0
352,96,121304,1,0
400,96,121503,1,0
32,208,123448,5,12
192,224,123828,6,14,B|192:176,1,43.3333333333333
320,224,124291,2,14,B|320:176,1,43.3333333333333
324,228,125587,6,0,B|324:148|260:100|196:148|196:228,1,238.333333333333
189,221,127372,5,0
320,224,127835,1,0
256,144,128457,6,0,B|256:336,1,173.333333333333
253,317,129938,5,14
48,320,130889,5,0
144,224,131352,1,0
464,320,132523,2,0,B|384:224,1,108.333333333333
320,160,133519,5,0
192,160,134300,5,0
320,160,134763,1,0
256,240,135596,6,0,B|256:48,1,173.333333333333
253,61,137077,5,14
336,112,141385,5,0
160,272,141998,1,0
160,272,142175,1,0
256,192,142526,1,0
336,112,142923,1,0
160,272,143386,1,0
256,192,143784,1,2
400,192,144960,5,12
96,192,145330,1,12
256,80,145965,5,0
256,304,146363,1,0
256,256,146562,1,0
256,208,146761,1,12
256,160,146961,1,0
256,304,147552,1,12
256,160,148014,6,0,B|256:352,1,173.333333333333
256,160,149402,2,14,B|256:16,2,130
256,160,151068,2,0,B|256:256,1,86.6666666666667
256,192,151684,12,0,155017
192,224,155294,6,12,B|192:176,1,43.3333333333333
320,224,155757,6,12,B|320:176,1,43.3333333333333
324,228,157053,6,0,B|324:148|260:100|196:148|196:228,1,238.333333333333
189,221,158838,5,0
320,224,159301,5,0
256,144,159923,6,0,B|256:336,1,173.333333333333
253,317,161404,5,14
48,320,162237,5,0
144,224,162700,5,0
464,320,163996,6,0,B|384:224,1,108.333333333333
320,160,164886,5,0
192,160,165648,5,0
320,160,166111,5,0
256,240,166865,6,0,B|256:48,1,173.333333333333
253,61,168425,5,14
160,192,176122,6,0,B|160:64|272:64,1,173.333333333333
256,64,177339,1,0
256,64,178032,2,0,B|347:63|347:191,1,173.333333333333
176,112,179564,5,0
352,272,180177,1,0
352,272,180354,1,0
256,192,180705,1,0
176,112,181102,1,0
352,272,181565,1,0
256,192,181963,1,2
112,192,183139,5,12
416,192,183509,1,12
256,80,184144,5,0
256,304,184542,1,0
256,256,184741,1,0
256,208,184940,1,12
256,160,185140,1,0
256,304,185731,1,12
256,160,186193,6,0,B|256:224,1,43.3333333333333
256,208,187056,2,12,B|256:352,2,130
256,192,189278,5,12
256,192,189370,12,0,193166
256,48,193943,5,0
256,80,194198,1,0
256,112,194406,1,0
256,144,194622,1,0
256,176,194831,1,0
256,208,195041,1,0
256,240,195266,1,0
256,272,195480,1,0
256,304,195710,1,0
256,336,195945,2,12,B|256:48,1,276.25
