osu file format v5

[General]
AudioFilename: ABBA - Mama Mia.mp3
AudioLeadIn: 0
PreviewTime: -1
Countdown: 2
SampleSet: Normal
StackLeniency: 0.7
Mode: 0
LetterboxInBreaks: 1
EditorBookmarks: 77069,84312,85885

[Metadata]
Title:Mamma Mia
Artist:Abba
Creator:diistiil
Version:Hard
Source:
Tags:

[Difficulty]
HPDrainRate:10
CircleSize:5
OverallDifficulty:6
SliderMultiplier:1.1
SliderTickRate:0.5

[Events]
//Background and Video events
//Break Periods
2,40723,40732
//Storyboard Layer 0 (Background)
//Storyboard Layer 1 (Failing)
//Storyboard Layer 2 (Passing)
//Storyboard Layer 3 (Foreground)
//Storyboard Sound Samples
//Background Colour Transformations
3,100,163,162,255

[TimingPoints]
0,333.333333333333,4,1,0,39,1
20373,333.333333333333,4,1,0,39,1

[Colours]
Combo1 : 205,5,5
Combo2 : 4,227,4
Combo3 : 5,5,231

[HitObjects]
256,192,7388,1,0
256,192,7611,1,0
256,192,7833,1,0
256,192,8055,2,0,B|368:192|368:96,2,165
256,192,9666,1,0
256,192,9888,1,0
256,192,10111,1,0
256,192,10333,2,0,B|176:192,1,73.3333333333333
176,192,10999,6,0,B|46:192|46:64,2,201.666666666667
256,192,13222,1,0
256,192,13444,1,0
256,192,13667,1,0
256,192,13888,2,0,B|400:192|400:64,1,201.666666666667
400,80,15055,5,0
400,256,15499,1,0
400,256,15722,1,0
400,256,15944,1,0
400,256,16166,2,0,B|304:256|304:160,1,146.666666666667
255,170,17055,5,12
255,170,17277,1,0
255,170,17499,1,0
255,170,17722,1,0
255,170,17944,2,0,B|255:289|127:289,1,183.333333333333
144,288,18777,5,0
144,288,18999,1,0
144,288,19222,1,0
144,288,19444,1,0
144,288,19666,2,0,B|383:289,1,220
363,288,20595,1,0
363,288,20817,1,0
363,288,21039,1,0
363,288,21261,1,0
363,288,21484,1,0
363,288,21706,6,0,B|368:160|240:160,1,201.666666666667
208,160,22595,1,0
176,160,22872,2,0,B|45:160|45:32,1,201.666666666667
160,48,23928,5,0
192,48,24150,1,0
224,48,24372,1,0
256,48,24595,1,0
288,48,24817,1,12
320,48,25039,1,0
320,320,25650,5,0
288,320,25872,1,0
256,320,26094,1,0
224,320,26317,1,0
192,320,26539,1,12
160,320,26761,1,0
160,48,27372,5,0
192,48,27594,1,0
224,48,27816,1,0
256,48,28039,1,0
288,48,28261,1,12
320,48,28483,1,0
