osu file format v14

[General]
AudioFilename: audio.mp3
AudioLeadIn: 0
PreviewTime: 78902
Countdown: 0
SampleSet: Soft
StackLeniency: 0.6
Mode: 0
LetterboxInBreaks: 0
WidescreenStoryboard: 0

[Editor]
DistanceSpacing: 1.3
BeatDivisor: 4
GridSize: 8
TimelineZoom: 2.2

[Metadata]
Title:Dancin (Remix by KRONO)
TitleUnicode:Dancin (Remix by KRONO)
Artist:Aaron Smith feat. Luvli
ArtistUnicode:Aaron Smith feat. Luvli
Creator:Lian2002
Version:Relaxing
Source:
Tags:Electronic Dance English Pop
BeatmapID:2022409
BeatmapSetID:966190

[Difficulty]
HPDrainRate:5
CircleSize:4
OverallDifficulty:7
ApproachRate:8
SliderMultiplier:1.6
SliderTickRate:1

[Events]
//Background and Video events
0,0,"DancinBG.jpg",0,0
//Break Periods
//Storyboard Layer 0 (Background)
//Storyboard Layer 1 (Fail)
//Storyboard Layer 2 (Pass)
//Storyboard Layer 3 (Foreground)
//Storyboard Sound Samples

[TimingPoints]
27,500,4,2,1,30,1,0
27,-133.333333333333,4,2,1,30,0,0
24402,-133.333333333333,4,2,1,5,0,0
24527,-133.333333333333,4,2,1,30,0,0
30527,-100,4,2,1,30,0,0
31527,-66.6666666666667,4,2,1,30,0,0
32027,-90.9090909090909,4,2,1,50,0,0
38527,-100,4,2,1,50,0,0
38902,-100,4,2,1,5,0,0
39027,-100,4,2,1,50,0,0
39402,-100,4,2,1,5,0,0
39527,-100,4,2,1,50,0,0
39902,-100,4,2,1,5,0,0
40027,-100,4,2,1,50,0,0
40402,-100,4,2,1,5,0,0
40527,-90.9090909090909,4,2,1,50,0,0
43527,-100,4,2,1,50,0,0
43902,-100,4,2,1,5,0,0
44027,-100,4,2,1,50,0,0
44777,-90.9090909090909,4,2,1,50,0,0
46027,-100,4,2,1,30,0,0
46902,-100,4,2,1,5,0,0
47027,-100,4,2,1,30,0,0
48027,-100,4,2,1,50,0,0
49027,-90.9090909090909,4,2,1,50,0,0
51277,-66.6666666666667,4,2,1,50,0,0
51402,-66.6666666666667,4,2,1,5,0,0
51527,-66.6666666666667,4,2,1,50,0,0
51652,-66.6666666666667,4,2,1,5,0,0
51777,-66.6666666666667,4,2,1,50,0,0
51902,-66.6666666666667,4,2,1,5,0,0
52027,-100,4,2,1,50,0,0
53902,-100,4,2,1,5,0,0
54027,-100,4,2,1,50,0,0
54527,-83.3333333333333,4,2,1,50,0,0
55277,-66.6666666666667,4,2,1,50,0,0
55402,-66.6666666666667,4,2,1,5,0,0
55527,-66.6666666666667,4,2,1,50,0,0
55652,-66.6666666666667,4,2,1,5,0,0
55777,-66.6666666666667,4,2,1,50,0,0
55902,-66.6666666666667,4,2,1,5,0,0
56027,-100,4,2,1,50,0,0
57027,-166.666666666667,4,2,1,50,0,0
58027,-100,4,2,1,50,0,0
60402,-100,4,2,1,5,0,0
60527,-100,4,2,1,50,0,0
64027,-100,4,2,1,40,0,0
79089,-100,4,2,1,30,0,0
80027,-90.9090909090909,4,2,1,60,0,1
82402,-90.9090909090909,4,2,1,5,0,1
82527,-90.9090909090909,4,2,1,60,0,1
84402,-90.9090909090909,4,2,1,5,0,1
84527,-90.9090909090909,4,2,1,60,0,1
86402,-90.9090909090909,4,2,1,5,0,1
86527,-90.9090909090909,4,2,1,60,0,1
88402,-90.9090909090909,4,2,1,5,0,1
88527,-90.9090909090909,4,2,1,60,0,1
90402,-90.9090909090909,4,2,1,5,0,1
90527,-90.9090909090909,4,2,1,60,0,1
92402,-90.9090909090909,4,2,1,5,0,1
92527,-90.9090909090909,4,2,1,60,0,1
94402,-90.9090909090909,4,2,1,5,0,1
94527,-90.9090909090909,4,2,1,60,0,1
96027,-100,4,2,1,40,0,0
96527,-100,4,2,1,30,0,0
97027,-100,4,2,1,20,0,0
97527,-100,4,2,1,10,0,0
98027,-100,4,2,1,5,0,0

[Colours]
Combo1 : 222,188,188
Combo2 : 168,255,168
Combo3 : 197,197,226
Combo4 : 255,174,215
Combo5 : 255,255,179
Combo6 : 255,197,168

[HitObjects]
148,152,27,5,2,0:0:0:0:
148,152,777,6,0,L|206:140,2,60.0000022888184,2|2|2,0:2|0:2|0:2,0:2:0:0:
85,95,1527,1,2,0:2:0:0:
5,120,1777,1,2,0:2:0:0:
148,152,2027,6,0,P|169:93|148:39,1,120.000004577637,2|0,0:2|0:2,0:2:0:0:
85,95,2777,1,2,0:2:0:0:
67,177,3027,2,0,P|81:205|106:228,1,60.0000022888184,2|2,0:2|0:2,0:2:0:0:
184,228,3527,1,2,0:2:0:0:
230,157,3777,1,2,0:2:0:0:
101,224,4027,6,0,L|123:350,1,120.000004577637,2|0,0:2|0:2,0:2:0:0:
38,327,4777,2,0,L|27:267,2,60.0000022888184,2|2|2,0:2|0:2|0:2,0:2:0:0:
121,342,5527,1,2,0:2:0:0:
194,301,5777,1,2,0:2:0:0:
350,361,6027,6,0,L|476:338,1,120.000004577637,2|0,0:2|0:2,0:2:0:0:
337,278,6777,2,0,L|277:288,1,60.0000022888184,2|2,0:2|0:2,0:2:0:0:
406,211,7277,1,2,0:2:0:0:
406,211,7402,1,2,0:2:0:0:
406,211,7527,1,2,0:2:0:0:
468,339,7777,1,2,0:2:0:0:
497,166,8027,6,0,P|457:121|396:108,1,120.000004577637,2|0,0:2|0:2,0:2:0:0:
334,159,8777,2,0,P|301:157|272:145,2,60.0000022888184,2|2|2,0:2|0:2|0:2,0:2:0:0:
322,76,9527,1,2,0:2:0:0:
235,66,9777,1,2,0:2:0:0:
159,169,10027,6,0,L|285:146,1,120.000004577637,2|2,0:2|0:2,0:2:0:0:
146,86,10777,2,0,L|86:96,1,60.0000022888184,2|2,0:2|0:2,0:2:0:0:
235,215,11277,1,2,0:2:0:0:
235,215,11402,1,2,0:2:0:0:
235,215,11527,1,2,0:0:0:0:
321,129,11777,1,2,0:0:0:0:
159,169,12027,6,0,P|147:226|180:284,1,120.000004577637,2|0,0:2|0:2,0:2:0:0:
313,259,12777,2,0,P|325:202|292:144,1,120.000004577637,2|2,0:2|0:2,0:2:0:0:
235,215,13527,1,2,0:0:0:0:
159,169,13777,1,2,0:0:0:0:
41,320,14027,6,0,B|102:334|102:334|153:292,1,120.000004577637,2|0,0:2|0:2,0:2:0:0:
197,215,14777,1,2,0:2:0:0:
76,122,15089,2,0,B|62:157|62:157|80:245,1,120.000004577637,2|2,0:0|0:0,0:0:0:0:
334,104,16027,5,2,0:2:0:0:
177,221,16527,6,0,L|156:102,1,120.000004577637,2|2,0:2|0:2,0:2:0:0:
266,29,17277,2,0,L|243:155,1,120.000004577637,2|2,0:2|0:2,0:2:0:0:
392,115,18027,6,0,L|328:103,1,60.0000022888184,2|2,0:2|0:2,0:2:0:0:
502,181,18527,2,0,L|438:192,1,60.0000022888184,2|2,0:2|0:2,0:2:0:0:
388,255,19027,1,2,0:2:0:0:
458,303,19277,2,0,P|469:245|443:192,1,120.000004577637,2|2,0:2|0:2,0:2:0:0:
323,353,20027,6,0,L|382:342,1,60.0000022888184,2|2,0:2|0:2,0:2:0:0:
252,296,20527,1,2,0:0:0:0:
184,360,20777,1,2,0:0:0:0:
184,360,21027,1,2,0:2:0:0:
110,306,21277,2,0,L|130:187,1,120.000004577637,2|2,0:2|0:2,0:2:0:0:
32,174,22027,5,2,0:2:0:0:
151,69,22277,1,2,0:2:0:0:
32,174,22527,2,0,L|42:233,1,60.0000022888184,2|2,0:2|0:2,0:2:0:0:
221,145,23027,1,2,0:2:0:0:
151,69,23277,2,0,L|130:187,1,120.000004577637,2|0,0:2|0:2,0:2:0:0:
305,162,24027,6,0,P|260:141|216:146,1,90.0000034332277,2|0,0:2|0:0,0:2:0:0:
246,234,24527,2,0,L|364:254,1,120.000004577637,2|2,0:2|0:2,0:2:0:0:
423,142,25277,2,0,L|304:162,1,120.000004577637,2|2,0:2|0:2,0:2:0:0:
214,56,26027,6,0,P|243:62|270:77,1,60.0000022888184,2|2,0:2|0:2,0:2:0:0:
226,205,26527,2,0,P|215:177|215:148,1,60.0000022888184,2|2,0:2|0:2,0:2:0:0:
359,90,27027,1,2,0:2:0:0:
359,90,27277,2,0,L|418:79,1,60.0000022888184,2|2,0:2|0:2,0:2:0:0:
325,6,27777,1,2,0:2:0:0:
304,161,28027,6,0,L|324:279,1,120.000004577637,2|2,0:2|0:2,0:2:0:0:
456,352,28777,5,2,0:2:0:0:
423,249,29027,1,2,0:2:0:0:
358,381,29277,1,2,0:2:0:0:
324,279,29527,5,2,0:2:0:0:
87,318,29860,1,2,0:2:0:0:
228,384,30193,1,2,0:2:0:0:
291,189,30527,6,0,P|352:189|402:229,1,120,2|2,0:2|0:2,0:2:0:0:
373,113,31027,2,0,P|403:164|397:222,1,120,2|2,0:2|0:2,0:2:0:0:
292,73,31527,6,0,P|300:40|321:14,1,60.0000022888184,2|2,0:2|0:2,0:2:0:0:
217,123,31777,2,0,P|188:105|168:78,1,60.0000022888184,2|2,0:2|0:2,0:2:0:0:
298,163,32027,5,2,3:2:0:0:
70,286,32527,5,0,1:2:0:0:
160,329,32777,2,0,P|171:287|161:245,1,88.000002685547,2|0,0:2|3:2,0:2:0:0:
70,201,33277,2,0,P|59:243|70:286,1,88.000002685547,2|0,0:2|1:2,0:2:0:0:
227,171,33777,2,0,P|190:148|143:144,1,88.000002685547,2|0,0:2|3:2,0:2:0:0:
161,245,34277,5,2,0:2:0:0:
280,339,34527,2,0,L|376:323,1,88.000002685547,2|2,1:2|0:2,0:2:0:0:
419,145,35027,1,2,3:2:0:0:
366,324,35277,1,2,0:2:0:0:
331,168,35527,1,2,1:2:0:0:
456,302,35777,1,2,0:2:0:0:
459,58,36027,6,0,B|402:38|358:71|358:71|330:54|287:58,1,176.000005371094,2|0,3:2|1:2,0:2:0:0:
309,158,36777,1,2,0:2:0:0:
224,209,37027,2,0,P|209:169|215:126,1,88.000002685547,2|2,3:2|0:2,0:2:0:0:
312,260,37527,1,2,1:2:0:0:
109,331,37777,1,2,0:2:0:0:
224,209,38027,5,2,3:2:0:0:
284,384,38277,1,2,2:2:0:0:
109,331,38527,2,0,P|58:301|36:246,1,120,2|0,1:2|0:2,0:2:0:0:
164,130,39027,2,0,P|127:176|127:235,1,120,2|0,3:2|0:2,0:2:0:0:
224,208,39527,2,0,P|270:172|329:173,1,120,2|0,1:2|0:2,0:2:0:0:
386,333,40027,2,0,P|357:283|302:261,1,120,2|0,3:2|0:2,0:2:0:0:
298,355,40527,5,0,1:2:0:0:
298,355,40777,1,2,0:2:0:0:
412,220,41027,2,0,P|455:223|504:198,1,88.000002685547,2|2,3:2|0:2,0:2:0:0:
352,56,41527,2,0,P|309:53|260:78,1,88.000002685547,2|2,1:2|0:2,0:2:0:0:
284,239,42027,5,2,3:2:0:0:
326,146,42277,1,2,0:2:0:0:
185,220,42527,2,0,L|201:316,2,88.000002685547,2|2|0,1:2|0:2|3:2,0:2:0:0:
284,239,43277,1,2,0:2:0:0:
96,209,43527,2,0,P|119:156|173:131,1,120,2|0,1:2|0:2,0:2:0:0:
96,209,44027,6,0,P|41:150|73:80,1,160,2|0,3:2|1:2,0:2:0:0:
185,220,44777,2,0,L|201:316,1,88.000002685547,2|0,2:2|3:2,0:2:0:0:
263,158,45277,2,0,L|279:254,1,88.000002685547,2|2,2:2|1:2,0:2:0:0:
363,283,45777,1,2,0:2:0:0:
342,146,46027,6,0,L|263:159,1,80,2|2,2:2|0:2,0:2:0:0:
122,84,46527,2,0,P|151:49|225:31,1,120,2|0,0:2|0:2,0:2:0:0:
207,120,47027,2,0,P|234:177|289:161,1,120,2|2,0:2|0:2,0:2:0:0:
368,191,47527,2,0,P|388:247|368:310,1,120,2|2,0:2|0:2,0:2:0:0:
294,345,48027,6,0,B|374:321|382:377|454:345,1,160,2|0,3:2|1:2,0:2:0:0:
486,179,48777,1,2,0:2:0:0:
306,99,49027,2,0,P|344:76|396:75,1,88.000002685547,2|2,3:2|0:2,0:2:0:0:
314,221,49527,2,0,P|270:217|233:194,1,88.000002685547,2|2,1:2|0:2,0:2:0:0:
98,325,50027,5,2,3:2:0:0:
146,164,50277,1,2,0:2:0:0:
170,263,50527,2,0,L|193:347,1,88.000002685547,2|2,1:2|0:2,0:2:0:0:
234,195,51027,1,2,3:2:0:0:
24,217,51277,6,0,L|82:232,1,60.0000022888184,2|2,2:2|0:2,0:2:0:0:
182,78,51527,2,0,P|152:70|118:73,1,60.0000022888184,2|0,1:2|0:0,0:0:0:0:
245,290,51777,2,0,P|274:282|307:260,1,60.0000022888184,2|0,0:0|0:0,0:0:0:0:
278,112,52027,6,0,P|201:108|146:162,1,160,2|0,3:2|1:2,0:2:0:0:
358,225,52777,5,2,0:2:0:0:
234,195,53027,1,2,3:2:0:0:
415,96,53277,1,2,0:2:0:0:
409,303,53527,2,0,P|445:256|450:197,1,120,2|0,1:2|0:2,0:2:0:0:
476,186,54027,6,0,P|478:233|458:281,1,80,2|2,3:2|0:2,0:2:0:0:
331,384,54527,1,0,1:2:0:0:
160,315,54777,2,0,P|206:290|253:290,1,95.9999970703126,2|2,2:2|3:2,0:2:0:0:
512,181,55277,6,0,P|481:181|449:195,1,60.0000022888184,2|0,0:0|0:0,0:0:0:0:
430,369,55527,2,0,P|445:342|449:307,1,60.0000022888184,2|0,1:2|0:0,0:0:0:0:
303,224,55777,2,0,P|328:240|358:243,1,60.0000022888184,2|0,0:0|0:0,0:0:0:0:
453,97,56027,6,0,P|389:50|311:47,1,160,2|0,3:2|1:2,0:2:0:0:
159,133,56777,1,2,0:2:0:0:
159,133,57027,2,0,L|262:123,1,95.9999970703126,2|2,3:2|1:2,0:2:0:0:
312,48,57777,1,2,0:2:0:0:
87,72,58027,6,0,P|65:152|116:218,1,160,2|0,3:2|1:2,0:2:0:0:
239,333,58777,1,2,0:2:0:0:
303,135,59027,1,2,3:2:0:0:
435,273,59277,1,2,0:2:0:0:
216,206,59527,1,2,1:2:0:0:
347,363,59777,1,2,0:2:0:0:
365,209,60027,6,0,P|422:184|493:199,1,120,2|0,3:2|2:2,2:2:0:0:
492,174,60527,2,0,P|454:157|392:159,1,80,0|2,1:2|0:0,0:2:0:0:
193,86,61027,1,2,3:2:0:0:
286,122,61277,1,2,0:2:0:0:
135,246,61527,1,2,1:2:0:0:
214,185,61777,1,2,0:2:0:0:
253,368,62027,5,2,3:2:0:0:
307,204,62277,1,2,0:2:0:0:
411,321,62527,1,2,1:2:0:0:
375,136,62777,1,2,0:2:0:0:
325,300,63027,1,2,3:2:0:0:
214,185,63277,1,2,0:2:0:0:
462,104,63527,6,0,P|417:48|378:38,1,80,2|2,1:2|0:2,0:2:0:0:
321,61,63902,1,2,0:2:0:0:
321,61,64027,1,2,3:2:0:0:
67,52,64527,5,0,1:2:0:0:
67,52,64777,2,0,L|83:132,1,80,2|0,0:2|3:2,0:2:0:0:
153,183,65277,2,0,L|168:104,1,80,2|0,0:2|1:2,0:2:0:0:
82,130,65777,1,2,0:2:0:0:
226,237,66027,6,0,L|260:65,1,160,2|0,3:2|1:2,0:2:0:0:
331,135,66777,2,0,L|315:213,1,80,2|2,0:2|3:2,0:2:0:0:
380,278,67277,2,0,L|458:262,1,80,2|2,0:2|1:2,0:2:0:0:
400,193,67777,1,2,0:2:0:0:
339,358,68027,6,0,P|295:294|315:219,1,160,2|0,3:2|1:2,0:2:0:0:
190,260,68777,2,0,P|205:297|202:338,1,80,2|2,0:2|3:2,0:2:0:0:
57,356,69277,2,0,P|42:319|46:278,1,80,2|2,0:2|1:2,0:2:0:0:
111,224,69777,1,2,0:2:0:0:
4,89,70027,6,0,P|71:45|151:65,1,160,2|0,3:2|1:2,0:2:0:0:
88,140,70777,1,2,0:2:0:0:
274,201,71027,2,0,L|194:217,1,80,2|2,3:2|0:2,0:2:0:0:
195,216,71402,1,2,0:2:0:0:
195,216,71527,1,2,1:2:0:0:
346,263,71777,1,2,0:2:0:0:
416,34,72027,6,0,P|339:18|274:62,1,160,2|0,3:2|1:2,0:2:0:0:
458,118,72777,2,0,P|488:91|503:50,1,80,2|2,0:2|3:2,0:2:0:0:
361,113,73277,2,0,P|365:152|391:189,1,80,2|2,0:2|1:2,0:2:0:0:
416,34,73777,1,2,0:2:0:0:
330,263,74027,6,0,P|406:278|471:234,1,160,2|0,3:2|1:2,0:2:0:0:
420,384,74777,1,2,0:2:0:0:
236,280,75027,2,0,P|243:238|254:196,1,80,2|2,3:2|0:2,0:2:0:0:
252,201,75402,1,2,0:2:0:0:
252,201,75527,1,2,1:2:0:0:
153,145,75777,1,2,0:2:0:0:
85,350,76027,6,0,P|70:269|51:188,1,160,2|0,3:2|1:2,0:2:0:0:
184,58,76777,2,0,P|143:51|106:63,1,80,2|2,0:2|3:2,0:2:0:0:
327,108,77277,2,0,P|368:105|404:121,1,80,2|2,0:2|1:2,0:2:0:0:
350,199,77777,1,2,0:2:0:0:
273,217,78027,6,0,P|372:122|386:269,1,340,2|2,0:2|0:2,0:2:0:0:
257,349,79589,5,2,0:2:0:0:
86,182,80027,5,0,3:2:0:0:
86,182,80527,5,0,1:2:0:0:
240,108,80777,1,2,0:2:0:0:
138,35,81027,2,0,L|154:129,1,88.000002685547,2|2,3:2|0:2,0:2:0:0:
185,307,81527,1,2,1:2:0:0:
240,108,81777,1,2,0:2:0:0:
105,271,82027,6,0,P|41:258|-1:197,1,132.00000402832,2|0,3:2|0:2,0:2:0:0:
14,184,82527,1,0,1:2:0:0:
4,356,82777,1,2,0:2:0:0:
173,323,83027,2,0,P|213:303|266:305,1,88.000002685547,2|2,3:2|0:2,0:2:0:0:
382,353,83527,1,2,1:2:0:0:
439,155,83777,1,2,0:2:0:0:
243,180,84027,6,0,P|290:224|354:230,1,132.00000402832,2|0,3:2|0:2,0:2:0:0:
367,203,84527,1,0,1:2:0:0:
255,302,84777,1,2,0:2:0:0:
469,339,85027,2,0,L|375:355,1,88.000002685547,2|2,3:2|0:2,0:2:0:0:
512,257,85527,1,2,1:2:0:0:
367,203,85777,1,2,0:2:0:0:
439,37,86027,6,0,B|460:168,1,132.00000402832,2|0,3:2|0:2,0:2:0:0:
451,192,86527,1,0,1:2:0:0:
337,302,86777,1,2,0:2:0:0:
292,155,87027,2,0,L|302:67,1,88.000002685547,2|2,3:2|0:2,0:2:0:0:
175,181,87527,1,0,1:2:0:0:
242,326,87777,1,2,0:2:0:0:
215,99,88027,6,0,P|151:91|98:128,1,132.00000402832,2|2,3:2|0:2,0:2:0:0:
98,127,88527,6,0,P|109:80|100:41,1,88.000002685547,0|2,1:2|0:2,0:2:0:0:
19,177,89027,2,0,P|55:213|95:223,1,88.000002685547,2|2,3:2|0:2,0:2:0:0:
201,350,89527,1,2,1:2:0:0:
174,181,89777,1,2,0:2:0:0:
84,323,90027,6,0,P|148:314|202:351,1,132.00000402832,2|2,3:2|0:2,0:2:0:0:
210,374,90527,1,0,1:2:0:0:
310,220,90777,1,2,0:2:0:0:
498,301,91027,2,0,L|410:287,1,88.000002685547,2|2,3:2|0:2,0:2:0:0:
291,361,91527,1,0,1:2:0:0:
411,287,91777,1,2,0:2:0:0:
227,166,92027,6,0,P|282:128|350:133,1,132.00000402832,2|2,3:2|0:2,0:2:0:0:
366,146,92527,1,0,1:2:0:0:
389,320,92777,1,2,2:2:0:0:
456,177,93027,2,0,P|459:133|444:93,1,88.000002685547,2|2,3:2|0:2,0:2:0:0:
290,252,93527,1,2,1:2:0:0:
254,42,93777,1,2,0:2:0:0:
116,230,94027,6,0,P|83:175|95:112,1,132.00000402832,2|0,3:2|0:2,0:2:0:0:
76,100,94527,2,0,P|55:145|58:195,1,88.000002685547,0|2,1:2|0:2,0:2:0:0:
484,173,95027,5,2,3:2:0:0:
230,105,95277,1,2,0:2:0:0:
394,304,95527,1,2,1:2:0:0:
382,46,95777,1,2,0:2:0:0:
239,267,96027,5,6,0:2:0:0:
256,192,96277,12,0,98027,0:2:0:0:
