osu file format v14

[General]
AudioFilename: audio.mp3
AudioLeadIn: 0
PreviewTime: 78902
Countdown: 0
SampleSet: Soft
StackLeniency: 0.4
Mode: 0
LetterboxInBreaks: 0
WidescreenStoryboard: 1

[Editor]
Bookmarks: 16140,48140,64265
DistanceSpacing: 1
BeatDivisor: 4
GridSize: 8
TimelineZoom: 1.5

[Metadata]
Title:Dancin (Remix by KRONO)
TitleUnicode:Dancin (Remix by KRONO)
Artist:Aaron Smith feat. Luvli
ArtistUnicode:Aaron Smith feat. Luvli
Creator:Lian2002
Version:Normal
Source:
Tags:Electronic Dance English Pop
BeatmapID:2238066
BeatmapSetID:966190

[Difficulty]
HPDrainRate:3
CircleSize:3.5
OverallDifficulty:3
ApproachRate:4
SliderMultiplier:1.1
SliderTickRate:1

[Events]
//Background and Video events
0,0,"DancinBG.jpg",0,0
//Break Periods
//Storyboard Layer 0 (Background)
//Storyboard Layer 1 (Fail)
//Storyboard Layer 2 (Pass)
//Storyboard Layer 3 (Foreground)
//Storyboard Sound Samples

[TimingPoints]
27,500,4,2,1,30,1,0
777,-100,4,2,1,30,0,0
32027,-100,4,2,1,50,0,0
64027,-100,4,2,1,40,0,0
80027,-90.9090909090909,4,2,1,60,0,1
96027,-100,4,2,1,40,0,0
96527,-100,4,2,1,30,0,0
97027,-100,4,2,1,20,0,0
97527,-100,4,2,1,10,0,0
98027,-100,4,2,1,5,0,0

[Colours]
Combo1 : 222,188,188
Combo2 : 168,255,168
Combo3 : 197,197,226
Combo4 : 255,174,215
Combo5 : 255,255,179
Combo6 : 255,197,168

[HitObjects]
48,49,777,6,0,L|161:59,1,110,2|2,0:2|0:2,0:2:0:0:
186,105,1527,2,0,L|256:97,1,55,2|2,0:2|0:2,0:2:0:0:
295,92,2027,1,2,0:0:0:0:
315,248,2777,2,0,P|261:226|200:234,1,110,2|2,0:2|0:2,0:2:0:0:
162,257,3527,2,0,L|96:246,1,55,2|2,0:2|0:2,0:2:0:0:
52,244,4027,1,2,0:0:0:0:
125,362,4777,6,0,L|245:374,1,110,2|2,0:2|0:2,0:2:0:0:
270,331,5527,2,0,L|338:324,1,55,2|2,0:0|0:0,0:0:0:0:
362,284,6027,1,2,0:0:0:0:
465,155,6777,1,2,0:0:0:0:
465,155,7027,2,0,L|399:146,1,55,2|2,0:2|0:2,0:2:0:0:
357,134,7527,1,2,0:0:0:0:
272,63,8027,1,2,0:0:0:0:
112,129,8777,6,0,P|104:186|134:240,1,110,2|2,0:2|0:2,0:2:0:0:
179,245,9527,2,0,L|168:307,1,55,2|2,0:2|0:2,0:2:0:0:
158,353,10027,1,2,0:2:0:0:
322,338,10777,1,2,0:2:0:0:
322,338,11027,2,0,L|396:328,1,55,2|2,0:2|0:2,0:2:0:0:
430,322,11527,1,2,0:2:0:0:
466,218,12027,1,2,0:0:0:0:
384,74,12777,6,0,L|274:88,1,110,2|2,0:2|0:2,0:2:0:0:
220,97,13527,1,2,0:2:0:0:
138,22,14027,1,2,0:0:0:0:
128,336,16027,5,2,0:2:0:0:
40,272,16527,2,0,L|32:144,1,110,2|2,0:2|0:2,0:2:0:0:
62,115,17277,2,0,P|112:96|175:114,1,110,2|2,0:2|0:2,0:2:0:0:
196,153,18027,1,2,0:2:0:0:
262,64,18527,1,2,0:2:0:0:
370,46,19027,1,2,0:0:0:0:
370,46,19277,2,0,L|385:175,1,110,2|2,0:2|0:2,0:2:0:0:
391,209,20027,5,2,0:2:0:0:
488,261,20527,1,2,0:2:0:0:
430,352,21027,1,2,0:0:0:0:
430,352,21277,2,0,P|376:359|322:338,1,110,2|2,0:2|0:2,0:2:0:0:
274,318,22027,1,2,0:2:0:0:
168,347,22527,1,2,0:0:0:0:
152,238,23027,1,2,0:2:0:0:
152,238,23277,2,0,P|100:226|41:252,1,110,2|2,0:2|0:2,0:2:0:0:
4,212,24027,5,2,0:2:0:0:
35,106,24527,2,0,P|87:118|146:92,1,110,2|2,0:2|0:2,0:2:0:0:
169,53,25277,2,0,L|280:63,1,110,2|2,0:2|0:2,0:2:0:0:
332,71,26027,1,2,0:2:0:0:
436,38,26527,2,0,P|444:96|420:146,1,110,2|2,0:2|0:2,0:2:0:0:
375,167,27277,1,2,0:2:0:0:
375,167,27527,2,0,L|386:230,1,55,2|2,0:2|0:2,0:2:0:0:
396,274,28027,5,2,0:2:0:0:
236,317,28777,2,0,L|176:308,2,55,2|2|2,0:2|0:2|0:2,0:2:0:0:
279,282,29527,2,0,L|289:354,2,73.3333333333333,2|2|0,0:2|0:2|0:2,0:2:0:0:
314,217,30527,2,0,L|204:203,1,110,2|2,0:2|2:2,0:2:0:0:
143,112,31527,1,2,0:0:0:0:
44,160,32027,5,2,3:2:0:0:
62,268,32527,1,2,1:2:0:0:
62,268,32777,2,0,L|130:281,1,55,2|2,0:2|3:2,0:2:0:0:
143,325,33277,2,0,L|267:306,1,110,2|2,0:0|0:0,0:0:0:0:
282,354,34027,1,2,3:2:0:0:
370,290,34527,1,2,1:2:0:0:
370,290,34777,2,0,L|387:172,1,110,2|2,0:2|0:2,0:2:0:0:
435,158,35527,2,0,L|423:81,1,55,2|2,1:2|0:2,0:2:0:0:
412,50,36027,5,2,3:2:0:0:
306,18,36527,1,2,1:2:0:0:
246,110,37027,1,2,3:2:0:0:
138,86,37527,2,0,L|81:92,1,55,2|2,1:2|0:2,0:2:0:0:
41,127,38027,2,0,L|50:205,1,55,2|2,3:2|0:2,0:2:0:0:
97,203,38527,2,0,L|85:324,1,110,2|2,1:2|3:2,0:2:0:0:
178,372,39527,5,0,1:0:0:0:
220,270,40027,1,0,3:0:0:0:
327,248,40527,2,0,L|391:254,1,55,2|2,1:2|2:2,0:2:0:0:
434,239,41027,2,0,L|446:294,2,55,2|2|0,3:2|2:2|1:2,2:2:0:0:
442,129,42027,6,0,L|387:135,1,55,2|2,3:2|2:2,0:2:0:0:
360,87,42527,1,2,1:2:0:0:
360,87,42777,2,0,L|239:75,1,110,2|2,0:2|0:2,0:2:0:0:
195,72,43527,1,2,1:2:0:0:
111,0,44027,2,0,P|86:56|95:115,1,110,2|2,3:2|1:2,0:2:0:0:
119,150,44777,1,2,0:2:0:0:
70,248,45277,2,0,L|12:233,2,55,2|2|2,2:2|1:2|2:2,0:2:0:0:
99,294,46027,5,2,0:2:0:0:
462,162,48027,5,2,3:2:0:0:
417,61,48527,2,0,L|355:69,1,55,0|2,1:2|0:2,0:2:0:0:
328,111,49027,2,0,L|269:101,1,55,2|2,3:2|0:2,0:2:0:0:
219,92,49527,1,2,1:2:0:0:
120,44,50027,2,0,L|109:106,1,55,2|2,3:2|0:2,0:2:0:0:
63,126,50527,2,0,L|75:198,1,55,2|2,1:2|0:2,0:2:0:0:
83,234,51027,1,2,3:2:0:0:
111,340,51527,1,2,1:2:0:0:
213,299,52027,6,0,L|339:313,1,110,2|2,3:2|1:2,0:2:0:0:
371,286,52777,1,2,0:2:0:0:
371,286,53027,2,0,L|381:226,1,55,2|2,3:2|2:2,0:2:0:0:
389,177,53527,1,2,1:2:0:0:
466,98,54027,1,2,3:2:0:0:
361,62,54527,2,0,L|302:68,1,55,2|2,1:2|0:2,0:2:0:0:
267,106,55027,2,0,L|190:100,1,55,2|2,3:2|0:2,0:2:0:0:
158,90,55527,1,2,1:2:0:0:
64,32,56027,6,0,P|44:84|61:153,1,110,2|2,3:2|1:2,0:2:0:0:
135,208,57027,2,0,L|264:229,1,110,2|2,3:2|1:2,0:2:0:0:
291,198,57777,1,2,0:2:0:0:
291,198,58027,5,2,3:2:0:0:
281,307,58527,1,2,1:2:0:0:
377,359,59027,2,0,L|447:351,1,55,2|2,3:2|2:2,0:2:0:0:
445,299,59527,2,0,L|456:240,1,55,2|2,1:2|2:2,0:2:0:0:
423,199,60027,6,0,L|407:79,1,110,2|2,3:2|1:2,0:2:0:0:
311,36,61027,1,2,3:2:0:0:
236,117,61527,2,0,L|254:225,2,110,2|2|2,1:2|3:2|1:2,0:2:0:0:
126,128,63027,2,0,L|131:65,2,55,2|2|2,3:2|0:2|1:2,0:2:0:0:
62,217,64027,6,0,P|116:237|180:225,1,110,2|0,3:2|1:2,0:2:0:0:
201,186,64777,2,0,L|215:304,1,110,2|2,0:2|0:2,0:2:0:0:
222,349,65527,1,0,1:2:0:0:
316,293,66027,2,0,L|433:308,1,110,2|2,3:2|1:2,0:2:0:0:
471,277,66777,2,0,P|491:229|477:172,1,110,2|2,0:2|0:2,0:2:0:0:
436,137,67527,1,0,1:2:0:0:
354,62,68027,6,0,L|242:72,1,110,2|2,3:2|1:2,0:2:0:0:
189,80,68777,2,0,P|209:141|191:198,1,110,2|2,0:2|0:2,0:2:0:0:
166,228,69527,1,0,1:2:0:0:
59,201,70027,2,0,P|39:140|57:83,2,110,2|2|2,3:2|1:2|3:2,0:2:0:0:
139,275,71527,1,2,1:2:0:0:
200,183,72027,6,0,L|329:171,1,110,2|2,3:2|1:2,0:2:0:0:
353,139,72777,2,0,L|343:253,1,110,2|2,0:2|0:2,0:2:0:0:
339,303,73527,1,2,1:2:0:0:
438,349,74027,2,0,L|448:228,1,110,2|2,3:2|1:2,0:2:0:0:
491,138,75027,1,2,3:2:0:0:
406,67,75527,1,2,1:2:0:0:
309,119,76027,6,0,L|188:109,1,110,2|0,3:2|1:2,0:2:0:0:
157,146,76777,2,0,P|99:140|42:167,1,110,2|2,0:2|0:2,0:2:0:0:
37,212,77527,1,0,1:2:0:0:
122,281,78027,1,2,0:2:0:0:
456,56,80027,6,0,L|446:178,1,121.000003692627,2|2,3:2|1:2,0:2:0:0:
397,212,80777,1,2,0:2:0:0:
397,212,81027,2,0,L|405:274,1,60.5000018463135,2|2,3:2|0:2,0:2:0:0:
414,331,81527,1,2,1:2:0:0:
294,352,82027,2,0,P|254:313|179:313,1,121.000003692627,2|2,3:2|1:2,0:2:0:0:
149,351,82777,1,2,2:2:0:0:
149,351,83027,2,0,L|75:341,1,60.5000018463135,2|2,3:2|0:2,0:2:0:0:
29,332,83527,1,2,1:2:0:0:
5,213,84027,6,0,L|17:87,1,121.000003692627,2|0,3:2|1:2,0:2:0:0:
66,57,84777,1,2,0:2:0:0:
66,57,85027,2,0,L|135:66,1,60.5000018463135,2|2,3:2|0:2,0:2:0:0:
168,108,85527,1,2,1:2:0:0:
245,15,86027,2,0,L|370:1,1,121.000003692627,2|2,3:2|1:2,0:2:0:0:
460,76,87027,2,0,L|451:139,1,60.5000018463135,2|2,3:2|0:2,0:2:0:0:
392,149,87527,2,0,L|401:213,1,60.5000018463135,2|2,1:2|0:2,0:2:0:0:
395,269,88027,6,0,P|337:262|276:311,1,121.000003692627,2|0,3:2|1:2,0:2:0:0:
246,340,88777,1,2,0:2:0:0:
246,340,89027,2,0,L|184:336,1,60.5000018463135,2|0,3:2|2:2,0:2:0:0:
135,301,89527,1,2,1:2:0:0:
78,194,90027,2,0,L|199:180,1,121.000003692627,2|0,3:2|1:2,0:2:0:0:
235,132,90777,1,2,0:2:0:0:
235,132,91027,2,0,L|305:140,1,60.5000018463135,2|2,3:2|0:2,0:2:0:0:
354,148,91527,1,2,1:2:0:0:
457,210,92027,6,0,P|479:156|462:76,1,121.000003692627,2|0,3:2|1:2,0:2:0:0:
418,66,92777,1,2,0:2:0:0:
418,66,93027,2,0,L|347:54,1,60.5000018463135,2|2,3:2|2:2,0:2:0:0:
298,48,93527,1,2,1:2:0:0:
209,130,94027,2,0,L|82:139,1,121.000003692627,0|0,3:2|1:2,0:2:0:0:
47,183,94777,1,2,0:2:0:0:
47,183,95027,2,0,L|60:268,1,60.5000018463135,2|2,3:2|0:2,0:2:0:0:
65,302,95527,1,2,1:2:0:0:
163,351,96027,5,6,0:2:0:0:
256,192,96277,12,0,98027,0:0:0:0:
