osu file format v14

[General]
AudioFilename: audio.mp3
AudioLeadIn: 0
PreviewTime: 78902
Countdown: 0
SampleSet: Soft
StackLeniency: 0.4
Mode: 0
LetterboxInBreaks: 0
WidescreenStoryboard: 1

[Editor]
DistanceSpacing: 1.5
BeatDivisor: 4
GridSize: 8
TimelineZoom: 1.5

[Metadata]
Title:Dancin (Remix by KRONO)
TitleUnicode:Dancin (Remix by KRONO)
Artist:Aaron Smith feat. Luvli
ArtistUnicode:Aaron Smith feat. Luvli
Creator:Lian2002
Version:Hard
Source:
Tags:Electronic Dance English Pop
BeatmapID:2022410
BeatmapSetID:966190

[Difficulty]
HPDrainRate:5
CircleSize:3.5
OverallDifficulty:5
ApproachRate:7.5
SliderMultiplier:1.3
SliderTickRate:1

[Events]
//Background and Video events
0,0,"DancinBG.jpg",0,0
//Break Periods
//Storyboard Layer 0 (Background)
//Storyboard Layer 1 (Fail)
//Storyboard Layer 2 (Pass)
//Storyboard Layer 3 (Foreground)
//Storyboard Sound Samples

[TimingPoints]
27,500,4,2,1,30,1,0
777,-133.333333333333,4,2,1,30,0,0
32027,-107.52688172043,4,2,1,50,0,0
43902,-107.52688172043,4,2,1,5,0,0
44027,-107.52688172043,4,2,1,50,0,0
64027,-116.279069767442,4,2,1,40,0,0
80027,-100,4,2,1,60,0,1
96027,-100,4,2,1,40,0,0
96527,-100,4,2,1,30,0,0
97027,-100,4,2,1,20,0,0
97527,-100,4,2,1,10,0,0
98027,-100,4,2,1,5,0,0

[Colours]
Combo1 : 222,188,188
Combo2 : 168,255,168
Combo3 : 197,197,226
Combo4 : 255,174,215
Combo5 : 255,255,179
Combo6 : 255,197,168

[HitObjects]
144,128,27,5,2,0:2:0:0:
144,128,777,2,0,L|256:140,1,97.50000371933,2|2,0:2|0:0,0:2:0:0:
301,74,1527,2,0,L|357:80,1,48.750001859665,2|2,0:2|0:0,0:2:0:0:
429,41,2027,6,0,P|437:93|422:139,1,97.50000371933,2|2,0:2|0:2,0:2:0:0:
343,169,2777,2,0,L|353:268,1,97.50000371933,2|2,0:2|0:0,0:2:0:0:
434,298,3527,1,2,0:0:0:0:
434,298,3777,1,2,0:0:0:0:
370,359,4027,6,0,P|320:352|273:310,1,97.50000371933,2|0,0:2|0:2,0:2:0:0:
272,237,4777,2,0,P|226:257|198:297,1,97.50000371933,2|2,0:2|0:2,0:2:0:0:
113,269,5527,1,2,0:0:0:0:
113,269,5777,1,2,0:0:0:0:
86,352,6027,6,0,P|45:323|25:278,1,97.50000371933,2|0,0:2|0:2,0:2:0:0:
113,269,6777,2,0,L|118:219,1,48.750001859665,2|2,0:2|0:0,0:2:0:0:
65,149,7277,1,2,0:0:0:0:
65,149,7402,1,2,0:0:0:0:
65,149,7527,1,2,0:0:0:0:
112,74,7777,1,2,0:2:0:0:
196,97,8027,6,0,L|295:86,1,97.50000371933,2|0,0:2|0:0,0:2:0:0:
359,143,8777,2,0,P|413:142|455:167,1,97.50000371933,2|2,0:2|0:2,0:2:0:0:
389,226,9527,1,2,0:0:0:0:
389,226,9777,1,2,0:0:0:0:
419,308,10027,6,0,P|364:308|322:283,1,97.50000371933,2|2,0:2|0:2,0:2:0:0:
263,229,10777,2,0,P|247:255|241:292,1,48.750001859665,2|2,0:2|0:0,0:2:0:0:
183,337,11277,1,2,0:0:0:0:
183,337,11402,1,2,0:0:0:0:
183,337,11527,1,2,0:0:0:0:
99,310,11777,1,2,0:2:0:0:
41,376,12027,6,0,P|18:332|20:282,1,97.50000371933,2|2,0:2|0:2,0:2:0:0:
80,222,12777,2,0,P|102:178|100:128,1,97.50000371933,2|2,0:2|0:2,0:2:0:0:
16,157,13527,1,2,0:0:0:0:
16,157,13777,1,2,0:0:0:0:
40,63,14027,6,0,P|84:41|151:55,1,97.50000371933,2|0,0:2|0:2,0:2:0:0:
127,218,15089,2,0,P|101:178|100:129,1,97.50000371933,2|2,0:0|0:0,0:0:0:0:
209,52,16027,5,2,0:2:0:0:
100,130,16527,2,0,L|199:143,1,97.50000371933,2|2,0:2|0:2,0:2:0:0:
268,200,17277,2,0,P|287:156|278:105,1,97.50000371933,2|2,0:2|0:2,0:2:0:0:
247,23,18027,6,0,P|226:34|209:53,1,48.750001859665,2|2,0:2|0:2,0:2:0:0:
279,108,18527,2,0,L|340:99,1,48.750001859665,2|2,0:2|0:2,0:2:0:0:
415,78,19027,1,2,0:0:0:0:
479,15,19277,2,0,P|502:68|491:127,1,97.50000371933,2|2,0:2|0:2,0:2:0:0:
434,172,20027,6,0,L|441:221,1,48.750001859665,2|2,0:2|0:2,0:2:0:0:
358,262,20527,2,0,L|351:213,1,48.750001859665,2|2,0:2|0:2,0:2:0:0:
428,318,21027,1,2,0:0:0:0:
344,352,21277,2,0,L|240:342,1,97.50000371933,2|2,0:2|0:2,0:2:0:0:
157,366,22027,5,2,0:0:0:0:
157,366,22277,1,2,0:0:0:0:
111,288,22527,2,0,L|43:297,2,48.750001859665,2|2|2,0:2|0:2|0:2,0:2:0:0:
165,214,23277,2,0,L|148:100,1,97.50000371933,2|0,0:2|0:2,0:2:0:0:
62,92,24027,6,0,P|89:51|134:29,2,97.50000371933,2|2|2,0:2|0:2|0:2,0:2:0:0:
151,118,25277,2,0,L|258:126,1,97.50000371933,2|2,0:2|0:2,0:2:0:0:
275,38,26027,6,0,L|225:34,1,48.750001859665,2|2,0:2|0:2,0:2:0:0:
248,125,26527,2,0,L|297:128,1,48.750001859665,2|2,0:2|0:2,0:2:0:0:
359,61,27027,1,2,0:0:0:0:
446,80,27277,2,0,L|495:83,2,48.750001859665,2|2|2,0:2|0:2|0:2,0:2:0:0:
384,145,28027,6,0,L|376:244,1,97.50000371933,2|2,0:2|0:2,0:2:0:0:
464,227,28777,2,0,L|474:284,1,48.750001859665,2|2,0:2|0:2,0:2:0:0:
488,364,29277,1,2,0:2:0:0:
402,330,29527,2,0,P|366:334|330:321,2,65.0000024795533,2|2|2,0:2|0:2|0:2,0:2:0:0:
291,245,30527,6,0,L|203:253,1,73.1250027894975,2|2,0:2|0:2,0:2:0:0:
179,278,31027,2,0,L|91:270,1,73.1250027894975,2|2,0:2|0:2,0:2:0:0:
71,302,31527,2,0,L|63:342,3,24.3750009298325,2|2|2|2,0:2|0:2|0:2|0:2,0:2:0:0:
58,370,32027,5,2,3:2:0:0:
374,252,32527,5,0,1:2:0:0:
440,313,32777,2,0,P|457:286|460:230,1,60.4500018909073,2|0,0:2|3:2,0:2:0:0:
374,252,33277,2,0,P|351:229|337:175,1,60.4500018909073,2|0,0:2|1:2,0:2:0:0:
366,117,33777,1,2,0:0:0:0:
427,180,34027,6,0,P|445:154|451:98,1,60.4500018909073,2|2,3:2|2:2,0:2:0:0:
402,32,34527,1,2,1:2:0:0:
302,51,34777,2,0,P|283:76|277:132,1,60.4500018909073,2|0,0:2|3:2,0:2:0:0:
196,144,35277,1,2,0:2:0:0:
156,64,35527,1,2,1:2:0:0:
156,64,35777,1,2,0:2:0:0:
67,45,36027,6,0,L|51:165,1,120.900003781815,2|0,3:2|1:2,0:2:0:0:
94,244,36777,1,2,0:2:0:0:
20,297,37027,2,0,P|5:259|4:229,1,60.4500018909073,2|2,3:2|0:2,0:2:0:0:
94,244,37527,2,0,P|108:205|127:182,1,60.4500018909073,2|2,1:2|0:2,0:2:0:0:
199,231,38027,2,0,P|184:269|165:292,1,60.4500018909073,2|2,3:2|0:2,0:2:0:0:
137,368,38527,2,0,P|195:368|249:326,2,120.900003781815,2|2|2,1:2|3:2|1:2,0:2:0:0:
311,261,40027,6,0,P|368:261|424:299,1,120.900003781815,2|2,3:2|1:2,0:2:0:0:
458,211,40777,2,0,P|436:189|423:155,1,60.4500018909073,2|2,0:2|3:2,0:2:0:0:
480,91,41277,1,2,0:2:0:0:
396,56,41527,1,2,1:2:0:0:
396,56,41777,1,2,0:0:0:0:
341,128,42027,6,0,L|274:137,1,60.4500018909073,2|2,3:2|0:2,0:2:0:0:
199,96,42527,1,2,1:2:0:0:
229,10,42777,2,0,P|250:21|280:57,1,60.4500018909073,2|0,0:2|3:2,0:2:0:0:
281,136,43277,1,2,0:2:0:0:
206,186,43527,2,0,P|160:178|121:145,1,90.675002836361,2|0,1:2|2:2,0:2:0:0:
89,125,44027,6,0,P|69:178|98:251,1,120.900003781815,2|0,3:2|1:0,0:0:0:0:
170,273,44777,2,0,L|234:265,1,60.4500018909073,2|0,2:2|3:2,0:2:0:0:
225,356,45277,2,0,L|137:368,1,60.4500018909073,2|2,2:2|1:2,0:2:0:0:
92,310,45777,1,2,0:2:0:0:
9,348,46027,5,2,0:2:0:0:
406,62,48027,5,0,3:2:0:0:
406,62,48527,1,0,1:2:0:0:
343,134,48777,2,0,L|359:198,1,60.4500018909073,2|2,0:2|3:2,0:2:0:0:
385,285,49277,1,2,0:2:0:0:
465,233,49527,2,0,P|417:197|357:193,1,120.900003781815,2|2,1:2|3:2,0:2:0:0:
298,268,50277,5,2,0:2:0:0:
355,337,50527,2,0,P|373:313|384:285,1,60.4500018909073,2|2,1:2|0:2,0:2:0:0:
269,215,51027,2,0,P|286:239|297:267,1,60.4500018909073,2|2,3:2|2:2,2:2:0:0:
205,285,51527,1,2,1:2:0:0:
205,285,51777,1,2,0:0:0:0:
166,368,52027,6,0,P|126:326|113:255,1,120.900003781815,2|0,3:2|1:2,0:2:0:0:
190,147,52777,1,2,0:2:0:0:
98,175,53027,2,0,P|69:164|30:164,1,60.4500018909073,2|2,3:2|0:2,0:2:0:0:
190,147,53527,6,0,P|215:112|222:31,2,120.900003781815,2|2|2,1:2|3:2|1:2,0:2:0:0:
116,81,54777,1,2,0:2:0:0:
39,162,55027,2,0,P|69:164|97:175,1,60.4500018909073,2|2,3:2|2:2,0:2:0:0:
163,237,55527,1,2,1:2:0:0:
163,237,55777,1,2,0:2:0:0:
140,336,56027,6,0,P|199:332|249:299,1,120.900003781815,2|0,3:2|1:2,0:2:0:0:
451,275,57027,2,0,P|391:271|340:230,1,120.900003781815,2|0,3:2|1:2,0:2:0:0:
332,144,57777,1,2,0:2:0:0:
394,71,58027,6,0,P|453:74|501:109,1,120.900003781815,2|0,3:2|1:2,0:2:0:0:
422,164,58777,1,2,0:2:0:0:
332,144,59027,2,0,P|312:109|307:73,1,60.4500018909073,2|2,3:2|0:2,0:2:0:0:
204,90,59527,2,0,P|196:118|180:144,1,60.4500018909073,2|2,1:2|0:2,0:2:0:0:
118,71,60027,6,0,P|58:74|11:109,1,120.900003781815,2|0,3:2|1:2,0:2:0:0:
14,205,60777,1,2,0:2:0:0:
108,219,61027,2,0,L|90:146,2,60.4500018909073,2|2|2,3:2|0:2|1:2,0:2:0:0:
147,306,61777,1,2,0:2:0:0:
227,255,62027,6,0,L|241:184,2,60.4500018909073,2|2|2,3:2|0:2|1:2,0:2:0:0:
271,340,62777,1,2,0:2:0:0:
355,294,63027,2,0,L|338:224,2,60.4500018909073,2|2|2,3:2|0:2|1:2,0:2:0:0:
455,172,64027,5,2,3:2:0:0:
319,60,64527,1,2,1:2:0:0:
254,128,64777,2,0,P|236:107|227:81,1,55.9000008529663,2|2,0:2|3:2,0:2:0:0:
344,156,65277,2,0,P|333:180|314:201,1,55.9000008529663,2|2,0:2|1:2,0:2:0:0:
254,128,65777,1,2,0:2:0:0:
319,60,66027,6,0,P|373:61|429:103,1,111.800001705933,2|0,3:2|1:2,0:2:0:0:
440,181,66777,1,2,0:2:0:0:
440,181,67027,1,2,3:2:0:0:
420,90,67277,2,0,P|393:99|372:117,1,55.9000008529663,2|2,0:2|1:2,0:2:0:0:
353,207,67777,1,2,0:2:0:0:
439,180,68027,6,0,P|441:235|413:283,1,111.800001705933,2|0,3:2|1:2,0:2:0:0:
319,296,68777,2,0,L|243:280,1,55.9000008529663,2|2,0:2|3:2,0:2:0:0:
298,196,69277,2,0,L|354:207,1,55.9000008529663,2|2,0:2|1:2,0:2:0:0:
265,284,69777,1,2,0:2:0:0:
203,213,70027,6,0,P|174:259|177:322,1,111.800001705933,2|0,3:2|1:2,0:2:0:0:
265,284,70777,1,2,0:0:0:0:
298,196,71027,1,2,3:2:0:0:
239,123,71277,1,2,0:2:0:0:
239,123,71402,1,2,0:2:0:0:
239,123,71527,2,0,L|185:111,1,55.9000008529663,2|2,1:2|2:2,0:2:0:0:
96,142,72027,6,0,P|94:87|123:41,1,111.800001705933,2|0,3:2|1:2,0:2:0:0:
162,207,72777,2,0,L|217:217,1,55.9000008529663,2|2,2:2|3:2,0:2:0:0:
77,236,73277,2,0,P|61:257|51:293,1,55.9000008529663,2|2,0:2|1:2,0:2:0:0:
75,374,73777,1,2,0:2:0:0:
151,320,74027,6,0,P|106:287|51:284,1,111.800001705933,2|0,3:2|1:0,0:2:0:0:
213,247,74777,1,2,0:0:0:0:
293,294,75027,1,2,3:2:0:0:
360,229,75277,1,2,0:2:0:0:
360,229,75402,1,2,0:2:0:0:
360,229,75527,2,0,L|430:241,1,55.9000008529663,2|2,1:2|0:2,0:0:0:0:
480,303,76027,6,0,P|503:249|494:192,1,111.800001705933,2|0,3:2|1:0,0:2:0:0:
422,142,76777,2,0,P|413:120|407:83,1,55.9000008529663,2|0,0:2|3:2,0:2:0:0:
324,44,77277,2,0,P|300:51|272:72,1,55.9000008529663,2|0,0:2|1:2,0:2:0:0:
199,122,77777,1,2,0:2:0:0:
114,82,78027,5,2,2:2:0:0:
56,344,80027,5,0,3:2:0:0:
56,344,80527,1,0,1:2:0:0:
122,263,80777,1,2,0:2:0:0:
204,325,81027,2,0,L|268:317,1,65,2|2,3:2|0:0,0:2:0:0:
352,254,81527,1,2,1:2:0:0:
363,357,81777,1,2,2:2:0:0:
443,290,82027,6,0,L|461:140,1,130,2|0,3:2|1:0,0:2:0:0:
443,57,82777,1,2,0:2:0:0:
356,22,83027,2,0,P|325:10|293:10,1,65,2|2,3:2|0:0,0:2:0:0:
302,114,83526,2,0,P|333:126|371:126,1,65,2|2,1:2|0:0,0:2:0:0:
212,76,84027,6,0,P|202:142|249:207,1,130,2|0,3:2|1:0,0:2:0:0:
323,245,84777,1,2,0:2:0:0:
235,300,85027,2,0,L|164:286,2,65,2|2|2,3:2|0:0|1:2,0:2:0:0:
323,245,85777,1,2,0:2:0:0:
324,348,86027,6,0,L|457:328,1,130,2|0,3:2|1:0,0:2:0:0:
471,226,86777,1,2,0:2:0:0:
378,178,87027,2,0,L|371:242,1,65,2|2,3:2|0:0,0:2:0:0:
277,198,87527,2,0,L|285:118,1,65,2|2,1:2|0:0,0:2:0:0:
230,41,88027,6,0,P|293:29|360:61,1,130,2|0,3:2|1:0,0:2:0:0:
283,133,88777,1,2,0:2:0:0:
230,41,89027,1,2,3:2:0:0:
138,90,89277,1,2,0:0:0:0:
187,181,89527,2,0,L|193:252,1,65,2|2,1:2|0:0,0:2:0:0:
107,325,90027,6,0,B|83:353|83:353|94:251,1,130,2|0,3:2|1:0,0:2:0:0:
192,245,90777,1,2,0:2:0:0:
222,344,91027,2,0,L|294:336,1,65,2|2,3:2|0:0,0:2:0:0:
326,240,91527,2,0,L|390:248,1,65,2|2,1:2|0:0,0:2:0:0:
462,323,92027,6,0,B|489:296|489:296|482:204,1,130,2|0,3:2|1:0,0:2:0:0:
390,248,92777,1,2,0:2:0:0:
357,149,93027,2,0,L|292:142,2,65,2|2|2,3:2|0:2|1:2,0:2:0:0:
390,248,93777,1,2,0:2:0:0:
257,328,94027,6,0,L|105:344,1,130,2|0,3:2|1:0,0:2:0:0:
56,264,94777,1,2,0:2:0:0:
56,264,95027,1,2,3:2:0:0:
155,234,95277,1,2,0:2:0:0:
160,130,95527,1,2,1:2:0:0:
63,90,95777,1,2,0:2:0:0:
2,170,96027,5,6,0:2:0:0:
256,192,96277,12,0,98027,0:0:0:0:
