osu file format v14

[General]
AudioFilename: audio.mp3
AudioLeadIn: 0
PreviewTime: 78902
Countdown: 0
SampleSet: Soft
StackLeniency: 0.4
Mode: 0
LetterboxInBreaks: 0
WidescreenStoryboard: 1

[Editor]
Bookmarks: 48140,64265
DistanceSpacing: 1
BeatDivisor: 4
GridSize: 16
TimelineZoom: 1.4

[Metadata]
Title:Dancin (Remix by KRONO)
TitleUnicode:Dancin (Remix by KRONO)
Artist:Aaron Smith feat. Luvli
ArtistUnicode:Aaron Smith feat. Luvli
Creator:Lian2002
Version:Easy
Source:
Tags:Electronic Dance English Pop
BeatmapID:2336858
BeatmapSetID:966190

[Difficulty]
HPDrainRate:2
CircleSize:2
OverallDifficulty:2
ApproachRate:3
SliderMultiplier:0.95
SliderTickRate:1

[Events]
//Background and Video events
0,0,"DancinBG.jpg",0,0
//Break Periods
//Storyboard Layer 0 (Background)
//Storyboard Layer 1 (Fail)
//Storyboard Layer 2 (Pass)
//Storyboard Layer 3 (Foreground)
//Storyboard Sound Samples

[TimingPoints]
27,500,4,2,1,30,1,0
777,-100,4,2,1,30,0,0
32027,-100,4,2,1,50,0,0
64027,-100,4,2,1,40,0,0
80027,-95.2380952380952,4,2,1,60,0,1
96027,-100,4,2,1,40,0,0
96527,-100,4,2,1,30,0,0
97027,-100,4,2,1,20,0,0
97527,-100,4,2,1,10,0,0
98027,-100,4,2,1,5,0,0

[Colours]
Combo1 : 222,188,188
Combo2 : 168,255,168
Combo3 : 197,197,226
Combo4 : 255,174,215
Combo5 : 255,255,179
Combo6 : 255,197,168

[HitObjects]
145,95,777,6,0,L|300:107,1,142.5,2|2,0:2|0:2,0:2:0:0:
367,54,2027,1,2,0:2:0:0:
452,168,2777,2,0,L|439:325,1,142.5,2|2,0:2|0:2,0:2:0:0:
356,355,4027,1,2,0:2:0:0:
216,326,4777,6,0,L|54:314,1,142.5,2|2,0:2|0:2,0:2:0:0:
27,232,6027,1,2,0:2:0:0:
141,80,7027,1,2,0:2:0:0:
225,122,7527,1,2,0:2:0:0:
289,52,8027,1,2,0:2:0:0:
430,72,8777,6,0,L|413:234,1,142.5,2|2,0:2|0:2,0:2:0:0:
430,307,10027,1,2,0:2:0:0:
297,171,11027,1,2,0:2:0:0:
245,250,11527,1,2,0:2:0:0:
164,200,12027,1,2,0:2:0:0:
129,61,12777,6,0,P|75:53|-1:109,1,142.5,2|2,0:2|0:2,0:2:0:0:
8,194,14027,2,0,L|16:297,1,95,2|0,0:2|0:2,0:2:0:0:
428,336,16027,5,2,0:2:0:0:
364,265,16527,2,0,L|379:152,1,95,2|2,0:2|0:2,0:2:0:0:
383,123,17277,2,0,P|334:101|278:108,1,95,2|2,0:2|0:2,0:2:0:0:
248,118,18027,1,2,0:2:0:0:
180,50,18527,1,2,0:2:0:0:
89,79,19027,1,2,0:2:0:0:
89,79,19277,2,0,L|97:239,1,142.5,2|2,0:2|0:2,0:2:0:0:
133,308,20527,5,2,0:2:0:0:
226,323,21027,2,0,L|338:310,1,95,2|2,0:2|0:2,0:2:0:0:
414,298,22027,1,2,0:2:0:0:
427,203,22527,1,2,0:2:0:0:
437,108,23027,1,2,0:2:0:0:
437,108,23277,2,0,P|354:103|288:79,1,142.5,2|2,0:2|0:2,0:2:0:0:
203,76,24527,6,0,L|219:184,1,95,2|2,0:2|0:2,0:2:0:0:
185,206,25277,2,0,P|128:199|77:225,1,95,2|2,0:2|0:2,0:2:0:0:
67,251,26027,1,2,0:2:0:0:
121,328,26527,2,0,L|237:341,1,95,2|2,0:2|0:2,0:2:0:0:
290,280,27527,1,2,0:2:0:0:
376,318,28027,1,2,0:2:0:0:
477,217,28777,5,2,0:2:0:0:
376,116,29527,2,0,P|382:170|362:220,1,95,2|2,0:2|0:2,0:2:0:0:
282,246,30527,5,2,0:0:0:0:
256,154,31027,1,2,0:0:0:0:
278,61,31527,2,0,P|227:63|178:93,1,95,2|0,0:2|3:2,0:2:0:0:
100,100,32527,5,2,1:2:0:0:
100,100,32777,2,0,L|112:209,1,95,2|2,0:2|0:2,0:2:0:0:
85,286,33777,1,2,0:2:0:0:
85,286,34027,2,0,B|234:311,1,142.5,2|2,3:2|2:2,0:2:0:0:
320,318,35277,2,0,L|307:210,1,95,2|2,0:0|0:0,0:0:0:0:
304,176,36027,6,0,P|353:153|409:158,2,95,2|2|2,3:2|1:2|3:2,0:2:0:0:
244,101,37527,1,2,1:2:0:0:
155,135,38027,1,2,3:2:0:0:
61,118,38527,2,0,P|38:69|43:18,2,95,2|2|2,1:2|3:2|1:2,0:2:0:0:
155,135,40027,6,0,L|142:246,1,95,2|2,3:2|1:2,0:2:0:0:
113,319,41027,2,0,L|214:335,1,95,0|0,3:2|1:2,0:2:0:0:
291,291,42027,1,2,3:2:0:0:
374,336,42527,1,0,1:2:0:0:
374,336,42777,2,0,L|349:176,1,142.5,2|2,0:2|1:2,0:2:0:0:
446,197,44027,6,0,L|457:86,1,95,2|2,3:2|1:2,0:2:0:0:
462,55,44777,1,2,0:2:0:0:
368,73,45277,2,0,P|304:51|259:45,1,95,2|2,0:2|0:2,0:2:0:0:
232,68,46027,1,2,0:2:0:0:
63,297,48027,6,0,L|174:312,1,95,2|2,3:2|1:2,0:2:0:0:
248,337,49027,2,0,P|248:274|224:235,1,95,2|2,3:2|1:2,0:2:0:0:
171,174,50027,1,2,3:2:0:0:
210,87,50527,2,0,P|263:77|314:96,1,95,0|2,1:2|3:2,0:2:0:0:
393,110,51527,1,2,1:2:0:0:
350,194,52027,6,0,P|343:224|367:290,1,95,2|2,3:2|1:2,0:2:0:0:
296,352,53027,1,2,3:2:0:0:
212,305,53527,2,0,L|112:318,1,95,2|2,1:2|3:2,0:2:0:0:
55,245,54527,1,2,1:2:0:0:
63,150,55027,2,0,P|116:143|163:161,1,95,2|2,3:2|1:2,0:2:0:0:
238,200,56027,5,0,3:0:0:0:
326,166,56527,1,0,1:2:0:0:
324,71,57027,2,0,L|425:91,1,95,2|2,3:2|1:2,0:2:0:0:
498,138,58027,2,0,P|502:202|483:242,1,95,2|2,3:2|1:2,0:2:0:0:
408,276,59027,1,2,3:2:0:0:
317,246,59527,1,2,1:2:0:0:
224,225,60027,6,0,P|223:279|246:316,1,95,2|2,3:2|1:2,0:2:0:0:
320,369,61027,1,2,3:2:0:0:
394,309,61527,2,0,L|493:325,2,95,2|2|2,1:2|3:2|1:2,0:2:0:0:
413,215,63027,2,0,L|482:207,2,47.5,2|2|2,3:2|0:2|1:2,0:2:0:0:
348,144,64027,6,0,P|358:86|332:39,1,95,2|2,3:2|1:2,0:2:0:0:
299,40,64777,2,0,L|145:63,1,142.5,2|2,0:2|1:2,0:2:0:0:
83,120,66027,1,2,3:2:0:0:
66,261,66777,2,0,P|122:269|183:202,1,142.5,2|2,0:2|1:2,0:2:0:0:
257,157,68027,1,2,3:2:0:0:
395,123,68777,6,0,P|406:185|415:275,1,142.5,2|2,0:2|1:2,0:2:0:0:
360,342,70027,2,0,P|303:349|256:325,1,95,2|0,3:2|1:2,0:2:0:0:
177,361,71027,1,2,3:2:0:0:
93,316,71527,1,2,1:2:0:0:
98,221,72027,1,2,3:2:0:0:
221,149,72777,6,0,P|198:92|253:15,1,142.5,2|2,0:2|1:2,0:2:0:0:
328,15,74027,1,2,3:2:0:0:
447,162,75027,1,2,3:2:0:0:
447,256,75527,1,2,1:2:0:0:
373,316,76027,1,2,3:2:0:0:
231,297,76777,6,0,P|176:314|106:256,1,142.5,2|2,0:2|1:2,0:2:0:0:
80,178,78027,1,2,0:2:0:0:
456,100,80027,6,0,P|416:76|356:76,1,99.7499969558717,2|2,3:2|1:2,0:2:0:0:
282,131,81027,1,2,3:2:0:0:
187,98,81527,1,0,1:2:0:0:
116,27,82027,2,0,P|88:93|119:180,1,149.624995433808,2|2,3:2|2:2,0:2:0:0:
147,195,83027,1,2,3:2:0:0:
97,281,83527,1,2,1:2:0:0:
169,349,84027,6,0,L|274:324,1,99.7499969558717,2|0,3:2|1:2,0:2:0:0:
287,228,85027,1,2,3:2:0:0:
383,201,85527,1,2,1:2:0:0:
439,283,86027,2,0,P|483:205|465:144,1,149.624995433808,2|2,3:2|2:2,0:2:0:0:
450,104,87027,1,2,3:2:0:0:
373,39,87527,1,2,1:2:0:0:
288,92,88027,6,0,L|175:70,1,99.7499969558717,2|0,3:2|1:2,0:2:0:0:
90,64,89027,1,2,3:2:0:0:
64,160,89527,1,2,1:2:0:0:
17,247,90027,2,0,P|10:302|92:331,1,149.624995433808,2|2,3:2|2:2,0:2:0:0:
130,310,91027,1,2,3:2:0:0:
219,355,91527,1,2,1:2:0:0:
268,268,92027,6,0,L|388:281,1,99.7499969558717,2|2,3:2|1:2,0:2:0:0:
446,218,93027,1,2,3:2:0:0:
443,118,93527,1,2,1:2:0:0:
359,62,94027,2,0,P|301:51|229:98,1,149.624995433808,2|2,3:2|2:2,0:2:0:0:
192,132,95027,1,2,3:2:0:0:
101,90,95527,1,2,1:2:0:0:
256,192,96027,12,0,98027,0:2:0:0:
